<?xml version="1.0" standalone="no"?>
<!DOCTYPE svg PUBLIC "-//W3C//DTD SVG 1.1//EN" "http://www.w3.org/Graphics/SVG/1.1/DTD/svg11.dtd" >
<svg xmlns="http://www.w3.org/2000/svg" xmlns:xlink="http://www.w3.org/1999/xlink" version="1.1">
<metadata>
Created by FontForge 20201107 at Fri Feb  5 22:10:32 2021
 By Jimmy Wärting
Copyright (c) 1981, 1982, 1983, 1989 and 1993, Linotype Library GmbH or its affiliated Linotype-Hell companies. All rights reserved.

The digitally encoded machine readable software for producing the Typefaces licensed to you is now the property of Heidelberger Druckmaschinen AG and its licensors, and may not be reproduced, used, displayed, modified, disclosed or transferred without the express written approval of Heidelberger Druckmaschinen AG.

Copyright (c) 1988, 1990, 1993 Adobe Systems Incorporated. All Rights Reserved.
</metadata>
<defs>
<font id="HelveticaNeue" horiz-adv-x="556" >
  <font-face 
    font-family="Helvetica Neue"
    font-weight="400"
    font-stretch="normal"
    units-per-em="1000"
    panose-1="2 0 5 3 0 0 0 2 0 4"
    ascent="800"
    descent="-200"
    x-height="517"
    cap-height="714"
    bbox="-951 -481 1987 1077"
    underline-thickness="50"
    underline-position="-125"
    unicode-range="U+0008-FFA7"
  />
    <missing-glyph />
    <glyph glyph-name="fi" unicode="fi" horiz-adv-x="518" 
d="M365 0h85v517h-85v-517zM365 610h85v104h-85v-104zM99 442v-442h85v442h100v75h-100v72q0 34 17 46t48 12q11 0 24 -1.5t24 -5.5v74q-12 4 -27.5 6t-27.5 2q-70 0 -106.5 -32.5t-36.5 -95.5v-77h-87v-75h87z" />
    <glyph glyph-name="fl" unicode="fl" horiz-adv-x="518" 
d="M365 714v-714h85v714h-85zM99 442v-442h85v442h100v75h-100v72q0 34 17 46t48 12q11 0 24 -1.5t24 -5.5v74q-12 4 -27.5 6t-27.5 2q-70 0 -106.5 -32.5t-36.5 -95.5v-77h-87v-75h87z" />
    <glyph glyph-name="uniFB00" unicode="ff" horiz-adv-x="577" 
d="M380 442h-196v-442h-85v442h-87v75h87v77q0 63 36.5 95.5t106.5 32.5q12 0 27.5 -2t27.5 -6v-74q-11 4 -24 5.5t-24 1.5q-31 0 -48 -12t-17 -46v-72h196v77q0 63 36.5 95.5t106.5 32.5q12 0 27.5 -2t27.5 -6v-74q-11 4 -24 5.5t-24 1.5q-31 0 -48 -12t-17 -46v-72h100
v-75h-100v-442h-85v442z" />
    <glyph glyph-name="uniFB03" unicode="ffi" horiz-adv-x="799" 
d="M380 442h-196v-442h-85v442h-87v75h87v77q0 63 36.5 95.5t106.5 32.5q12 0 27.5 -2t27.5 -6v-74q-11 4 -24 5.5t-24 1.5q-31 0 -48 -12t-17 -46v-72h196v77q0 63 36.5 95.5t106.5 32.5q12 0 27.5 -2t27.5 -6v-74q-11 4 -24 5.5t-24 1.5q-31 0 -48 -12t-17 -46v-72h100
v-75h-100v-442h-85v442zM731 610h-85v104h85v-104zM646 517h85v-517h-85v517z" />
    <glyph glyph-name="uniFB04" unicode="ffl" horiz-adv-x="799" 
d="M380 442h-196v-442h-85v442h-87v75h87v77q0 63 36.5 95.5t106.5 32.5q12 0 27.5 -2t27.5 -6v-74q-11 4 -24 5.5t-24 1.5q-31 0 -48 -12t-17 -46v-72h196v77q0 63 36.5 95.5t106.5 32.5q12 0 27.5 -2t27.5 -6v-74q-11 4 -24 5.5t-24 1.5q-31 0 -48 -12t-17 -46v-72h100
v-75h-100v-442h-85v442zM646 714h85v-714h-85v714z" />
    <glyph glyph-name=".null" horiz-adv-x="0" 
 />
    <glyph glyph-name=".null" horiz-adv-x="0" 
 />
    <glyph glyph-name="uni000A" unicode="&#xa;" horiz-adv-x="278" 
 />
    <glyph glyph-name="space" unicode=" " horiz-adv-x="278" 
 />
    <glyph glyph-name="controlBS" horiz-adv-x="0" 
 />
    <glyph glyph-name="controlHT" unicode="&#x9;" horiz-adv-x="278" 
 />
    <glyph glyph-name="controlCR" unicode="&#xd;" horiz-adv-x="278" 
 />
    <glyph glyph-name="controlGS" horiz-adv-x="0" 
 />
    <glyph glyph-name="exclam" unicode="!" horiz-adv-x="259" 
d="M74 111v-111h111v111h-111zM177 494v220h-95v-220l25 -311h45z" />
    <glyph glyph-name="quotedbl" unicode="&#x22;" horiz-adv-x="426" 
d="M249 714v-258h68v258h-68zM109 714v-258h68v258h-68z" />
    <glyph glyph-name="numbersign" unicode="#" 
d="M231 424h124l-21 -150h-124zM131 206l-29 -206h69l29 206h124l-29 -206h69l29 206h101v68h-91l21 150h98v68h-89l29 205h-69l-29 -205h-124l29 205h-69l-29 -205h-111v-68h102l-21 -150h-107v-68h97z" />
    <glyph glyph-name="dollar" unicode="$" 
d="M110 218h-85q8 -105 67 -164.5t159 -69.5v-82h55v82q48 4 88 20t69 43.5t45.5 65.5t16.5 87q0 46 -17.5 79t-42.5 55t-52 34.5t-47 17.5l-60 16v246q92 -17 112 -116h85q-20 88 -68 138t-129 60v67h-55v-66q-43 -3 -80.5 -19t-65 -43.5t-43.5 -65t-16 -82.5q0 -44 12 -75
t37.5 -52.5t64 -37t91.5 -28.5v-265q-60 10 -99.5 49t-41.5 106zM306 63v251q27 -8 51 -17.5t41 -23.5t27 -33.5t10 -48.5q0 -32 -9.5 -55.5t-27 -39t-41 -23.5t-51.5 -10zM251 651v-234q-25 7 -46 16t-36.5 21.5t-24 31t-8.5 44.5q0 57 33.5 86.5t81.5 34.5z" />
    <glyph glyph-name="percent" unicode="%" horiz-adv-x="1000" 
d="M167 508q0 23 3 48.5t12.5 47t26.5 36t45 14.5q29 0 45.5 -14.5t25.5 -36t11.5 -47t2.5 -47.5q0 -23 -3 -49t-12.5 -47.5t-26.5 -35.5t-46 -14q-28 0 -44.5 14.5t-25.5 36t-11.5 47t-2.5 47.5zM92 506q0 -41 8.5 -77t27.5 -63t50 -42.5t76 -15.5q44 0 74 17t49.5 44.5
t28 64t8.5 75.5q0 41 -7.5 77.5t-26 63.5t-49 43t-77.5 16q-46 0 -77 -16.5t-50 -44.5t-27 -64.5t-8 -77.5zM661 188q0 23 3 48.5t12.5 47t26.5 36t45 14.5q29 0 45.5 -14.5t25.5 -36t11.5 -47t2.5 -47.5q0 -23 -3 -49t-12.5 -47.5t-26.5 -35.5t-46 -14q-28 0 -44.5 14.5
t-25.5 36t-11.5 47t-2.5 47.5zM586 186q0 -41 8.5 -77t27.5 -62.5t50 -42t76 -15.5q44 0 74 16.5t49.5 44t28 64t8.5 75.5q0 41 -7.5 77.5t-26 63.5t-49 43t-77.5 16q-46 0 -77 -16.5t-50 -44.5t-27 -64.5t-8 -77.5zM726 722l-538 -743h86l537 743h-85z" />
    <glyph glyph-name="ampersand" unicode="&#x26;" horiz-adv-x="630" 
d="M275 439l-24 30t-22 30.5t-16.5 31.5t-6.5 32q0 39 26 57.5t56 18.5q38 0 60 -22.5t22 -53.5q0 -23 -9 -41.5t-23 -33.5t-31 -27t-32 -22zM458 89l76 -89h111l-139 161q11 24 19 42.5t13.5 37.5t9 41.5t6.5 54.5h-81q-3 -55 -23 -111l-129 157q26 15 50 33.5t43 41.5
t30 50.5t11 59.5q0 36 -14.5 63.5t-38.5 46t-55.5 27.5t-64.5 9q-39 0 -69 -12t-50.5 -32.5t-31 -47t-10.5 -55.5q0 -27 6.5 -48.5t18 -41t25.5 -38.5t29 -40q-34 -18 -64.5 -38.5t-53 -46t-36 -57.5t-13.5 -74q0 -22 7.5 -55t31.5 -64t68 -53t116 -22q59 0 114.5 25
t87.5 75zM247 345l164 -197q-26 -39 -64.5 -62t-87.5 -23q-26 0 -50.5 9t-43.5 24.5t-30.5 38t-11.5 49.5q0 32 10 55.5t27 42.5t39.5 34t47.5 29z" />
    <glyph glyph-name="quotesingle" unicode="'" horiz-adv-x="278" 
d="M105 714v-258h68v258h-68z" />
    <glyph glyph-name="parenleft" unicode="(" horiz-adv-x="259" 
d="M204 -197h65q-71 115 -101.5 228t-30.5 239q0 123 30 235t102 226h-65q-78 -103 -117.5 -223t-39.5 -238q0 -66 11 -126t31.5 -117t49.5 -112.5t65 -111.5z" />
    <glyph glyph-name="parenright" unicode=")" horiz-adv-x="259" 
d="M-9 -197h64q78 103 117.5 222.5t39.5 237.5q0 66 -11 126t-31.5 117.5t-49.5 113t-65 111.5h-64q70 -115 100.5 -228.5t30.5 -239.5q0 -122 -30 -234.5t-101 -225.5z" />
    <glyph glyph-name="asterisk" unicode="*" horiz-adv-x="352" 
d="M201 601v113h-53v-113l-106 40l-18 -48l106 -38l-65 -91l45 -31l65 96l69 -96l41 31l-66 91l109 38l-20 48z" />
    <glyph glyph-name="plus" unicode="+" horiz-adv-x="600" 
d="M334 287v219h-68v-219h-218v-68h218v-219h68v219h218v68h-218z" />
    <glyph glyph-name="comma" unicode="," horiz-adv-x="278" 
d="M83 111v-111h59q1 -12 -1.5 -26t-9.5 -27.5t-18.5 -25t-28.5 -17.5v-50q58 17 84 58t26 98v101h-111z" />
    <glyph glyph-name="hyphen" unicode="-" horiz-adv-x="389" 
d="M50 318v-80h289v80h-289z" />
    <glyph glyph-name="period" unicode="." horiz-adv-x="278" 
d="M83 111v-111h111v111h-111z" />
    <glyph glyph-name="slash" unicode="/" horiz-adv-x="333" 
d="M278 731l-295 -747h72l296 747h-73z" />
    <glyph glyph-name="zero" unicode="0" 
d="M132 349q0 26 0.5 57.5t5 63t13 61.5t25 52.5t41.5 36.5t61 14t61 -14t41.5 -36.5t25 -52.5t13 -61.5t5 -63t0.5 -57.5q0 -40 -2.5 -89.5t-16 -93t-43.5 -73.5t-84 -30t-84 30t-43.5 73.5t-16 93t-2.5 89.5zM42 348q0 -39 2 -81t10 -82t23 -75.5t41 -62.5t65.5 -42.5
t94.5 -15.5q56 0 95 15.5t65 42.5t41 62.5t23 75.5t10 82t2 81t-2 81t-10 82t-23 76t-41 63t-65.5 43t-94.5 16t-94.5 -16t-65.5 -43t-41 -63t-23 -76t-10 -82t-2 -81z" />
    <glyph glyph-name="one" unicode="1" 
d="M356 0v709h-65q-7 -40 -26 -66t-46.5 -41t-61.5 -20.5t-70 -5.5v-68h184v-508h85z" />
    <glyph glyph-name="two" unicode="2" 
d="M44 458h85q-1 32 6.5 63.5t24.5 56.5t43.5 40.5t63.5 15.5q28 0 53 -9t43.5 -26t29.5 -40.5t11 -52.5q0 -37 -11.5 -65t-34 -52t-56.5 -47.5t-79 -51.5q-37 -22 -71 -47t-61 -58t-44.5 -77.5t-22.5 -107.5h463v75h-364q6 33 25.5 58.5t47 47.5t60.5 41.5t66 39.5
q33 21 64 44t55 51.5t38.5 64.5t14.5 83q0 50 -17.5 88t-47.5 63.5t-70.5 39t-86.5 13.5q-56 0 -100 -19t-73.5 -52.5t-43.5 -79.5t-11 -100z" />
    <glyph glyph-name="three" unicode="3" 
d="M218 405v-72q24 3 51 3q32 0 59.5 -8.5t47.5 -26t32 -43t12 -58.5q0 -32 -12.5 -57.5t-33.5 -43t-49 -27t-59 -9.5q-73 0 -111 43.5t-40 112.5h-85q-1 -55 15.5 -98t47.5 -72.5t75 -44.5t98 -15q50 0 94.5 13.5t77.5 40.5t52.5 67.5t19.5 93.5q0 64 -31.5 111t-96.5 61v2
q42 19 70 56t28 85q0 49 -16.5 85t-45.5 59t-68.5 34.5t-85.5 11.5q-53 0 -93.5 -17t-67.5 -47t-41.5 -72t-16.5 -93h85q0 31 8 59t24.5 49t42 33.5t59.5 12.5q54 0 90 -28.5t36 -85.5q0 -28 -11 -50t-29.5 -36.5t-43 -22t-51.5 -7.5h-18h-10q-4 0 -9 1z" />
    <glyph glyph-name="four" unicode="4" 
d="M339 241h-238l236 347h2v-347zM419 241v468h-68l-323 -461v-82h311v-166h80v166h96v75h-96z" />
    <glyph glyph-name="five" unicode="5" 
d="M470 622v75h-350l-66 -368l73 -4q25 30 57.5 48.5t74.5 18.5q36 0 65.5 -12t50.5 -33.5t32.5 -51t11.5 -64.5q0 -42 -12 -73.5t-32.5 -52.5t-48 -31.5t-57.5 -10.5q-32 0 -58.5 9.5t-46 27t-31 41t-13.5 50.5h-85q1 -48 19 -86t49 -63.5t71.5 -39t86.5 -13.5
q62 0 108.5 19.5t77.5 52.5t46.5 75.5t15.5 87.5q0 61 -18 106.5t-49 76t-73 45.5t-89 15q-36 0 -72.5 -12.5t-59.5 -38.5l-2 2l38 204h286z" />
    <glyph glyph-name="six" unicode="6" 
d="M414 528h85q-8 88 -60 134.5t-140 46.5q-76 0 -126 -32t-80 -85t-42.5 -121.5t-12.5 -141.5q0 -56 8.5 -116t34.5 -110t74 -82t127 -32q67 0 112.5 22.5t73 57t39.5 76.5t12 81q0 49 -15 91t-42.5 73t-68 48.5t-91.5 17.5q-58 0 -102.5 -22t-74.5 -71l-2 2q1 41 8 88
t25.5 87.5t51.5 67t87 26.5q51 0 82 -29t37 -77zM286 381q36 0 63 -13t45 -34.5t26.5 -51t8.5 -62.5q0 -31 -9.5 -59.5t-27.5 -50.5t-44.5 -34.5t-61.5 -12.5t-62.5 12.5t-46 33.5t-28.5 50t-10 62t9.5 62.5t28.5 51t46 34t63 12.5z" />
    <glyph glyph-name="seven" unicode="7" 
d="M509 624v73h-459v-80h372q-56 -59 -104.5 -129t-85.5 -148.5t-60.5 -164t-29.5 -175.5h95q5 83 28 171t59.5 171t83.5 156t101 126z" />
    <glyph glyph-name="eight" unicode="8" 
d="M155 525q0 27 10 47t26.5 34t39.5 21t48 7q52 0 85.5 -27.5t33.5 -81.5t-33 -84t-84 -30q-26 0 -49 7t-40 21t-27 35.5t-10 50.5zM65 528q0 -48 27 -88.5t72 -58.5q-60 -21 -92 -67.5t-32 -109.5q0 -54 18.5 -94.5t51 -67.5t76.5 -40t95 -13q49 0 92 14t74.5 41.5
t50 67.5t18.5 92q0 66 -31 111.5t-95 65.5q45 20 71.5 59.5t26.5 87.5q0 34 -12 66.5t-37.5 58t-66.5 41t-99 15.5q-41 0 -78.5 -12t-66.5 -35t-46 -56.5t-17 -77.5zM130 200q0 31 11.5 56t32 43t48 27.5t58.5 9.5q30 0 56.5 -10.5t46.5 -28.5t31.5 -42.5t11.5 -53.5
q0 -30 -10.5 -55t-30 -43.5t-46 -29t-58.5 -10.5q-66 0 -108.5 36.5t-42.5 100.5z" />
    <glyph glyph-name="nine" unicode="9" 
d="M134 171h-85q8 -92 67 -137t148 -45q129 0 187.5 98.5t58.5 282.5q0 101 -19.5 166.5t-52.5 103.5t-77 53.5t-94 15.5q-51 0 -94 -17t-74 -47.5t-48 -73t-17 -93.5q0 -52 14.5 -96t43 -75t70.5 -48.5t96 -17.5q52 0 96 26.5t68 71.5l2 -2q-4 -139 -43 -206.5t-117 -67.5
q-51 0 -88 28t-42 80zM409 472q0 -31 -10 -59.5t-29 -50t-46 -34t-60 -12.5q-31 0 -56.5 12.5t-44 33.5t-29 48t-10.5 56q0 33 7.5 63t24 53.5t43 37.5t64.5 14q36 0 63 -13t45.5 -35.5t28 -51.5t9.5 -62z" />
    <glyph glyph-name="colon" unicode=":" horiz-adv-x="278" 
d="M194 406v111h-111v-111h111zM83 111v-111h111v111h-111z" />
    <glyph glyph-name="semicolon" unicode=";" horiz-adv-x="278" 
d="M194 406v111h-111v-111h111zM83 111v-111h59q1 -12 -1.5 -26t-9.5 -27.5t-18.5 -25t-28.5 -17.5v-50q58 17 84.5 58t25.5 98v101h-111z" />
    <glyph glyph-name="less" unicode="&#x3c;" horiz-adv-x="600" 
d="M554 446v68l-508 -230v-62l508 -229v67l-425 193z" />
    <glyph glyph-name="equal" unicode="=" horiz-adv-x="600" 
d="M48 186v-68h504v68h-504zM552 320v68h-504v-68h504z" />
    <glyph glyph-name="greater" unicode="&#x3e;" horiz-adv-x="600" 
d="M46 60v-67l508 229v62l-508 230v-68l425 -193z" />
    <glyph glyph-name="question" unicode="?" 
d="M218 111v-111h111v111h-111zM55 491h85q0 35 8 65t25.5 52t43.5 35t62 13q54 0 85.5 -31t35.5 -86q2 -37 -9 -63t-29.5 -47.5t-40 -41t-41 -42.5t-33 -52.5t-15.5 -71.5v-47h85v39q0 26 7.5 46.5t20 38t28 33t31.5 30.5q16 16 31.5 33t27.5 37t19.5 44.5t7.5 55.5
q0 48 -15.5 85t-43.5 62.5t-66.5 39t-85.5 13.5q-52 0 -94 -18t-71 -50.5t-44.5 -76.5t-14.5 -95z" />
    <glyph glyph-name="at" unicode="@" horiz-adv-x="800" 
d="M534 270l84 284h-63l-23 -63q-17 45 -47 63.5t-65 18.5q-53 0 -96.5 -25t-74 -65t-47.5 -91t-17 -103q0 -33 10.5 -62t29 -50t45 -33.5t58.5 -12.5q37 0 69 20.5t55 46.5h3q2 -33 20 -49t44 -16q35 0 76 21t76 59t58.5 91.5t23.5 118.5q0 68 -27 124.5t-73.5 97
t-108.5 63.5t-131 23q-76 0 -143.5 -29t-118 -79.5t-80 -118t-29.5 -144.5q0 -80 29 -148.5t79.5 -119t119 -79.5t147.5 -29q48 0 94 11.5t86.5 34t74.5 55t58 74.5h-63q-43 -55 -109.5 -88t-138.5 -33q-63 0 -119 24.5t-98.5 67t-67 100.5t-24.5 125q0 66 23.5 124
t64.5 102t96.5 69.5t119.5 25.5q53 0 101.5 -18t86.5 -51.5t60.5 -81.5t22.5 -107q0 -40 -13 -81t-33 -74t-44.5 -54t-47.5 -21q-24 0 -24 31q0 11 3.5 24.5t7.5 26.5zM420 505q16 0 30.5 -8t26 -20.5t18 -29.5t6.5 -35q0 -31 -12 -68t-33 -69.5t-49 -54t-61 -21.5
q-38 0 -62 27.5t-24 69.5q0 33 12 69.5t33 67.5t50.5 51.5t64.5 20.5z" />
    <glyph glyph-name="A" unicode="A" horiz-adv-x="648" 
d="M201 295l121 333h2l119 -333h-242zM272 714l-278 -714h97l80 215h302l78 -215h105l-279 714h-105z" />
    <glyph glyph-name="B" unicode="B" horiz-adv-x="685" 
d="M173 407v227h190q31 0 58.5 -3.5t48.5 -15.5t33 -34t12 -60q0 -57 -35.5 -85.5t-116.5 -28.5h-190zM78 714v-714h345q53 0 93.5 17.5t68 46t41.5 65.5t14 76q0 66 -35 112t-101 60v2q51 20 78.5 61.5t27.5 98.5q0 54 -24.5 91t-59.5 58q-16 10 -38.5 15t-48.5 7.5
t-52.5 3t-49.5 0.5h-259zM173 80v247h217q30 0 58 -5.5t49.5 -19t34.5 -36.5t13 -58q0 -60 -35.5 -94t-98.5 -34h-238z" />
    <glyph glyph-name="C" unicode="C" horiz-adv-x="722" 
d="M580 499h95q-8 57 -34 100.5t-65 72.5t-89 44t-106 15q-82 0 -145.5 -29.5t-106 -80.5t-64.5 -119.5t-22 -146.5t20.5 -146t61.5 -118t103 -78.5t145 -28.5q137 0 216 75t93 210h-95q-3 -44 -18 -82t-41.5 -65.5t-63 -43t-83.5 -15.5q-64 0 -110 24t-75.5 64.5t-43.5 95
t-14 115.5q0 56 14 108t43.5 92.5t75 64.5t109.5 24q75 0 129.5 -38t70.5 -114z" />
    <glyph glyph-name="D" unicode="D" horiz-adv-x="704" 
d="M173 80v554h160q66 0 111 -18.5t73.5 -54t41 -86t12.5 -114.5q0 -66 -13.5 -112.5t-34.5 -77.5t-47.5 -49t-53.5 -27.5t-51 -12t-40 -2.5h-158zM78 714v-714h245q89 0 154 25t107 72.5t62 117t20 159.5q0 172 -89 256t-254 84h-245z" />
    <glyph glyph-name="E" unicode="E" horiz-adv-x="611" 
d="M78 714v-714h496v80h-401v247h371v80h-371v227h398v80h-493z" />
    <glyph glyph-name="F" unicode="F" horiz-adv-x="574" 
d="M78 714v-714h95v327h328v80h-328v227h374v80h-469z" />
    <glyph glyph-name="G" unicode="G" horiz-adv-x="759" 
d="M612 89l25 -89h60v376h-313v-80h228q2 -49 -13 -91.5t-44.5 -74t-72.5 -49.5t-99 -18q-60 0 -105.5 23.5t-76.5 63t-47 91t-16 107.5q0 57 14 111.5t43.5 97t76 68.5t111.5 26q40 0 75.5 -9.5t63.5 -28.5t47 -48.5t26 -70.5h95q-10 63 -37.5 107.5t-68 73.5t-92 42.5
t-109.5 13.5q-85 0 -148.5 -31.5t-106 -84.5t-64 -123.5t-21.5 -148.5q0 -70 23 -135t67 -115t107 -79.5t143 -29.5q63 0 125 24.5t104 80.5z" />
    <glyph glyph-name="H" unicode="H" horiz-adv-x="722" 
d="M78 714v-714h95v327h376v-327h95v714h-95v-307h-376v307h-95z" />
    <glyph glyph-name="I" unicode="I" horiz-adv-x="259" 
d="M82 714v-714h95v714h-95z" />
    <glyph glyph-name="J" unicode="J" horiz-adv-x="519" 
d="M441 178v536h-95v-522q0 -59 -24.5 -94t-89.5 -35q-35 0 -57.5 10.5t-35 29.5t-17.5 45t-5 57v30h-95v-44q0 -102 54 -154.5t154 -52.5q60 0 100.5 16.5t65 44t35 62.5t10.5 71z" />
    <glyph glyph-name="K" unicode="K" horiz-adv-x="667" 
d="M78 714v-714h95v250l119 111l258 -361h120l-313 426l301 288h-123l-362 -356v356h-95z" />
    <glyph glyph-name="L" unicode="L" 
d="M78 714v-714h473v80h-378v634h-95z" />
    <glyph glyph-name="M" unicode="M" horiz-adv-x="871" 
d="M80 714v-714h90v594h2l223 -594h81l223 594h2v-594h90v714h-130l-226 -600l-225 600h-130z" />
    <glyph glyph-name="N" unicode="N" horiz-adv-x="722" 
d="M77 714v-714h90v573h2l373 -573h104v714h-90v-579h-2l-376 579h-101z" />
    <glyph glyph-name="O" unicode="O" horiz-adv-x="760" 
d="M133 357q0 54 14 106.5t44 94.5t77 67.5t112 25.5t112 -25.5t77 -67.5t44 -94.5t14 -106.5t-14 -106.5t-44 -94.5t-77 -67.5t-112 -25.5t-112 25.5t-77 67.5t-44 94.5t-14 106.5zM38 357q0 -73 21.5 -140.5t64.5 -119.5t107 -82.5t149 -30.5t149 30.5t107 82.5
t64.5 119.5t21.5 140.5t-21.5 140.5t-64.5 119.5t-107 83t-149 31t-149 -31t-107 -83t-64.5 -119.5t-21.5 -140.5z" />
    <glyph glyph-name="P" unicode="P" horiz-adv-x="648" 
d="M173 372v262h186q81 0 118.5 -33.5t37.5 -97.5t-37.5 -98t-118.5 -33h-186zM78 714v-714h95v292h218q108 -1 163.5 55t55.5 156t-55.5 155.5t-163.5 55.5h-313z" />
    <glyph glyph-name="Q" unicode="Q" horiz-adv-x="760" 
d="M450 204l-50 -58l79 -63q-48 -20 -99 -20q-65 0 -112 25.5t-77 67.5t-44 94.5t-14 106.5t14 106.5t44 94.5t77 67.5t112 25.5t112 -25.5t77 -67.5t44 -94.5t14 -106.5q0 -66 -20 -126.5t-62 -102.5zM660 -61l48 60l-94 74q54 54 81 128t27 156q0 73 -21.5 140.5
t-64.5 119.5t-107 83t-149 31t-149 -31t-107 -83t-64.5 -119.5t-21.5 -140.5t21.5 -140.5t64.5 -119.5t107 -82.5t149 -30.5q99 0 171 42z" />
    <glyph glyph-name="R" unicode="R" horiz-adv-x="685" 
d="M78 714v-714h95v305h232q35 0 56 -10.5t34 -28t19 -41t10 -49.5q5 -26 6 -53t2 -50.5t4.5 -42.5t13.5 -30h106q-15 18 -22.5 41.5t-11.5 49.5t-5 53t-3 53q-3 26 -8.5 50t-17 43.5t-31 33.5t-50.5 20v2q65 18 94.5 67t29.5 114q0 87 -57.5 137t-159.5 50h-336zM371 385
h-198v249h236q67 0 97 -34t30 -88q0 -39 -13.5 -63.5t-36 -39t-52.5 -19.5t-63 -5z" />
    <glyph glyph-name="S" unicode="S" horiz-adv-x="648" 
d="M491 505h90q-2 59 -22.5 101.5t-56 70.5t-82.5 41t-102 13q-49 0 -95.5 -12.5t-83 -38t-58.5 -65t-22 -93.5q0 -49 19.5 -81.5t52 -53t73.5 -33t83.5 -22t83.5 -18.5t73.5 -23.5t52 -37.5t19.5 -60q0 -39 -16 -64t-42 -39.5t-58.5 -20.5t-64.5 -6q-40 0 -78 10t-66.5 31
t-46 53.5t-17.5 77.5h-90q0 -65 23.5 -112.5t64 -78t94 -45.5t113.5 -15q49 0 98.5 11.5t89.5 37t65.5 66t25.5 97.5q0 53 -19.5 88t-52 58t-73.5 36.5t-83.5 23.5t-83.5 18.5t-73.5 21.5t-52 33.5t-19.5 53.5q0 35 13.5 58.5t36 37.5t51.5 20t59 6q74 0 121.5 -34.5
t55.5 -111.5z" />
    <glyph glyph-name="T" unicode="T" horiz-adv-x="574" 
d="M240 634v-634h95v634h238v80h-571v-80h238z" />
    <glyph glyph-name="U" unicode="U" horiz-adv-x="722" 
d="M648 258v456h-95v-456q0 -96 -47.5 -145.5t-138.5 -49.5q-96 0 -147 49.5t-51 145.5v456h-95v-456q0 -143 77.5 -208.5t215.5 -65.5q135 0 208 68.5t73 205.5z" />
    <glyph glyph-name="V" unicode="V" horiz-adv-x="611" 
d="M359 0l254 714h-99l-206 -619h-2l-204 619h-102l251 -714h108z" />
    <glyph glyph-name="W" unicode="W" horiz-adv-x="926" 
d="M723 0l191 714h-95l-145 -594h-2l-158 594h-103l-160 -594h-2l-140 594h-97l183 -714h99l165 600h2l163 -600h99z" />
    <glyph glyph-name="X" unicode="X" horiz-adv-x="611" 
d="M248 367l-248 -367h106l198 295l192 -295h116l-251 367l236 347h-106l-186 -279l-178 279h-114z" />
    <glyph glyph-name="Y" unicode="Y" horiz-adv-x="648" 
d="M373 292l273 422h-108l-209 -340l-214 340h-113l276 -422v-292h95v292z" />
    <glyph glyph-name="Z" unicode="Z" horiz-adv-x="611" 
d="M22 80v-80h568v80h-455l443 554v80h-522v-80h410z" />
    <glyph glyph-name="bracketleft" unicode="[" horiz-adv-x="259" 
d="M259 663v68h-187v-928h187v68h-107v792h107z" />
    <glyph glyph-name="backslash" unicode="\" horiz-adv-x="333" 
d="M351 -16l-296 747h-72l295 -747h73z" />
    <glyph glyph-name="backslash" unicode="&#x29f5;" horiz-adv-x="333" 
d="M351 -16l-296 747h-72l295 -747h73z" />
    <glyph glyph-name="bracketright" unicode="]" horiz-adv-x="259" 
d="M0 -129v-68h187v928h-187v-68h107v-792h-107z" />
    <glyph glyph-name="asciicircum" unicode="^" horiz-adv-x="600" 
d="M268 697l-218 -433h71l178 360l181 -360h70l-218 433h-64z" />
    <glyph glyph-name="underscore" unicode="_" horiz-adv-x="500" 
d="M0 -74v-50h500v50h-500z" />
    <glyph glyph-name="grave" unicode="`" horiz-adv-x="222" 
d="M76 770l96 -162h-64l-140 162h108z" />
    <glyph glyph-name="a" unicode="a" horiz-adv-x="537" 
d="M522 2q-22 -13 -61 -13q-33 0 -52.5 18.5t-19.5 60.5q-35 -42 -81.5 -60.5t-100.5 -18.5q-35 0 -66.5 8t-54.5 25t-36.5 44.5t-13.5 66.5q0 44 15 72t39.5 45.5t56 26.5t64.5 15q35 7 66.5 10.5t55.5 10t38 19t14 36.5q0 28 -10.5 45t-27 26t-37 12t-40.5 3
q-54 0 -90 -20.5t-39 -77.5h-85q2 48 20 81t48 53.5t68.5 29.5t82.5 9q35 0 69.5 -5t62.5 -20.5t45 -43.5t17 -73v-266q0 -30 3.5 -44t23.5 -14q11 0 26 5v-66zM384 267q-16 -12 -42 -17.5t-54.5 -9t-57.5 -8t-52 -14.5t-37.5 -28.5t-14.5 -50.5q0 -21 8.5 -35.5t22 -23.5
t31.5 -13t38 -4q42 0 72 11.5t49 29t28 38t9 38.5v87z" />
    <glyph glyph-name="b" unicode="b" horiz-adv-x="593" 
d="M67 714v-714h85v69h2q14 -23 34.5 -38.5t43.5 -24.5t46.5 -13t42.5 -4q59 0 103.5 21t74 57.5t44 85.5t14.5 104t-15 104t-44.5 86.5t-74 59.5t-104.5 22q-54 0 -99 -19.5t-66 -62.5h-2v267h-85zM467 263q0 -38 -8 -74t-26 -64t-47.5 -45t-73.5 -17t-75 16.5t-50.5 43.5
t-28.5 62.5t-9 73.5q0 36 8.5 71t27.5 62.5t49 44.5t73 17q41 0 71.5 -16t50 -43t29 -61.5t9.5 -70.5z" />
    <glyph glyph-name="c" unicode="c" horiz-adv-x="537" 
d="M415 351h88q-5 46 -24 79.5t-48.5 55.5t-68 32.5t-82.5 10.5q-61 0 -107 -21.5t-76.5 -59t-45.5 -88t-15 -108.5t15.5 -106.5t46 -83.5t76 -54t104.5 -19q99 0 156.5 52t71.5 148h-87q-8 -60 -43.5 -93t-98.5 -33q-40 0 -69 16t-47 42.5t-26.5 60.5t-8.5 70q0 39 8 75.5
t26.5 64.5t49.5 45t77 17q54 0 86 -27t42 -76z" />
    <glyph glyph-name="d" unicode="d" horiz-adv-x="593" 
d="M126 254q0 38 8 74t26 64t48 45t73 17q44 0 75 -16.5t50.5 -43.5t28.5 -62.5t9 -73.5q0 -36 -8.5 -71t-27.5 -62.5t-49 -44.5t-73 -17q-41 0 -71.5 16t-50 43t-29 61.5t-9.5 70.5zM526 0v714h-85v-266h-2q-14 23 -34.5 38.5t-43.5 25t-46 13.5t-43 4q-59 0 -103.5 -21.5
t-74 -58t-44 -85.5t-14.5 -104t15 -104t44.5 -86t74 -59t104.5 -22q54 0 99 19t66 62h2v-70h85z" />
    <glyph glyph-name="e" unicode="e" horiz-adv-x="537" 
d="M423 308h-297q2 30 13 56.5t30 46.5t45.5 31.5t59.5 11.5q32 0 58.5 -11.5t46 -31t31 -46.5t13.5 -57zM505 164h-84q-11 -51 -45.5 -76t-88.5 -25q-42 0 -73 14t-51 37.5t-29 54t-8 64.5h387q2 47 -8.5 99t-38 96t-73 72.5t-114.5 28.5q-53 0 -97.5 -20t-77 -56
t-50.5 -85t-18 -108q2 -59 17.5 -109t46.5 -86t76.5 -56t107.5 -20q88 0 146 44t75 131z" />
    <glyph glyph-name="f" unicode="f" horiz-adv-x="296" 
d="M99 442v-442h85v442h100v75h-100v72q0 34 17 46t48 12q11 0 24 -1.5t24 -5.5v74q-12 4 -27.5 6t-27.5 2q-70 0 -106.5 -32.5t-36.5 -95.5v-77h-87v-75h87z" />
    <glyph glyph-name="g" unicode="g" horiz-adv-x="574" 
d="M510 44v473h-80v-74h-1q-23 43 -64 64.5t-90 21.5q-67 0 -113 -25.5t-74 -65t-40 -88t-12 -94.5q0 -53 14.5 -100.5t43.5 -83t72 -56.5t101 -21q50 0 94.5 22.5t66.5 70.5h2v-34q0 -43 -8.5 -79t-27.5 -61.5t-48 -40t-71 -14.5q-21 0 -44 4.5t-42.5 14.5t-33 26t-14.5 39
h-85q2 -42 22 -71t50.5 -47t68 -26t73.5 -8q124 0 182 63t58 190zM272 69q-42 0 -70 17.5t-45 46t-24 63.5t-7 70q0 37 8.5 71t27 60t47.5 41.5t70 15.5q40 0 68 -16t45.5 -42.5t25.5 -59.5t8 -67q0 -36 -8.5 -72t-26.5 -64.5t-47.5 -46t-71.5 -17.5z" />
    <glyph glyph-name="h" unicode="h" 
d="M64 714v-714h85v292q0 35 9.5 64.5t28.5 51.5t47.5 34t67.5 12q49 0 77 -28t28 -76v-350h85v340q0 42 -8.5 76.5t-29.5 59.5t-55 39t-85 14q-23 0 -47.5 -5t-47 -15.5t-40.5 -27t-28 -40.5h-2v273h-85z" />
    <glyph glyph-name="i" unicode="i" horiz-adv-x="222" 
d="M154 610v104h-85v-104h85zM69 517v-517h85v517h-85z" />
    <glyph glyph-name="j" unicode="j" horiz-adv-x="222" 
d="M154 610v104h-85v-104h85zM154 -65v582h-85v-568q0 -40 -10 -55.5t-38 -15.5h-18q-4 0 -7.5 0.5t-8.5 1.5v-73q20 -4 43 -4q57 0 90.5 31.5t33.5 100.5z" />
    <glyph glyph-name="k" unicode="k" horiz-adv-x="519" 
d="M69 714v-714h85v196l80 74l177 -270h108l-220 329l205 188h-114l-236 -226v423h-85z" />
    <glyph glyph-name="l" unicode="l" horiz-adv-x="222" 
d="M69 714v-714h85v714h-85z" />
    <glyph glyph-name="m" unicode="m" horiz-adv-x="853" 
d="M64 517v-517h85v322q0 15 7.5 37.5t24 43.5t43 36t63.5 15q29 0 47.5 -8.5t29.5 -24t15.5 -36.5t4.5 -46v-339h85v322q0 60 36 96t99 36q31 0 50.5 -9t30.5 -24.5t15 -36.5t4 -45v-339h85v379q0 40 -12.5 68.5t-35 46.5t-54 26.5t-70.5 8.5q-51 0 -93.5 -23t-68.5 -65
q-16 48 -55 68t-87 20q-109 0 -167 -88h-2v76h-80z" />
    <glyph glyph-name="n" unicode="n" 
d="M64 517v-517h85v292q0 35 9.5 64.5t28.5 51.5t47.5 34t67.5 12q49 0 77 -28t28 -76v-350h85v340q0 42 -8.5 76.5t-29.5 59.5t-55 39t-85 14q-115 0 -168 -94h-2v82h-80z" />
    <glyph glyph-name="o" unicode="o" horiz-adv-x="574" 
d="M126 258q0 47 12.5 83.5t34.5 61.5t51.5 38t62.5 13t62.5 -13t51.5 -38t34.5 -61.5t12.5 -83.5t-12.5 -83.5t-34.5 -61t-51.5 -37.5t-62.5 -13t-62.5 13t-51.5 37.5t-34.5 61t-12.5 83.5zM36 258q0 -57 16 -106t48 -85.5t79 -57t108 -20.5q62 0 108.5 20.5t78.5 57
t48 85.5t16 106t-16 106.5t-48 86t-78.5 57.5t-108.5 21q-61 0 -108 -21t-79 -57.5t-48 -86t-16 -106.5z" />
    <glyph glyph-name="p" unicode="p" horiz-adv-x="593" 
d="M67 517v-714h85v266h2q14 -23 34.5 -38.5t43.5 -24.5t46.5 -13t42.5 -4q59 0 103.5 21t74 57.5t44 85.5t14.5 104t-15 104t-44.5 86.5t-74 59.5t-104.5 22q-54 0 -99 -19.5t-66 -62.5h-2v70h-85zM467 263q0 -38 -8 -74t-26 -64t-47.5 -45t-73.5 -17t-75 16.5t-50.5 43.5
t-28.5 62.5t-9 73.5q0 36 8.5 71t27.5 62.5t49 44.5t73 17q41 0 71.5 -16t50 -43t29 -61.5t9.5 -70.5z" />
    <glyph glyph-name="q" unicode="q" horiz-adv-x="593" 
d="M126 254q0 38 8 74t26 64t48 45t73 17q44 0 75 -16.5t50.5 -43.5t28.5 -62.5t9 -73.5q0 -36 -8.5 -71t-27.5 -62.5t-49 -44.5t-73 -17q-41 0 -71.5 16t-50 43t-29 61.5t-9.5 70.5zM526 -197v714h-85v-69h-2q-14 23 -34.5 38.5t-43.5 25t-46 13.5t-43 4
q-59 0 -103.5 -21.5t-74 -58t-44 -85.5t-14.5 -104t15 -104t44.5 -86t74 -59t104.5 -22q54 0 99 19t66 62h2v-267h85z" />
    <glyph glyph-name="r" unicode="r" horiz-adv-x="333" 
d="M61 517v-517h85v230q0 50 10 88.5t32 65.5t58 41t87 14v90q-69 2 -114 -28t-76 -93h-2v109h-80z" />
    <glyph glyph-name="s" unicode="s" horiz-adv-x="500" 
d="M116 163h-85q2 -48 20 -81.5t48 -54t69 -29.5t82 -9q39 0 78.5 7.5t71 26.5t51 50t19.5 78q0 37 -14.5 62t-38 41.5t-54 26.5t-62.5 17q-30 7 -60 13.5t-54 16t-39.5 24t-15.5 36.5q0 20 10 32.5t26 20t35.5 10.5t38.5 3q21 0 41.5 -4.5t37.5 -14.5t28 -26.5t13 -41.5h85
q-3 47 -20 78.5t-45.5 50t-65.5 26t-81 7.5q-34 0 -68.5 -8.5t-62 -26t-45 -45.5t-17.5 -67q0 -50 25 -78t62.5 -43.5t81.5 -24t81.5 -19t62.5 -27.5t25 -50q0 -24 -12 -39.5t-30.5 -23.5t-40.5 -11t-42 -3q-26 0 -50.5 5t-44 16.5t-31.5 31t-13 47.5z" />
    <glyph glyph-name="t" unicode="t" horiz-adv-x="315" 
d="M182 517v155h-85v-155h-88v-75h88v-329q0 -36 7 -58t21.5 -34t38 -16.5t56.5 -4.5h65v75h-39q-20 0 -32.5 1.5t-19.5 6.5t-9.5 14t-2.5 24v321h103v75h-103z" />
    <glyph glyph-name="u" unicode="u" 
d="M492 0v517h-85v-292q0 -35 -9.5 -64.5t-28.5 -51.5t-47.5 -34t-67.5 -12q-49 0 -77 28t-28 76v350h-85v-340q0 -42 8.5 -76.5t29.5 -59.5t55 -38.5t85 -13.5q57 0 99 22.5t69 70.5h2v-82h80z" />
    <glyph glyph-name="v" unicode="v" horiz-adv-x="500" 
d="M297 0l189 517h-89l-141 -431h-2l-145 431h-95l192 -517h91z" />
    <glyph glyph-name="w" unicode="w" horiz-adv-x="758" 
d="M576 0l165 517h-88l-116 -423h-2l-108 423h-93l-104 -423h-2l-117 423h-94l166 -517h92l104 411h2l105 -411h90z" />
    <glyph glyph-name="x" unicode="x" horiz-adv-x="518" 
d="M203 272l-194 -272h103l144 214l144 -214h109l-200 279l178 238h-102l-129 -181l-124 181h-109z" />
    <glyph glyph-name="y" unicode="y" horiz-adv-x="500" 
d="M267 -69q-15 -38 -29.5 -64t-32 -42.5t-39 -24t-49.5 -7.5q-15 0 -30 2t-29 7v78q11 -5 25.5 -8.5t24.5 -3.5q26 0 43.5 12.5t26.5 35.5l35 87l-205 514h96l151 -423h2l145 423h90z" />
    <glyph glyph-name="z" unicode="z" horiz-adv-x="480" 
d="M22 65v-65h436v75h-330l316 384v58h-402v-75h292z" />
    <glyph glyph-name="braceleft" unicode="{" horiz-adv-x="333" 
d="M309 671v60h-70q-19 0 -38 -8.5t-34.5 -25t-25.5 -41t-10 -56.5v-182q0 -26 -7 -48t-18.5 -37.5t-26.5 -24t-31 -8.5v-68q16 0 31 -8t26.5 -23t18.5 -37t7 -49v-181q0 -32 10 -56.5t25.5 -41t34.5 -25t38 -8.5h70v60h-50q-15 0 -24 7.5t-14.5 20t-7.5 28t-2 30.5v182
q0 38 -10.5 63t-24.5 40.5t-28.5 22.5t-23.5 8v3q9 2 23.5 10t28.5 24t24.5 40.5t10.5 59.5v183q0 16 2 31.5t7.5 27.5t14.5 19.5t24 7.5h50z" />
    <glyph glyph-name="bar" unicode="|" horiz-adv-x="222" 
d="M77 786v-999h68v999h-68z" />
    <glyph glyph-name="braceright" unicode="}" horiz-adv-x="333" 
d="M24 -137v-60h70q19 0 38 8.5t34.5 25t25.5 41t10 56.5v181q0 26 7 47.5t18.5 37t26.5 24t31 8.5v68q-16 0 -31 8t-26.5 23.5t-18.5 37.5t-7 49v182q0 32 -10 56.5t-25.5 41t-34.5 25t-38 8.5h-70v-60h50q15 0 24 -7.5t14.5 -20t7.5 -28t2 -32.5v-181q0 -38 10.5 -63
t24.5 -40.5t28.5 -22.5t23.5 -8v-3q-9 -2 -23.5 -10t-28.5 -24t-24.5 -40.5t-10.5 -59.5v-182q0 -16 -2 -31.5t-7.5 -27.5t-14.5 -19.5t-24 -7.5h-50z" />
    <glyph glyph-name="asciitilde" unicode="~" horiz-adv-x="600" 
d="M549 370q-12 -21 -26 -40.5t-31 -35t-38 -25t-48 -9.5q-31 0 -59.5 12t-55 26t-52 26t-50.5 12q-32 0 -53.5 -24.5t-33.5 -51.5l-54 48q9 20 22 40t31 35.5t41 25t52 9.5q27 0 55.5 -12t56 -26t53.5 -26t48 -12q15 0 27.5 7t23 18t19.5 24.5t18 26.5l54 -48v0z" />
    <glyph glyph-name="Adieresis" unicode="&#xc4;" horiz-adv-x="648" 
d="M185 873v-104h90v104h-90zM373 873v-104h90v104h-90zM201 295l121 333h2l119 -333h-242zM272 714l-278 -714h97l80 215h302l78 -215h105l-279 714h-105z" />
    <glyph glyph-name="Aring" horiz-adv-x="648" 
d="M211 839q0 -23 9 -43.5t24.5 -36t36 -24.5t43.5 -9t43.5 9t36 24.5t24.5 36t9 43.5t-9 43.5t-24.5 36t-36 24.5t-43.5 9t-43.5 -9t-36 -24.5t-24.5 -36t-9 -43.5zM256 839q0 29 19.5 48.5t48.5 19.5t48.5 -19.5t19.5 -48.5t-19.5 -48.5t-48.5 -19.5t-48.5 19.5
t-19.5 48.5zM201 295l121 333h2l119 -333h-242zM272 714l-278 -714h97l80 215h302l78 -215h105l-279 714h-105z" />
    <glyph glyph-name="Ccedilla" unicode="&#xc7;" horiz-adv-x="722" 
d="M580 499h95q-8 57 -34 100.5t-65 72.5t-89 44t-106 15q-82 0 -145.5 -29.5t-106 -80.5t-64.5 -119.5t-22 -146.5q0 -75 18.5 -139.5t55 -113.5t92.5 -79.5t131 -36.5l-49 -63l17 -28q11 4 20 6t21 2q20 0 33.5 -8.5t13.5 -22.5q0 -9 -6 -14.5t-15 -9.5t-20 -5.5t-21 -1.5
q-16 0 -32.5 4t-28.5 9l-18 -44q23 -8 45.5 -13.5t46.5 -5.5q21 0 43 4.5t40 15t29.5 27.5t11.5 42q0 37 -26 55t-58 18q-23 0 -33 -7l-2 2l29 37q132 2 209.5 77t91.5 207h-95q-3 -44 -18 -82t-41.5 -65.5t-63 -43t-83.5 -15.5q-64 0 -110 24t-75.5 64.5t-43.5 95
t-14 115.5q0 56 14 108t43.5 92.5t75 64.5t109.5 24q75 0 129.5 -38t70.5 -114z" />
    <glyph glyph-name="Eacute" unicode="&#xc9;" horiz-adv-x="611" 
d="M78 714v-714h496v80h-401v247h371v80h-371v227h398v80h-493zM450 927l-141 -162h-64l96 162h109z" />
    <glyph glyph-name="Ntilde" unicode="&#xd1;" horiz-adv-x="722" 
d="M535 888h-52q-5 -15 -15.5 -29.5t-30.5 -14.5q-16 0 -32.5 6.5t-33.5 14t-35.5 13.5t-38.5 6q-24 0 -41 -9t-29 -24t-20.5 -35t-14.5 -42h52q-2 19 15 30.5t33 11.5q14 0 31.5 -6t35.5 -13q18 -8 35.5 -14t30.5 -6q29 0 47.5 8.5t31.5 22.5q25 35 31 80zM77 714v-714h90
v573h2l373 -573h104v714h-90v-579h-2l-376 579h-101z" />
    <glyph glyph-name="Odieresis" unicode="&#xd6;" horiz-adv-x="760" 
d="M241 873v-104h90v104h-90zM429 873v-104h90v104h-90zM133 357q0 54 14 106.5t44 94.5t77 67.5t112 25.5t112 -25.5t77 -67.5t44 -94.5t14 -106.5t-14 -106.5t-44 -94.5t-77 -67.5t-112 -25.5t-112 25.5t-77 67.5t-44 94.5t-14 106.5zM38 357q0 -73 21.5 -140.5
t64.5 -119.5t107 -82.5t149 -30.5t149 30.5t107 82.5t64.5 119.5t21.5 140.5t-21.5 140.5t-64.5 119.5t-107 83t-149 31t-149 -31t-107 -83t-64.5 -119.5t-21.5 -140.5z" />
    <glyph glyph-name="Udieresis" unicode="&#xdc;" horiz-adv-x="722" 
d="M222 873v-104h90v104h-90zM410 873v-104h90v104h-90zM648 258v456h-95v-456q0 -96 -47.5 -145.5t-138.5 -49.5q-96 0 -147 49.5t-51 145.5v456h-95v-456q0 -143 77.5 -208.5t215.5 -65.5q135 0 208 68.5t73 205.5z" />
    <glyph glyph-name="aacute" unicode="&#xe1;" horiz-adv-x="537" 
d="M522 2q-22 -13 -61 -13q-33 0 -52.5 18.5t-19.5 60.5q-35 -42 -81.5 -60.5t-100.5 -18.5q-35 0 -66.5 8t-54.5 25t-36.5 44.5t-13.5 66.5q0 44 15 72t39.5 45.5t56 26.5t64.5 15q35 7 66.5 10.5t55.5 10t38 19t14 36.5q0 28 -10.5 45t-27 26t-37 12t-40.5 3
q-54 0 -90 -20.5t-39 -77.5h-85q2 48 20 81t48 53.5t68.5 29.5t82.5 9q35 0 69.5 -5t62.5 -20.5t45 -43.5t17 -73v-266q0 -30 3.5 -44t23.5 -14q11 0 26 5v-66zM384 267q-16 -12 -42 -17.5t-54.5 -9t-57.5 -8t-52 -14.5t-37.5 -28.5t-14.5 -50.5q0 -21 8.5 -35.5t22 -23.5
t31.5 -13t38 -4q42 0 72 11.5t49 29t28 38t9 38.5v87zM413 770l-141 -162h-64l96 162h109z" />
    <glyph glyph-name="agrave" unicode="&#xe0;" horiz-adv-x="537" 
d="M522 2q-22 -13 -61 -13q-33 0 -52.5 18.5t-19.5 60.5q-35 -42 -81.5 -60.5t-100.5 -18.5q-35 0 -66.5 8t-54.5 25t-36.5 44.5t-13.5 66.5q0 44 15 72t39.5 45.5t56 26.5t64.5 15q35 7 66.5 10.5t55.5 10t38 19t14 36.5q0 28 -10.5 45t-27 26t-37 12t-40.5 3
q-54 0 -90 -20.5t-39 -77.5h-85q2 48 20 81t48 53.5t68.5 29.5t82.5 9q35 0 69.5 -5t62.5 -20.5t45 -43.5t17 -73v-266q0 -30 3.5 -44t23.5 -14q11 0 26 5v-66zM384 267q-16 -12 -42 -17.5t-54.5 -9t-57.5 -8t-52 -14.5t-37.5 -28.5t-14.5 -50.5q0 -21 8.5 -35.5t22 -23.5
t31.5 -13t38 -4q42 0 72 11.5t49 29t28 38t9 38.5v87zM234 770l96 -162h-64l-140 162h108z" />
    <glyph glyph-name="acircumflex" unicode="&#xe2;" horiz-adv-x="537" 
d="M522 2q-22 -13 -61 -13q-33 0 -52.5 18.5t-19.5 60.5q-35 -42 -81.5 -60.5t-100.5 -18.5q-35 0 -66.5 8t-54.5 25t-36.5 44.5t-13.5 66.5q0 44 15 72t39.5 45.5t56 26.5t64.5 15q35 7 66.5 10.5t55.5 10t38 19t14 36.5q0 28 -10.5 45t-27 26t-37 12t-40.5 3
q-54 0 -90 -20.5t-39 -77.5h-85q2 48 20 81t48 53.5t68.5 29.5t82.5 9q35 0 69.5 -5t62.5 -20.5t45 -43.5t17 -73v-266q0 -30 3.5 -44t23.5 -14q11 0 26 5v-66zM384 267q-16 -12 -42 -17.5t-54.5 -9t-57.5 -8t-52 -14.5t-37.5 -28.5t-14.5 -50.5q0 -21 8.5 -35.5t22 -23.5
t31.5 -13t38 -4q42 0 72 11.5t49 29t28 38t9 38.5v87zM315 751l104 -143h-84l-69 96l-70 -96h-76l102 143h93z" />
    <glyph glyph-name="adieresis" unicode="&#xe4;" horiz-adv-x="537" 
d="M130 696v-104h90v104h-90zM318 696v-104h90v104h-90zM522 2v66q-15 -5 -26 -5q-20 0 -23.5 14t-3.5 44v266q0 45 -17 73t-45 43.5t-62.5 20.5t-69.5 5q-43 0 -82 -9t-69 -29.5t-48 -53.5t-20 -81h85q3 57 39 77.5t90 20.5q20 0 40.5 -3t37 -12t27 -26t10.5 -45
q0 -24 -14 -36.5t-38 -19t-55.5 -10t-66.5 -10.5q-33 -6 -64.5 -15t-56 -26.5t-39.5 -45.5t-15 -72q0 -39 13.5 -66.5t37 -45t54.5 -25t66 -7.5q54 0 100.5 18.5t81.5 60.5q0 -42 19.5 -60.5t52.5 -18.5q39 0 61 13zM384 267v-87q0 -18 -9 -38.5t-28 -38t-49 -29t-72 -11.5
q-19 0 -37.5 4t-32 13t-22 23.5t-8.5 35.5q0 32 14.5 50.5t37.5 28.5t52 14.5t57.5 8t54.5 9t42 17.5z" />
    <glyph glyph-name="atilde" unicode="&#xe3;" horiz-adv-x="537" 
d="M522 2q-22 -13 -61 -13q-33 0 -52.5 18.5t-19.5 60.5q-35 -42 -81.5 -60.5t-100.5 -18.5q-35 0 -66.5 8t-54.5 25t-36.5 44.5t-13.5 66.5q0 44 15 72t39.5 45.5t56 26.5t64.5 15q35 7 66.5 10.5t55.5 10t38 19t14 36.5q0 28 -10.5 45t-27 26t-37 12t-40.5 3
q-54 0 -90 -20.5t-39 -77.5h-85q2 48 20 81t48 53.5t68.5 29.5t82.5 9q35 0 69.5 -5t62.5 -20.5t45 -43.5t17 -73v-266q0 -30 3.5 -44t23.5 -14q11 0 26 5v-66zM384 267q-16 -12 -42 -17.5t-54.5 -9t-57.5 -8t-52 -14.5t-37.5 -28.5t-14.5 -50.5q0 -21 8.5 -35.5t22 -23.5
t31.5 -13t38 -4q42 0 72 11.5t49 29t28 38t9 38.5v87zM349 683q22 0 34.5 14.5t15.5 40.5h49q-10 -70 -37.5 -95.5t-66.5 -25.5q-20 0 -38 8t-36 18t-35.5 18t-35.5 8q-46 0 -55 -51h-47q10 61 35.5 89t67.5 28q20 0 39 -8t37 -18t36.5 -18t36.5 -8z" />
    <glyph glyph-name="aring" unicode="&#xe5;" horiz-adv-x="537" 
d="M156 662q0 -23 9 -43.5t24.5 -36t36 -24.5t43.5 -9t43.5 9t36 24.5t24.5 36t9 43.5t-9 43.5t-24.5 36t-36 24.5t-43.5 9t-43.5 -9t-36 -24.5t-24.5 -36t-9 -43.5zM201 662q0 29 19.5 48.5t48.5 19.5t48.5 -19.5t19.5 -48.5t-19.5 -48.5t-48.5 -19.5t-48.5 19.5
t-19.5 48.5zM522 2v66q-15 -5 -26 -5q-20 0 -23.5 14t-3.5 44v266q0 45 -17 73t-45 43.5t-62.5 20.5t-69.5 5q-43 0 -82 -9t-69 -29.5t-48 -53.5t-20 -81h85q3 57 39 77.5t90 20.5q20 0 40.5 -3t37 -12t27 -26t10.5 -45q0 -24 -14 -36.5t-38 -19t-55.5 -10t-66.5 -10.5
q-33 -6 -64.5 -15t-56 -26.5t-39.5 -45.5t-15 -72q0 -39 13.5 -66.5t37 -45t54.5 -25t66 -7.5q54 0 100.5 18.5t81.5 60.5q0 -42 19.5 -60.5t52.5 -18.5q39 0 61 13zM384 267v-87q0 -18 -9 -38.5t-28 -38t-49 -29t-72 -11.5q-19 0 -37.5 4t-32 13t-22 23.5t-8.5 35.5
q0 32 14.5 50.5t37.5 28.5t52 14.5t57.5 8t54.5 9t42 17.5z" />
    <glyph glyph-name="ccedilla" unicode="&#xe7;" horiz-adv-x="537" 
d="M415 351h88q-5 46 -24 79.5t-48.5 55.5t-68 32.5t-82.5 10.5q-61 0 -107 -21.5t-76.5 -59t-45.5 -88t-15 -108.5q0 -55 14 -101t41 -80t67.5 -55t93.5 -25l-53 -68l17 -28q11 4 20 6t21 2q20 0 33.5 -8.5t13.5 -22.5q0 -9 -6 -14.5t-15 -9.5t-20 -5.5t-21 -1.5
q-16 0 -32.5 4t-28.5 9l-18 -44q23 -8 45.5 -13.5t46.5 -5.5q21 0 43 4.5t40 15t29.5 27.5t11.5 42q0 37 -26 55t-58 18q-23 0 -33 -7l-2 2l33 42q91 4 145 56t68 143h-87q-8 -60 -43.5 -93t-98.5 -33q-40 0 -69 16t-47 42.5t-26.5 60.5t-8.5 70q0 39 8 75.5t26.5 64.5
t49.5 45t77 17q54 0 86 -27t42 -76z" />
    <glyph glyph-name="eacute" unicode="&#xe9;" horiz-adv-x="537" 
d="M423 308h-297q2 30 13 56.5t30 46.5t45.5 31.5t59.5 11.5q32 0 58.5 -11.5t46 -31t31 -46.5t13.5 -57zM505 164h-84q-11 -51 -45.5 -76t-88.5 -25q-42 0 -73 14t-51 37.5t-29 54t-8 64.5h387q2 47 -8.5 99t-38 96t-73 72.5t-114.5 28.5q-53 0 -97.5 -20t-77 -56
t-50.5 -85t-18 -108q2 -59 17.5 -109t46.5 -86t76.5 -56t107.5 -20q88 0 146 44t75 131zM413 770l-141 -162h-64l96 162h109z" />
    <glyph glyph-name="egrave" unicode="&#xe8;" horiz-adv-x="537" 
d="M423 308h-297q2 30 13 56.5t30 46.5t45.5 31.5t59.5 11.5q32 0 58.5 -11.5t46 -31t31 -46.5t13.5 -57zM505 164h-84q-11 -51 -45.5 -76t-88.5 -25q-42 0 -73 14t-51 37.5t-29 54t-8 64.5h387q2 47 -8.5 99t-38 96t-73 72.5t-114.5 28.5q-53 0 -97.5 -20t-77 -56
t-50.5 -85t-18 -108q2 -59 17.5 -109t46.5 -86t76.5 -56t107.5 -20q88 0 146 44t75 131zM234 770l96 -162h-64l-140 162h108z" />
    <glyph glyph-name="ecircumflex" unicode="&#xea;" horiz-adv-x="537" 
d="M423 308h-297q2 30 13 56.5t30 46.5t45.5 31.5t59.5 11.5q32 0 58.5 -11.5t46 -31t31 -46.5t13.5 -57zM505 164h-84q-11 -51 -45.5 -76t-88.5 -25q-42 0 -73 14t-51 37.5t-29 54t-8 64.5h387q2 47 -8.5 99t-38 96t-73 72.5t-114.5 28.5q-53 0 -97.5 -20t-77 -56
t-50.5 -85t-18 -108q2 -59 17.5 -109t46.5 -86t76.5 -56t107.5 -20q88 0 146 44t75 131zM315 751l104 -143h-84l-69 96l-70 -96h-76l102 143h93z" />
    <glyph glyph-name="edieresis" unicode="&#xeb;" horiz-adv-x="537" 
d="M130 696v-104h90v104h-90zM318 696v-104h90v104h-90zM423 308h-297q2 30 13 56.5t30 46.5t45.5 31.5t59.5 11.5q32 0 58.5 -11.5t46 -31t31 -46.5t13.5 -57zM505 164h-84q-11 -51 -45.5 -76t-88.5 -25q-42 0 -73 14t-51 37.5t-29 54t-8 64.5h387q2 47 -8.5 99t-38 96
t-73 72.5t-114.5 28.5q-53 0 -97.5 -20t-77 -56t-50.5 -85t-18 -108q2 -59 17.5 -109t46.5 -86t76.5 -56t107.5 -20q88 0 146 44t75 131z" />
    <glyph glyph-name="iacute" unicode="&#xed;" horiz-adv-x="222" 
d="M69 0h85v517h-85v-517zM255 770l-141 -162h-64l96 162h109z" />
    <glyph glyph-name="igrave" unicode="&#xec;" horiz-adv-x="222" 
d="M69 0h85v517h-85v-517zM76 770l96 -162h-64l-140 162h108z" />
    <glyph glyph-name="icircumflex" unicode="&#xee;" horiz-adv-x="222" 
d="M64 731l-102 -143h76l70 96l69 -96h84l-104 143h-93zM69 0h85v517h-85v-517z" />
    <glyph glyph-name="idieresis" unicode="&#xef;" horiz-adv-x="222" 
d="M-27 696v-104h89v104h-89zM160 696v-104h90v104h-90zM69 0h85v517h-85v-517z" />
    <glyph glyph-name="ntilde" unicode="&#xf1;" 
d="M452 711h-52q-5 -15 -15.5 -29.5t-30.5 -14.5q-16 0 -32.5 6.5t-33.5 14t-35.5 13.5t-38.5 6q-24 0 -41 -9t-29 -24t-20.5 -35t-14.5 -42h52q-2 19 15 30.5t33 11.5q14 0 31.5 -6t35.5 -13q18 -8 35.5 -14t30.5 -6q29 0 47.5 8.5t31.5 22.5q25 35 31 80zM64 517v-517h85
v292q0 35 9.5 64.5t28.5 51.5t47.5 34t67.5 12q49 0 77 -28t28 -76v-350h85v340q0 42 -8.5 76.5t-29.5 59.5t-55 39t-85 14q-115 0 -168 -94h-2v82h-80z" />
    <glyph glyph-name="oacute" unicode="&#xf3;" horiz-adv-x="574" 
d="M126 258q0 47 12.5 83.5t34.5 61.5t51.5 38t62.5 13t62.5 -13t51.5 -38t34.5 -61.5t12.5 -83.5t-12.5 -83.5t-34.5 -61t-51.5 -37.5t-62.5 -13t-62.5 13t-51.5 37.5t-34.5 61t-12.5 83.5zM36 258q0 -57 16 -106t48 -85.5t79 -57t108 -20.5q62 0 108.5 20.5t78.5 57
t48 85.5t16 106t-16 106.5t-48 86t-78.5 57.5t-108.5 21q-61 0 -108 -21t-79 -57.5t-48 -86t-16 -106.5zM425 770l-141 -162h-64l96 162h109z" />
    <glyph glyph-name="ograve" unicode="&#xf2;" horiz-adv-x="574" 
d="M126 258q0 47 12.5 83.5t34.5 61.5t51.5 38t62.5 13t62.5 -13t51.5 -38t34.5 -61.5t12.5 -83.5t-12.5 -83.5t-34.5 -61t-51.5 -37.5t-62.5 -13t-62.5 13t-51.5 37.5t-34.5 61t-12.5 83.5zM36 258q0 -57 16 -106t48 -85.5t79 -57t108 -20.5q62 0 108.5 20.5t78.5 57
t48 85.5t16 106t-16 106.5t-48 86t-78.5 57.5t-108.5 21q-61 0 -108 -21t-79 -57.5t-48 -86t-16 -106.5zM244 770l96 -162h-64l-140 162h108z" />
    <glyph glyph-name="ocircumflex" unicode="&#xf4;" horiz-adv-x="574" 
d="M126 258q0 47 12.5 83.5t34.5 61.5t51.5 38t62.5 13t62.5 -13t51.5 -38t34.5 -61.5t12.5 -83.5t-12.5 -83.5t-34.5 -61t-51.5 -37.5t-62.5 -13t-62.5 13t-51.5 37.5t-34.5 61t-12.5 83.5zM36 258q0 -57 16 -106t48 -85.5t79 -57t108 -20.5q62 0 108.5 20.5t78.5 57
t48 85.5t16 106t-16 106.5t-48 86t-78.5 57.5t-108.5 21q-61 0 -108 -21t-79 -57.5t-48 -86t-16 -106.5zM333 751l104 -143h-84l-69 96l-70 -96h-76l102 143h93z" />
    <glyph glyph-name="odieresis" unicode="&#xf6;" horiz-adv-x="574" 
d="M148 696v-104h90v104h-90zM336 696v-104h90v104h-90zM126 258q0 47 12.5 83.5t34.5 61.5t51.5 38t62.5 13t62.5 -13t51.5 -38t34.5 -61.5t12.5 -83.5t-12.5 -83.5t-34.5 -61t-51.5 -37.5t-62.5 -13t-62.5 13t-51.5 37.5t-34.5 61t-12.5 83.5zM36 258q0 -57 16 -106
t48 -85.5t79 -57t108 -20.5q62 0 108.5 20.5t78.5 57t48 85.5t16 106t-16 106.5t-48 86t-78.5 57.5t-108.5 21q-61 0 -108 -21t-79 -57.5t-48 -86t-16 -106.5z" />
    <glyph glyph-name="otilde" unicode="&#xf5;" horiz-adv-x="574" 
d="M126 258q0 47 12.5 83.5t34.5 61.5t51.5 38t62.5 13t62.5 -13t51.5 -38t34.5 -61.5t12.5 -83.5t-12.5 -83.5t-34.5 -61t-51.5 -37.5t-62.5 -13t-62.5 13t-51.5 37.5t-34.5 61t-12.5 83.5zM36 258q0 -57 16 -106t48 -85.5t79 -57t108 -20.5q62 0 108.5 20.5t78.5 57
t48 85.5t16 106t-16 106.5t-48 86t-78.5 57.5t-108.5 21q-61 0 -108 -21t-79 -57.5t-48 -86t-16 -106.5zM364 683q22 0 34.5 14.5t15.5 40.5h49q-10 -70 -37.5 -95.5t-66.5 -25.5q-20 0 -38 8t-36 18t-35.5 18t-35.5 8q-46 0 -55 -51h-47q10 61 35.5 89t67.5 28q20 0 39 -8
t37 -18t36.5 -18t36.5 -8z" />
    <glyph glyph-name="uacute" unicode="&#xfa;" 
d="M492 0v517h-85v-292q0 -35 -9.5 -64.5t-28.5 -51.5t-47.5 -34t-67.5 -12q-49 0 -77 28t-28 76v350h-85v-340q0 -42 8.5 -76.5t29.5 -59.5t55 -38.5t85 -13.5q57 0 99 22.5t69 70.5h2v-82h80zM428 770l-141 -162h-64l96 162h109z" />
    <glyph glyph-name="ugrave" unicode="&#xf9;" 
d="M492 0v517h-85v-292q0 -35 -9.5 -64.5t-28.5 -51.5t-47.5 -34t-67.5 -12q-49 0 -77 28t-28 76v350h-85v-340q0 -42 8.5 -76.5t29.5 -59.5t55 -38.5t85 -13.5q57 0 99 22.5t69 70.5h2v-82h80zM243 770l96 -162h-64l-140 162h108z" />
    <glyph glyph-name="ucircumflex" unicode="&#xfb;" 
d="M231 731l-103 -143h77l70 96l69 -96h84l-104 143h-93zM492 0v517h-85v-292q0 -35 -9.5 -64.5t-28.5 -51.5t-47.5 -34t-67.5 -12q-49 0 -77 28t-28 76v350h-85v-340q0 -42 8.5 -76.5t29.5 -59.5t55 -38.5t85 -13.5q57 0 99 22.5t69 70.5h2v-82h80z" />
    <glyph glyph-name="udieresis" unicode="&#xfc;" 
d="M139 696v-104h90v104h-90zM327 696v-104h90v104h-90zM492 0v517h-85v-292q0 -35 -9.5 -64.5t-28.5 -51.5t-47.5 -34t-67.5 -12q-49 0 -77 28t-28 76v350h-85v-340q0 -42 8.5 -76.5t29.5 -59.5t55 -38.5t85 -13.5q57 0 99 22.5t69 70.5h2v-82h80z" />
    <glyph glyph-name="dagger" unicode="&#x2020;" 
d="M236 442v-596h80v596h198v75h-198v197h-80v-197h-194v-75h194z" />
    <glyph glyph-name="degree" unicode="&#xb0;" horiz-adv-x="400" 
d="M106 565q0 18 6.5 34.5t18.5 30t29.5 21.5t39.5 8t39.5 -8t29.5 -21.5t18.5 -30t6.5 -34.5t-6.5 -34.5t-18.5 -30t-29.5 -21.5t-39.5 -8t-39.5 8t-29.5 21.5t-18.5 30t-6.5 34.5zM56 565q0 -30 11 -56.5t30.5 -46t46 -30.5t56.5 -11t56 11t45.5 30.5t31 46t11.5 56.5
t-11.5 56t-31 45.5t-45.5 31t-56 11.5t-56.5 -11.5t-46 -31t-30.5 -45.5t-11 -56z" />
    <glyph glyph-name="cent" unicode="&#xa2;" 
d="M272 -11v-104h39v104q47 0 83.5 17t62.5 45.5t41 64.5t19 73h-85q-8 -51 -37.5 -86t-83.5 -40v391q48 -2 77 -29.5t39 -73.5h87q-6 45 -23 78.5t-43.5 55t-61 32.5t-75.5 12v95h-39v-95q-56 -4 -98.5 -27.5t-71 -61t-42.5 -86t-14 -102.5q0 -55 15 -102.5t43.5 -82.5
t70.5 -55.5t97 -22.5zM272 454v-391q-36 3 -62 20t-42.5 43t-24 59t-7.5 67q0 37 7 71.5t22.5 62t41.5 45.5t65 23z" />
    <glyph glyph-name="sterling" unicode="&#xa3;" 
d="M105 372q-20 34 -33.5 71t-13.5 85t18.5 85.5t50 63.5t72.5 40t87 14q111 0 174.5 -64.5t61.5 -193.5h-85q-2 88 -38 135.5t-108 47.5q-30 0 -56 -10t-45.5 -27.5t-30.5 -41.5t-11 -52q0 -24 5 -44.5t12.5 -38.5t16.5 -35t18 -35h159v-45h-137q8 -16 14 -35t6 -40
q0 -34 -10 -60.5t-26 -49t-37 -41.5t-43 -37l2 -2q26 11 50.5 20t54.5 9q29 0 52 -5t43 -10q20 -6 40.5 -12t43.5 -6q24 0 47.5 11.5t41.5 25.5l43 -66q-30 -26 -68.5 -35.5t-77.5 -9.5q-25 0 -49 6t-50 13q-25 8 -50.5 14.5t-54.5 6.5t-53 -9.5t-47 -24.5l-47 65
q21 14 41 33t35.5 42t24.5 49t9 55q0 23 -8 48t-17 45h-85v45h58z" />
    <glyph glyph-name="section" unicode="&#xa7;" 
d="M380 546h85q-2 94 -52 139.5t-132 45.5q-34 0 -67.5 -10.5t-59.5 -31.5t-42 -51t-16 -69q0 -32 12 -57.5t34 -48.5q-22 -6 -41.5 -19.5t-34 -32t-23 -41t-8.5 -45.5q0 -41 15 -72t39.5 -56t56 -44.5t63.5 -36.5q33 -18 64 -35t55.5 -35t39.5 -39t15 -46q0 -21 -9 -36.5
t-23 -26t-32.5 -15.5t-36.5 -5q-51 0 -82 31.5t-32 82.5h-85q6 -88 58.5 -138.5t142.5 -50.5q41 0 75 11.5t59 32.5t39 50.5t14 65.5q0 75 -59 119q45 18 74.5 57.5t29.5 89.5q0 37 -14.5 65.5t-37.5 51.5t-53 41.5t-61 35.5t-61 33t-53.5 33.5t-37.5 37t-14 43.5
q0 45 27.5 65.5t67.5 20.5q48 0 74 -32t27 -78zM190 420q34 -23 68.5 -43.5t69.5 -41.5q16 -10 34.5 -21.5t34.5 -26t26.5 -32t10.5 -38.5q0 -34 -21.5 -57.5t-50.5 -35.5q-34 23 -69 43.5t-71 39.5q-18 11 -37 22.5t-34 25.5t-24.5 32t-9.5 42q0 32 22 56.5t51 34.5z" />
    <glyph glyph-name="bullet" horiz-adv-x="500" 
d="M72 357q0 37 14 69.5t38 56.5t56.5 38t69.5 14t69.5 -14t57 -38t38.5 -56.5t14 -69.5t-14 -69.5t-38.5 -57t-57 -38.5t-69.5 -14t-69.5 14t-56.5 38.5t-38 57t-14 69.5z" />
    <glyph glyph-name="paragraph" unicode="&#xb6;" horiz-adv-x="600" 
d="M515 -154v868h-239q-106 0 -167 -53.5t-61 -152.5q0 -39 15.5 -73t43 -59t66 -39.5t84.5 -14.5v-476h68v813h122v-813h68z" />
    <glyph glyph-name="germandbls" unicode="&#xdf;" 
d="M64 531v-531h85v516q0 42 9 69t24.5 42.5t37.5 22t48 6.5q24 0 44 -9t35 -24t23.5 -35.5t8.5 -44.5q0 -34 -12.5 -57.5t-33.5 -37t-48.5 -18.5t-57.5 -3v-68q42 0 76 -5t58 -21t37 -45.5t13 -78.5q0 -66 -40.5 -106t-109.5 -40q-8 0 -17 0.5t-17 2.5v-73q20 -4 43 -4
q51 0 93.5 16.5t73 47t47.5 73t17 94.5q0 33 -8.5 63.5t-25.5 54.5t-42.5 40.5t-59.5 20.5v2q57 18 80.5 58t23.5 97q0 44 -18.5 76.5t-48 54.5t-66.5 33t-74 11q-45 0 -81.5 -14.5t-62.5 -41t-40 -63t-14 -81.5z" />
    <glyph glyph-name="registered" unicode="&#xae;" horiz-adv-x="800" 
d="M323 382v139h90q17 0 34.5 -2.5t31 -9.5t22 -20t8.5 -35q0 -26 -9.5 -40.5t-25.5 -21.5t-36.5 -8.5t-43.5 -1.5h-71zM255 576v-437h68v188h72l119 -188h73l-125 193q49 5 82 32.5t33 86.5q0 63 -37.5 94t-115.5 31h-169zM92 359q0 67 23.5 125t65 100.5t98 67t122.5 24.5
q65 0 121 -24.5t97.5 -67t65 -100.5t23.5 -125q0 -69 -23.5 -127.5t-65 -101.5t-97.5 -67.5t-121 -24.5q-66 0 -122.5 24.5t-98 67.5t-65 101.5t-23.5 127.5zM24 359q0 -81 30 -149.5t81.5 -119t120 -78.5t145.5 -28t145 28t119 78.5t81 119t30 149.5q0 79 -30 147t-81 118
t-119 78.5t-145 28.5t-145.5 -28.5t-120 -78.5t-81.5 -118t-30 -147z" />
    <glyph glyph-name="copyright" unicode="&#xa9;" horiz-adv-x="800" 
d="M599 285h-64q-7 -45 -39 -73.5t-83 -28.5q-36 0 -64.5 14.5t-48.5 38.5t-30.5 56t-10.5 67q0 36 10 67t29 54.5t47.5 36.5t65.5 13q51 0 83.5 -27.5t40.5 -69.5h63q-12 75 -64 113.5t-124 38.5q-51 0 -92 -17t-69 -47t-43 -72t-15 -92q0 -49 15.5 -91t44.5 -72.5t70 -48
t92 -17.5q69 0 119.5 42t66.5 115zM92 359q0 67 23.5 125t65 100.5t98 67t122.5 24.5q65 0 121 -24.5t97.5 -67t65 -100.5t23.5 -125q0 -69 -23.5 -127.5t-65 -101.5t-97.5 -67.5t-121 -24.5q-66 0 -122.5 24.5t-98 67.5t-65 101.5t-23.5 127.5zM24 359q0 -81 30 -149.5
t81.5 -119t120 -78.5t145.5 -28t145 28t119 78.5t81 119t30 149.5q0 79 -30 147t-81 118t-119 78.5t-145 28.5t-145.5 -28.5t-120 -78.5t-81.5 -118t-30 -147z" />
    <glyph glyph-name="trademark" unicode="&#x2122;" horiz-adv-x="990" 
d="M927 302v412h-104l-121 -313l-123 313h-105v-412h68v344h2l135 -344h43l135 344h2v-344h68zM390 659v55h-326v-55h129v-357h68v357h129z" />
    <glyph glyph-name="acute" unicode="&#xb4;" horiz-adv-x="222" 
d="M255 770l-141 -162h-64l96 162h109z" />
    <glyph glyph-name="dieresis" unicode="&#xa8;" horiz-adv-x="222" 
d="M-27 696v-104h89v104h-89zM160 696v-104h90v104h-90z" />
    <glyph glyph-name="notequal" unicode="&#x2260;" horiz-adv-x="600" 
d="M128 8l58 110h-138v68h174l70 134h-244v68h280l75 142l57 -29l-60 -113h152v-68h-187l-70 -134h257v-68h-293l-73 -140z" />
    <glyph glyph-name="AE" unicode="&#xc6;" horiz-adv-x="926" 
d="M407 634h41v-346h-209zM354 714l-360 -714h106l102 208h246v-208h447v80h-357v247h330v80h-330v227h351v80h-535z" />
    <glyph glyph-name="Oslash" unicode="&#xd8;" horiz-adv-x="760" 
d="M723 700l-32 30l-79 -87q-42 42 -99.5 65t-132.5 23q-85 0 -149 -31t-107 -83t-64.5 -119.5t-21.5 -140.5q0 -72 20.5 -138t62.5 -117l-84 -92l33 -29l81 88q42 -40 99 -62.5t130 -22.5q85 0 149 30.5t107 82.5t64.5 119.5t21.5 140.5q0 72 -19.5 136.5t-61.5 116.5z
M210 134l369 407q25 -39 36.5 -87t11.5 -97q0 -54 -14 -106.5t-44 -94.5t-77 -67.5t-112 -25.5q-57 0 -99 19t-71 52zM552 577l-369 -407q-26 40 -38 88t-12 99q0 54 14 106.5t44 94.5t77 67.5t112 25.5q57 0 100 -20t72 -54z" />
    <glyph glyph-name="infinity" unicode="&#x221e;" horiz-adv-x="744" 
d="M181 92q-36 0 -64.5 12.5t-48.5 34t-31 51.5t-11 65q0 34 10.5 64t30 52.5t47.5 35.5t64 13q31 0 58 -10.5t51 -27t45 -37t41 -41.5q19 21 39.5 41.5t44 37t50 27t56.5 10.5q35 0 63.5 -12.5t49 -34.5t31.5 -52t11 -64q0 -35 -10.5 -65t-30.5 -52t-48.5 -35t-64.5 -13
q-30 0 -56.5 9.5t-49.5 25t-44.5 35t-40.5 40.5q-20 -20 -40.5 -39.5t-44 -35.5t-50 -25.5t-57.5 -9.5zM181 169q20 0 40 8t38.5 21t35 27.5t29.5 28.5q-14 13 -31 29t-36 29t-39 22t-40 9q-37 0 -58 -27t-21 -61q0 -38 22 -62t60 -24zM566 169q38 0 58.5 24.5t20.5 60.5
q0 38 -21 63.5t-61 25.5q-20 0 -40 -9t-38.5 -22.5t-35 -29.5t-29.5 -29q15 -14 31.5 -29t34.5 -27t38 -20t42 -8z" />
    <glyph glyph-name="plusminus" unicode="&#xb1;" horiz-adv-x="600" 
d="M48 68v-68h504v68h-504zM48 339v-68h218v-167h68v167h218v68h-218v166h-68v-166h-218z" />
    <glyph glyph-name="lessequal" unicode="&#x2264;" horiz-adv-x="600" 
d="M48 45h504v-68h-504v68zM48 270v69l504 188v-74l-406 -149l406 -146v-75z" />
    <glyph glyph-name="greaterequal" unicode="&#x2265;" horiz-adv-x="600" 
d="M48 -23v68h504v-68h-504zM48 83v75l406 146l-406 149v74l504 -188v-69z" />
    <glyph glyph-name="yen" unicode="&#xa5;" 
d="M232 174v-174h95v174h144v60h-144v42l18 33h126v60h-93l178 345h-104l-169 -353l-174 353h-109l183 -345h-92v-60h123l18 -33v-42h-141v-60h141z" />
    <glyph glyph-name="mu" unicode="&#xb5;" 
d="M492 0v517h-85v-292q0 -35 -9.5 -64.5t-28.5 -51.5t-47.5 -34t-67.5 -12q-49 0 -77 28t-28 76v350h-85v-714h85v223h2q13 -20 36 -28.5t55 -8.5q57 0 99 22.5t69 70.5h2v-82h80z" />
    <glyph glyph-name="partialdiff" unicode="&#x2202;" horiz-adv-x="534" 
d="M245 -12q-48 0 -87 18t-66 49t-42 72t-15 87q0 45 14.5 84.5t41 69t64.5 46t85 16.5q45 0 84.5 -18.5t70.5 -50.5l1 37q1 39 -7 83t-27.5 81.5t-52 62.5t-80.5 25q-34 0 -61.5 -13.5t-53.5 -33.5l-48 56q37 29 74.5 45.5t85.5 16.5q75 0 124.5 -33t79.5 -85t42 -116
t12 -126q0 -60 -9 -125.5t-35 -120.5t-72.5 -91t-122.5 -36zM247 56q42 0 69.5 23t44.5 57.5t24 74t7 72.5q-27 33 -61.5 55.5t-79.5 22.5q-32 0 -56.5 -12.5t-41 -33.5t-24.5 -48t-8 -57q0 -29 7.5 -56.5t23.5 -49t39.5 -35t55.5 -13.5z" />
    <glyph glyph-name="summation" unicode="&#x2211;" horiz-adv-x="576" 
d="M0 -142l316 433l-302 423v72h550v-80h-432l292 -414l-311 -426h463v-80h-576v72z" />
    <glyph glyph-name="product" unicode="&#x220f;" horiz-adv-x="750" 
d="M78 786h594v-1000h-95v920h-404v-920h-95v1000z" />
    <glyph glyph-name="pi" unicode="&#x3c0;" horiz-adv-x="622" 
d="M509 -7q-32 0 -50 10t-27 27t-11.5 39.5t-2.5 48.5v324h-233v-442h-85v442h-70v75h550v-75h-77v-314q0 -11 0.5 -22t4 -20t11 -14.5t22.5 -5.5q11 0 21.5 3t21.5 8v-65q-19 -9 -36.5 -14t-38.5 -5z" />
    <glyph glyph-name="integral" unicode="&#x222b;" horiz-adv-x="343" 
d="M80 -213q-12 0 -26 3.5t-26 10.5t-20 18t-8 26q0 17 11 29.5t29 12.5q15 0 23.5 -8t14.5 -18t10 -18t10 -8q11 0 16 12t6.5 28t1 30.5t-0.5 20.5v252v173.5t-0.5 110t-0.5 62.5v31v16q0 37 4 75.5t17.5 69.5t40.5 50.5t72 19.5q14 0 29.5 -3.5t29 -11t22 -19t8.5 -28.5
q0 -18 -13.5 -30.5t-31.5 -12.5q-15 0 -24.5 8t-15.5 17t-10.5 17t-10.5 8q-10 0 -15 -13t-7.5 -29.5t-2.5 -32.5v-23v-640q0 -33 -4.5 -69.5t-18.5 -66.5t-40 -50t-69 -20z" />
    <glyph glyph-name="ordfeminine" unicode="&#xaa;" horiz-adv-x="378" 
d="M155 430q-25 0 -43.5 7.5t-18.5 33.5t18.5 36.5t45.5 15.5q28 5 56 9t44 14v-47q0 -11 -5.5 -23.5t-17.5 -22.5t-31.5 -16.5t-47.5 -6.5zM317 462v160q0 27 -12 44t-30.5 26.5t-41.5 13t-46 3.5q-28 0 -54.5 -5.5t-46.5 -18.5t-32.5 -33t-13.5 -49h60q2 32 24.5 44
t58.5 12q14 0 28 -1.5t25 -6.5t17.5 -14.5t6.5 -26.5q0 -10 -5 -16.5t-17.5 -11t-35 -7.5t-57.5 -7q-22 -2 -43.5 -8t-38.5 -17.5t-27.5 -29.5t-10.5 -44q0 -23 9.5 -40t25.5 -28t37 -16t45 -5q74 0 117 46q3 -46 51 -46q13 0 23 2t20 6v44q-6 -2 -11 -2h-11q-8 0 -11 7
t-3 25z" />
    <glyph glyph-name="ordmasculine" unicode="&#xba;" horiz-adv-x="384" 
d="M192 659q16 0 33.5 -4.5t32 -17.5t24 -36t9.5 -59q0 -22 -5.5 -42.5t-17 -36t-30 -24.5t-45.5 -9t-46 9t-31 25t-17.5 36.5t-5.5 42.5q0 60 28.5 88t70.5 28zM192 709q-40 0 -71.5 -13t-52.5 -35.5t-32 -52.5t-11 -65q0 -36 11.5 -65.5t33 -51.5t52.5 -34t71 -12
q82 0 124 45.5t42 117.5q0 35 -11 65.5t-32 53t-52 35t-72 12.5z" />
    <glyph glyph-name="Omegagreek" unicode="&#x3a9;" horiz-adv-x="740" 
d="M718 0h-282v72q88 60 132 143.5t44 186.5q0 52 -16.5 97t-47 79t-75 53.5t-100.5 19.5q-55 0 -100 -18.5t-77 -52.5t-49.5 -82t-17.5 -106q0 -102 45 -181t135 -139v-72h-283v80h171v4q-82 57 -122.5 132t-40.5 175q0 73 25 135t70 107.5t107 71.5t137 26
q78 0 139.5 -26.5t105 -71.5t66.5 -105t23 -127q0 -201 -164 -317v-4h175v-80z" />
    <glyph glyph-name="ae" unicode="&#xe6;" horiz-adv-x="870" 
d="M467 233h379q0 60 -11 114t-38 94.5t-71.5 64t-112.5 23.5q-47 0 -93 -17.5t-72 -57.5q-12 24 -32 39t-44 23t-49 10.5t-48 2.5q-43 0 -82 -9t-69 -29.5t-48 -53.5t-20 -81h85q3 57 39 77.5t90 20.5q21 0 42 -2.5t37.5 -11t27 -24.5t10.5 -42q0 -23 -10 -35.5t-31 -20
t-54.5 -12.5t-80.5 -14q-33 -6 -64.5 -15t-56 -26.5t-39.5 -45.5t-15 -72q0 -39 13.5 -66.5t37 -45t55.5 -25t69 -7.5q72 0 130.5 23.5t87.5 76.5q13 -29 32.5 -48t44 -30.5t52.5 -16.5t58 -5q88 0 146.5 44.5t77.5 129.5h-87q-12 -51 -47.5 -75.5t-83.5 -24.5
q-39 0 -68.5 13.5t-48.5 37t-28.5 54.5t-9.5 65zM126 139q0 24 8.5 40t22.5 26.5t33 16.5t40 10q20 4 42.5 7t43.5 6.5t39.5 8.5t31.5 13v-87q0 -18 -9.5 -38.5t-29 -38t-50 -29t-72.5 -11.5q-19 0 -37.5 4t-32 13t-22 23.5t-8.5 35.5zM756 308h-289q0 32 10 58.5t29 46
t46 30.5t61 11t60.5 -11.5t44.5 -31t27.5 -46.5t10.5 -57z" />
    <glyph glyph-name="oslash" unicode="&#xf8;" horiz-adv-x="574" 
d="M480 443l60 66l-27 26l-58 -65q-32 29 -73 44t-95 15q-61 0 -108 -21t-79 -57.5t-48 -86t-16 -106.5q0 -55 15 -102.5t45 -84.5l-62 -69l28 -23l60 66q31 -27 72 -41.5t93 -14.5q62 0 108.5 20.5t78.5 57t48 85.5t16 106q0 55 -14.5 102.5t-43.5 82.5zM178 108l242 269
q13 -23 20.5 -52.5t7.5 -66.5q0 -47 -12.5 -83.5t-34.5 -61t-51.5 -37.5t-62.5 -13q-64 0 -109 45zM398 407l-242 -270q-14 25 -22 55t-8 66q0 47 12.5 83.5t34.5 61.5t51.5 38t62.5 13q67 0 111 -47z" />
    <glyph glyph-name="questiondown" unicode="&#xbf;" 
d="M337 406v111h-111v-111h111zM503 30h-85q0 -34 -8 -64t-25.5 -52t-43.5 -35t-62 -13q-54 0 -85.5 31t-35.5 86q-2 36 9 62t29.5 47.5t40 41t41 42.5t33 53t15.5 71v39h-85v-31q0 -25 -7.5 -46t-20 -38.5t-28 -33t-31.5 -30.5q-17 -16 -32.5 -33t-27.5 -37t-19 -44.5
t-7 -54.5q0 -48 15.5 -85t43.5 -62.5t67 -39t85 -13.5q52 0 94 18.5t71.5 50.5t44.5 75.5t14 94.5z" />
    <glyph glyph-name="exclamdown" unicode="&#xa1;" horiz-adv-x="259" 
d="M185 406v111h-111v-111h111zM82 22v-219h95v219l-25 311h-45z" />
    <glyph glyph-name="logicalnot" unicode="&#xac;" horiz-adv-x="600" 
d="M552 109v279h-504v-68h436v-211h68z" />
    <glyph glyph-name="radical" unicode="&#x221a;" horiz-adv-x="536" 
d="M81 114l-49 -23l-32 70l124 58l144 -302l178 869h90l-211 -1000h-86z" />
    <glyph glyph-name="florin" unicode="&#x192;" 
d="M478 639l14 75h-74q-64 0 -103.5 -36t-50.5 -93l-26 -136h-91l-13 -68h92l-70 -369q-6 -34 -14 -54t-22.5 -30.5t-39 -13.5t-63.5 -3l-14 -75h66q42 0 72 11t52.5 38t38 72t27.5 113l55 311h100l14 68h-102l31 138q6 26 20.5 39t41.5 13h59z" />
    <glyph glyph-name="approxequal" unicode="&#x2248;" horiz-adv-x="600" 
d="M36 85q4 27 12.5 53.5t24 47.5t38 34t54.5 13q33 0 68.5 -11t71.5 -24.5t70 -24.5t64 -11q34 0 51.5 22t23.5 52h50q-3 -28 -11.5 -54t-24 -46.5t-38.5 -32.5t-55 -12t-69 11t-74 24.5t-70.5 25t-58.5 11.5q-32 0 -51.5 -24.5t-23.5 -53.5h-52v0zM36 265q4 27 12.5 53.5
t24 47.5t38 34t54.5 13q33 0 68.5 -11t71.5 -24.5t70 -24.5t64 -11q34 0 51.5 22t23.5 52h50q-3 -28 -11.5 -54t-24 -46.5t-38.5 -32.5t-55 -12t-69 11t-74 24.5t-70.5 25t-58.5 11.5q-32 0 -51.5 -24.5t-23.5 -53.5h-52v0z" />
    <glyph glyph-name="Delta" unicode="&#x2206;" horiz-adv-x="648" 
d="M271 714h105l279 -714h-662zM519 80l-196 548h-2l-201 -548h399z" />
    <glyph glyph-name="guillemotleft" unicode="&#xab;" horiz-adv-x="463" 
d="M50 234l152 -120v86l-100 78l100 78v86l-152 -120v-88zM246 234l152 -120v86l-100 78l100 78v86l-152 -120v-88z" />
    <glyph glyph-name="guillemotright" unicode="&#xbb;" horiz-adv-x="463" 
d="M413 322l-152 120v-86l100 -78l-100 -78v-86l152 120v88zM217 322l-152 120v-86l100 -78l-100 -78v-86l152 120v88z" />
    <glyph glyph-name="ellipsis" unicode="&#x2026;" horiz-adv-x="1000" 
d="M777 111v-111h111v111h-111zM444 111v-111h111v111h-111zM111 111v-111h111v111h-111z" />
    <glyph glyph-name="nonbreakingspace" unicode="&#xa0;" horiz-adv-x="278" 
 />
    <glyph glyph-name="Agrave" unicode="&#xc0;" horiz-adv-x="648" 
d="M201 295l121 333h2l119 -333h-242zM272 714l-278 -714h97l80 215h302l78 -215h105l-279 714h-105zM289 927l96 -162h-64l-140 162h108z" />
    <glyph glyph-name="Atilde" unicode="&#xc3;" horiz-adv-x="648" 
d="M201 295l121 333h2l119 -333h-242zM272 714l-278 -714h97l80 215h302l78 -215h105l-279 714h-105zM402 839q22 0 34.5 14.5t15.5 40.5h49q-10 -70 -37.5 -95.5t-66.5 -25.5q-20 0 -38 8t-36 18t-35.5 18t-35.5 8q-46 0 -55 -51h-47q10 61 35.5 89t67.5 28q20 0 39 -8
t37 -18t36.5 -18t36.5 -8z" />
    <glyph glyph-name="Otilde" unicode="&#xd5;" horiz-adv-x="760" 
d="M133 357q0 54 14 106.5t44 94.5t77 67.5t112 25.5t112 -25.5t77 -67.5t44 -94.5t14 -106.5t-14 -106.5t-44 -94.5t-77 -67.5t-112 -25.5t-112 25.5t-77 67.5t-44 94.5t-14 106.5zM38 357q0 -73 21.5 -140.5t64.5 -119.5t107 -82.5t149 -30.5t149 30.5t107 82.5
t64.5 119.5t21.5 140.5t-21.5 140.5t-64.5 119.5t-107 83t-149 31t-149 -31t-107 -83t-64.5 -119.5t-21.5 -140.5zM457 839q22 0 34.5 14.5t15.5 40.5h49q-10 -70 -37.5 -95.5t-66.5 -25.5q-20 0 -38 8t-36 18t-35.5 18t-35.5 8q-46 0 -55 -51h-47q10 61 35.5 89t67.5 28
q20 0 39 -8t37 -18t36.5 -18t36.5 -8z" />
    <glyph glyph-name="OE" unicode="&#x152;" horiz-adv-x="1074" 
d="M551 69v-69h483v80h-388v247h350v80h-350v227h382v80h-477v-59h-2q-11 20 -30.5 34t-43.5 23.5t-50.5 14t-51.5 4.5q-79 0 -141.5 -28.5t-105.5 -79t-65.5 -119t-22.5 -149.5q0 -79 21.5 -146.5t63 -117.5t102.5 -78.5t140 -28.5q27 0 54.5 5.5t52 16t44.5 26.5t33 37h2z
M372 63q-58 0 -103 22.5t-75 61.5t-45.5 91.5t-15.5 112.5t15 114.5t45 96t75 65.5t106 24q57 0 99.5 -23t62.5 -54q11 -17 13 -35t2 -34v-301q0 -31 -14 -57t-38 -44.5t-56.5 -29t-70.5 -10.5z" />
    <glyph glyph-name="oe" unicode="&#x153;" horiz-adv-x="891" 
d="M415 260q0 -35 -6.5 -70t-23 -63.5t-44 -46t-70.5 -17.5q-39 0 -67 16.5t-45 43t-25 59.5t-8 66q0 38 7.5 75t24.5 66t45 47t68 18q44 0 72 -17t44 -44.5t22 -62t6 -70.5zM774 308h-285q-1 64 38 105t106 41t104 -40t37 -106zM489 233h375q3 61 -8.5 115t-39.5 94
t-73 63.5t-110 23.5q-55 0 -105.5 -22.5t-77.5 -68.5q-26 54 -72.5 72.5t-106.5 18.5t-104 -21t-73.5 -57.5t-43.5 -85.5t-14 -106q0 -56 14 -105t42.5 -86t73 -58t105.5 -21q58 0 106.5 22.5t72.5 78.5q24 -56 73.5 -78.5t114.5 -22.5q170 0 221 175h-81q-15 -48 -52 -74.5
t-88 -26.5q-38 0 -66.5 14t-47 37.5t-27.5 54t-8 64.5z" />
    <glyph glyph-name="endash" unicode="&#x2013;" horiz-adv-x="500" 
d="M0 318v-80h500v80h-500z" />
    <glyph glyph-name="emdash" unicode="&#x2014;" horiz-adv-x="1000" 
d="M130 318v-80h740v80h-740z" />
    <glyph glyph-name="quotedblleft" unicode="&#x201c;" horiz-adv-x="426" 
d="M177 456v111h-59q0 17 2.5 34.5t9.5 31.5t18 22.5t28 8.5v50q-28 0 -49 -12t-34.5 -32t-20 -46.5t-6.5 -56.5v-111h111zM360 456v111h-59q0 17 2.5 34.5t9.5 31.5t18 22.5t28 8.5v50q-28 0 -49 -12t-34.5 -32t-20 -46.5t-6.5 -56.5v-111h111z" />
    <glyph glyph-name="quotedblright" unicode="&#x201d;" horiz-adv-x="426" 
d="M66 714v-111h59q0 -17 -2.5 -34.5t-9.5 -31.5t-18 -22.5t-28 -8.5v-50q29 0 49.5 12t34 32t20 46.5t6.5 56.5v111h-111zM249 714v-111h59q0 -17 -2.5 -34.5t-9.5 -31.5t-18 -22.5t-28 -8.5v-50q29 0 49.5 12t34 32t20 46.5t6.5 56.5v111h-111z" />
    <glyph glyph-name="quoteleft" unicode="&#x2018;" horiz-adv-x="278" 
d="M195 456v111h-59q0 17 2.5 34.5t9.5 31.5t18 22.5t28 8.5v50q-28 0 -49 -12t-34.5 -32t-20 -46.5t-6.5 -56.5v-111h111z" />
    <glyph glyph-name="quoteright" unicode="&#x2019;" horiz-adv-x="278" 
d="M83 714v-111h59q0 -17 -2.5 -34.5t-9.5 -31.5t-18 -22.5t-28 -8.5v-50q29 0 49.5 12t34 32t20 46.5t6.5 56.5v111h-111z" />
    <glyph glyph-name="divide" unicode="&#xf7;" horiz-adv-x="600" 
d="M236 47q0 -26 19.5 -44.5t45.5 -18.5q25 0 44 19.5t19 43.5q0 26 -19 45t-45 19t-45 -19t-19 -45zM236 459q0 -26 19.5 -45t45.5 -19q25 0 44 20t19 44q0 26 -19 45t-45 19t-45 -19t-19 -45zM48 287v-68h504v68h-504z" />
    <glyph glyph-name="lozenge" unicode="&#x25ca;" horiz-adv-x="600" 
d="M86 349l173 384h81l174 -384l-174 -384h-81zM427 349l-128 298l-126 -298l126 -299z" />
    <glyph glyph-name="ydieresis" unicode="&#xff;" horiz-adv-x="500" 
d="M111 696v-104h90v104h-90zM299 696v-104h90v104h-90zM267 -68l225 585h-90l-145 -423h-2l-151 423h-96l205 -514l-35 -87q-12 -23 -28 -35t-42 -12q-13 0 -25.5 4t-24.5 8v-78q14 -5 29 -7t30 -2q29 0 50 7.5t38.5 24t32 42.5t29.5 64z" />
    <glyph glyph-name="Ydieresis" unicode="&#x178;" horiz-adv-x="648" 
d="M185 873v-104h90v104h-90zM373 873v-104h90v104h-90zM373 292l273 422h-108l-209 -340l-214 340h-113l276 -422v-292h95v292z" />
    <glyph glyph-name="fraction" unicode="&#x2044;" horiz-adv-x="167" 
d="M269 725l-434 -752h64l434 752h-64z" />
    <glyph glyph-name="Euro" unicode="&#x20ac;" 
d="M558 662q-90 63 -181 63q-118 0 -193 -81q-67 -71 -91 -194h-54l-26 -61h73q-1 -7 -1 -15v-17v-10t1 -10h-46l-27 -61h77q42 -291 287 -291q87 0 154 43v105q-42 -39 -69 -53q-37 -19 -85 -19q-157 0 -190 215h218l26 61h-249q-1 5 -1 10v11v15t1 16h263l27 61h-283
q17 83 56 134q49 64 124 64q73 0 143 -69z" />
    <glyph glyph-name="guilsinglleft" unicode="&#x2039;" horiz-adv-x="259" 
d="M50 234l152 -120v86l-100 78l100 78v86l-152 -120v-88z" />
    <glyph glyph-name="guilsinglright" unicode="&#x203a;" horiz-adv-x="259" 
d="M209 322l-152 120v-86l100 -78l-100 -78v-86l152 120v88z" />
    <glyph glyph-name="daggerdbl" unicode="&#x2021;" 
d="M236 42v-196h80v196h198v75h-198v325h198v75h-198v197h-80v-197h-194v-75h194v-325h-194v-75h194z" />
    <glyph glyph-name="periodcentered" unicode="&#xb7;" horiz-adv-x="278" 
d="M75 311q0 -26 19.5 -45t45.5 -19q25 0 44 20t19 44q0 26 -19 45t-45 19t-45 -19t-19 -45z" />
    <glyph glyph-name="quotesinglbase" unicode="&#x201a;" horiz-adv-x="278" 
d="M83 111v-111h59q0 -17 -2.5 -34t-9.5 -31t-18 -22.5t-28 -8.5v-50q29 0 49.5 12t34 32t20 46.5t6.5 55.5v111h-111z" />
    <glyph glyph-name="quotedblbase" unicode="&#x201e;" horiz-adv-x="426" 
d="M249 111v-111h59q0 -17 -2.5 -34t-9.5 -31t-18 -22.5t-28 -8.5v-50q29 0 49.5 12t34 32t20 46.5t6.5 55.5v111h-111zM66 111v-111h59q0 -17 -2.5 -34t-9.5 -31t-18 -22.5t-28 -8.5v-50q29 0 49.5 12t34 32t20 46.5t6.5 55.5v111h-111z" />
    <glyph glyph-name="perthousand" unicode="&#x2030;" horiz-adv-x="1148" 
d="M857 158q0 19 3.5 39.5t12 37.5t23.5 28t37 11q21 0 34.5 -12t21 -30t10 -38t2.5 -37q0 -18 -3 -38.5t-11 -37t-22 -27.5t-36 -11q-23 0 -37.5 10.5t-22 27.5t-10 37.5t-2.5 39.5zM782 155q0 -36 8 -66.5t26 -52.5t45.5 -34.5t66.5 -12.5q31 0 59.5 9.5t48.5 34.5
q22 27 31 60t9 67q0 36 -8 67t-25.5 53.5t-45 35.5t-67.5 13t-68.5 -13.5t-46 -37t-25.5 -55.5t-8 -68zM512 158q0 19 3.5 39.5t12 37.5t23.5 28t37 11q21 0 34.5 -12t21 -30t10 -38t2.5 -37q0 -18 -3 -38.5t-11 -37t-22 -27.5t-36 -11q-23 0 -37.5 10.5t-22 27.5t-10 37.5
t-2.5 39.5zM437 155q0 -36 8 -66.5t26 -52.5t45.5 -34.5t66.5 -12.5q31 0 59.5 9.5t48.5 34.5q22 27 31 60t9 67q0 36 -8 67t-25.5 53.5t-45 35.5t-67.5 13t-68.5 -13.5t-46 -37t-25.5 -55.5t-8 -68zM628 722l-538 -743h86l537 743h-85zM147 538q0 19 3.5 39.5t12 37.5
t23.5 28t37 11q21 0 34.5 -12t21 -30t10 -38t2.5 -37q0 -18 -3 -38.5t-11 -37t-22 -27.5t-36 -11q-23 0 -37.5 10.5t-22 27.5t-10 37.5t-2.5 39.5zM72 535q0 -36 8 -66.5t26 -53t45.5 -35t66.5 -12.5q31 0 59.5 10t48.5 35q22 27 31 60t9 67q0 36 -8 67t-25.5 53.5t-45 35.5
t-67.5 13t-68.5 -13.5t-46 -37t-25.5 -55.5t-8 -68z" />
    <glyph glyph-name="Acircumflex" unicode="&#xc2;" horiz-adv-x="648" 
d="M201 295l121 333h2l119 -333h-242zM272 714l-278 -714h97l80 215h302l78 -215h105l-279 714h-105zM370 908l104 -143h-84l-69 96l-70 -96h-76l102 143h93z" />
    <glyph glyph-name="Ecircumflex" unicode="&#xca;" horiz-adv-x="611" 
d="M78 714v-714h496v80h-401v247h371v80h-371v227h398v80h-493zM372 908l104 -143h-84l-69 96l-70 -96h-76l102 143h93z" />
    <glyph glyph-name="Aacute" unicode="&#xc1;" horiz-adv-x="648" 
d="M201 295l121 333h2l119 -333h-242zM272 714l-278 -714h97l80 215h302l78 -215h105l-279 714h-105zM468 927l-141 -162h-64l96 162h109z" />
    <glyph glyph-name="Edieresis" unicode="&#xcb;" horiz-adv-x="611" 
d="M167 873v-104h90v104h-90zM355 873v-104h90v104h-90zM78 714v-714h496v80h-401v247h371v80h-371v227h398v80h-493z" />
    <glyph glyph-name="Egrave" unicode="&#xc8;" horiz-adv-x="611" 
d="M78 714v-714h496v80h-401v247h371v80h-371v227h398v80h-493zM289 927l96 -162h-64l-140 162h108z" />
    <glyph glyph-name="Iacute" unicode="&#xcd;" horiz-adv-x="259" 
d="M82 714v-714h95v714h-95zM275 947l-141 -162h-64l96 162h109z" />
    <glyph glyph-name="Icircumflex" unicode="&#xce;" horiz-adv-x="259" 
d="M83 908l-102 -143h76l70 96l69 -96h84l-104 143h-93zM82 714v-714h95v714h-95z" />
    <glyph glyph-name="Idieresis" unicode="&#xcf;" horiz-adv-x="259" 
d="M-8 873v-104h89v104h-89zM179 873v-104h90v104h-90zM82 714v-714h95v714h-95z" />
    <glyph glyph-name="Igrave" unicode="&#xcc;" horiz-adv-x="259" 
d="M82 714v-714h95v714h-95zM85 927l96 -162h-64l-140 162h108z" />
    <glyph glyph-name="Oacute" unicode="&#xd3;" horiz-adv-x="760" 
d="M133 357q0 54 14 106.5t44 94.5t77 67.5t112 25.5t112 -25.5t77 -67.5t44 -94.5t14 -106.5t-14 -106.5t-44 -94.5t-77 -67.5t-112 -25.5t-112 25.5t-77 67.5t-44 94.5t-14 106.5zM38 357q0 -73 21.5 -140.5t64.5 -119.5t107 -82.5t149 -30.5t149 30.5t107 82.5
t64.5 119.5t21.5 140.5t-21.5 140.5t-64.5 119.5t-107 83t-149 31t-149 -31t-107 -83t-64.5 -119.5t-21.5 -140.5zM523 937l-141 -162h-64l96 162h109z" />
    <glyph glyph-name="Ocircumflex" unicode="&#xd4;" horiz-adv-x="760" 
d="M133 357q0 54 14 106.5t44 94.5t77 67.5t112 25.5t112 -25.5t77 -67.5t44 -94.5t14 -106.5t-14 -106.5t-44 -94.5t-77 -67.5t-112 -25.5t-112 25.5t-77 67.5t-44 94.5t-14 106.5zM38 357q0 -73 21.5 -140.5t64.5 -119.5t107 -82.5t149 -30.5t149 30.5t107 82.5
t64.5 119.5t21.5 140.5t-21.5 140.5t-64.5 119.5t-107 83t-149 31t-149 -31t-107 -83t-64.5 -119.5t-21.5 -140.5zM426 908l104 -143h-84l-69 96l-70 -96h-76l102 143h93z" />
    <glyph glyph-name="apple" unicode="&#xf8ff;" horiz-adv-x="790" 
d="M408 588q-16 0 -69 15q-52 15 -89 15q-86 0 -143 -72q-56 -73 -56 -187q0 -124 74 -252q74 -129 150 -129q24 0 66 17q39 16 72 16q32 0 75 -15q44 -16 71 -16q65 0 129 97q21 32 36 63.5t25 61.5q-45 14 -79 63q-35 50 -35 112q0 57 33 103q18 26 57 60q-13 16 -26 28
t-26 22q-47 32 -107 32q-36 0 -87 -17t-71 -17zM561 790q0 4 -0.5 9t-2.5 12q-88 -20 -125.5 -74.5t-38.5 -128.5q32 3 51 8q26 9 55 36q31 32 46 69t15 69z" />
    <glyph glyph-name="Ograve" unicode="&#xd2;" horiz-adv-x="760" 
d="M133 357q0 54 14 106.5t44 94.5t77 67.5t112 25.5t112 -25.5t77 -67.5t44 -94.5t14 -106.5t-14 -106.5t-44 -94.5t-77 -67.5t-112 -25.5t-112 25.5t-77 67.5t-44 94.5t-14 106.5zM38 357q0 -73 21.5 -140.5t64.5 -119.5t107 -82.5t149 -30.5t149 30.5t107 82.5
t64.5 119.5t21.5 140.5t-21.5 140.5t-64.5 119.5t-107 83t-149 31t-149 -31t-107 -83t-64.5 -119.5t-21.5 -140.5zM345 927l96 -162h-64l-140 162h108z" />
    <glyph glyph-name="Uacute" unicode="&#xda;" horiz-adv-x="722" 
d="M648 258v456h-95v-456q0 -96 -47.5 -145.5t-138.5 -49.5q-96 0 -147 49.5t-51 145.5v456h-95v-456q0 -143 77.5 -208.5t215.5 -65.5q135 0 208 68.5t73 205.5zM504 927l-141 -162h-64l96 162h109z" />
    <glyph glyph-name="Ucircumflex" unicode="&#xdb;" horiz-adv-x="722" 
d="M314 908l-103 -143h77l70 96l69 -96h84l-104 143h-93zM648 258v456h-95v-456q0 -96 -47.5 -145.5t-138.5 -49.5q-96 0 -147 49.5t-51 145.5v456h-95v-456q0 -143 77.5 -208.5t215.5 -65.5q135 0 208 68.5t73 205.5z" />
    <glyph glyph-name="Ugrave" unicode="&#xd9;" horiz-adv-x="722" 
d="M648 258v456h-95v-456q0 -96 -47.5 -145.5t-138.5 -49.5q-96 0 -147 49.5t-51 145.5v456h-95v-456q0 -143 77.5 -208.5t215.5 -65.5q135 0 208 68.5t73 205.5zM329 927l96 -162h-64l-140 162h108z" />
    <glyph glyph-name="dotlessi" unicode="&#x131;" horiz-adv-x="222" 
d="M69 0h85v517h-85v-517z" />
    <glyph glyph-name="circumflex" unicode="&#x2c6;" horiz-adv-x="222" 
d="M157 751l104 -143h-84l-69 96l-70 -96h-76l102 143h93z" />
    <glyph glyph-name="tilde" unicode="&#x2dc;" horiz-adv-x="222" 
d="M189 683q22 0 34.5 14.5t15.5 40.5h49q-10 -70 -37.5 -95.5t-66.5 -25.5q-20 0 -38 8t-36 18t-35.5 18t-35.5 8q-46 0 -55 -51h-47q10 61 35.5 89t67.5 28q20 0 39 -8t37 -18t36.5 -18t36.5 -8z" />
    <glyph glyph-name="macron" unicode="&#xaf;" horiz-adv-x="222" 
d="M-58 675v-55h340v55h-340z" />
    <glyph glyph-name="breve" unicode="&#x2d8;" horiz-adv-x="222" 
d="M6 756q11 -44 37 -65.5t75 -21.5q45 0 66 24t33 63h51q-11 -70 -51.5 -109t-106.5 -39q-69 0 -106.5 37t-47.5 111h50z" />
    <glyph glyph-name="dotaccent" unicode="&#x2d9;" horiz-adv-x="222" 
d="M66 622v104h90v-104h-90z" />
    <glyph glyph-name="ring" unicode="&#x2da;" horiz-adv-x="222" 
d="M-1 662q0 -23 9 -43.5t24 -36t35.5 -24.5t43.5 -9t43.5 9t36 24.5t24.5 36t9 43.5t-9 43.5t-24.5 36t-36 24.5t-43.5 9t-43.5 -9t-35.5 -24.5t-24 -36t-9 -43.5zM43 662q0 29 19.5 48.5t48.5 19.5t48.5 -19.5t19.5 -48.5t-19.5 -48.5t-48.5 -19.5t-48.5 19.5t-19.5 48.5z
" />
    <glyph glyph-name="cedilla" unicode="&#xb8;" horiz-adv-x="222" 
d="M23 -146l-18 -44q23 -8 45.5 -13.5t46.5 -5.5q21 0 43 4.5t40 15t29.5 27.5t11.5 42q0 37 -26 55t-58 18q-23 0 -33 -7l-2 2l42 52h-42l-61 -77l17 -28q11 4 20 6t21 2q20 0 33.5 -8.5t13.5 -22.5q0 -9 -6 -14.5t-15 -9.5t-20 -5.5t-21 -1.5q-16 0 -32.5 4t-28.5 9z" />
    <glyph glyph-name="hungarumlaut" unicode="&#x2dd;" horiz-adv-x="222" 
d="M189 731l-81 -143h66l120 143h-105zM33 731l-80 -143h65l120 143h-105z" />
    <glyph glyph-name="ogonek" unicode="&#x2db;" horiz-adv-x="222" 
d="M230 3q-26 -21 -42.5 -38.5t-26.5 -32t-13.5 -27t-3.5 -22.5q0 -16 9.5 -29.5t32.5 -13.5q15 0 33.5 4t29.5 10l2 -38q-14 -13 -37 -19t-46 -6q-43 0 -67.5 20t-24.5 55q0 38 28.5 70.5t85.5 66.5h40v0z" />
    <glyph glyph-name="caron" unicode="&#x2c7;" horiz-adv-x="222" 
d="M65 608l-103 143h83l69 -99l70 99h77l-103 -143h-93z" />
    <glyph glyph-name="Omega" unicode="&#x2126;" horiz-adv-x="740" 
d="M717 0h-282v72q88 60 132 143.5t44 186.5q0 52 -16.5 97t-47 79t-75 53.5t-100.5 19.5q-55 0 -100 -18.5t-77 -52.5t-49.5 -82t-17.5 -106q0 -102 45 -181t135 -139v-72h-283v80h171v4q-82 57 -122.5 132t-40.5 175q0 73 25 135t70 107.5t107 71.5t137 26
q78 0 139.5 -26.5t105 -71.5t66.5 -105t23 -127q0 -201 -164 -317v-4h175v-80z" />
    <glyph glyph-name="currency" unicode="&#xa4;" 
d="M281 524q35 0 64.5 -14t51 -37.5t34 -55t12.5 -66.5q0 -36 -12.5 -68t-34 -55.5t-51.5 -37.5t-65 -14t-65.5 13.5t-53 36.5t-35.5 55t-13 68q0 37 13 69t35.5 55.5t53 37t66.5 13.5zM74 604l-49 -49l57 -58q-28 -28 -41 -67t-13 -81t13.5 -79t38.5 -67l-55 -58l48 -48
l55 58q30 -27 68.5 -40.5t83.5 -13.5q42 0 80.5 14t67.5 41l56 -58l47 47l-55 56q26 31 39 69.5t13 80.5t-13 81t-39 67l55 55l-50 51l-57 -56q-27 23 -65 36.5t-78 13.5q-42 0 -82 -13.5t-69 -37.5z" />
    <glyph glyph-name="Lslash" unicode="&#x141;" 
d="M78 240v-240h473v80h-378v228l228 160v76l-228 -160v330h-95v-398l-78 -56v-76z" />
    <glyph glyph-name="lslash" unicode="&#x142;" horiz-adv-x="222" 
d="M69 321v-321h85v389l70 56v71l-70 -56v254h-85v-321l-69 -56v-71z" />
    <glyph glyph-name="threequarters" unicode="&#xbe;" horiz-adv-x="834" 
d="M177 527v-50h33q18 0 34.5 -4t29.5 -13.5t21 -24t8 -35.5q0 -34 -28 -53t-66 -19q-90 0 -92 86h-68q0 -35 12.5 -61.5t34 -44t51 -26.5t62.5 -9q32 0 61 8t51.5 24t36 40.5t13.5 57.5q0 38 -21 66t-66 36v2q28 11 48 33.5t20 51.5t-11 51t-30.5 36.5t-46 22t-57.5 7.5
q-67 0 -105.5 -37.5t-42.5 -103.5h68q0 37 19 61.5t61 24.5q33 0 55 -16t22 -46q0 -35 -25 -50t-58 -15h-24zM650 725l-435 -752h64l435 752h-64zM529 147l148 193h2v-193h-150zM740 151v278h-51l-210 -275v-58h199v-96h62v96h60v55h-60z" />
    <glyph glyph-name="onequarter" unicode="&#xbc;" horiz-adv-x="834" 
d="M219 280v429h-50q-10 -42 -47 -56.5t-86 -14.5v-50h115v-308h68zM585 725l-435 -752h64l435 752h-64zM511 151l148 193h2v-193h-150zM723 151v278h-51l-210 -275v-58h199v-96h62v96h60v55h-60z" />
    <glyph glyph-name="onesuperior" unicode="&#xb9;" horiz-adv-x="333" 
d="M249 280v429h-50q-10 -41 -47 -56t-86 -15v-50h115v-308h68z" />
    <glyph glyph-name="multiply" unicode="&#xd7;" horiz-adv-x="600" 
d="M71 72l48 -48l182 182l181 -182l48 48l-181 182l180 180l-48 48l-180 -180l-181 180l-48 -48l181 -180z" />
    <glyph glyph-name="Thorn" unicode="&#xde;" horiz-adv-x="648" 
d="M173 258v262h186q81 0 118.5 -33t37.5 -99q0 -64 -37.5 -97.5t-118.5 -32.5h-186zM78 0h95v178h218q108 -1 163.5 54.5t55.5 155.5t-55.5 156t-163.5 56h-218v114h-95v-714z" />
    <glyph glyph-name="brokenbar" unicode="&#xa6;" horiz-adv-x="222" 
d="M145 411v250h-68v-250h68zM77 161v-249h68v249h-68z" />
    <glyph glyph-name="Eth" unicode="&#xd0;" horiz-adv-x="704" 
d="M173 407v227h160q66 0 111 -18.5t73.5 -54t41 -86t12.5 -114.5q0 -66 -13.5 -112.5t-34.5 -77.5t-47.5 -49t-53.5 -27.5t-51 -12t-40 -2.5h-158v259h214v68h-214zM78 339v-339h245q89 0 154 25t107 72.5t62 117t20 159.5q0 172 -89 256t-254 84h-245v-307h-70v-68h70z
" />
    <glyph glyph-name="onehalf" unicode="&#xbd;" horiz-adv-x="834" 
d="M502 275h68q0 39 18.5 69t63.5 30q35 0 59 -19t24 -51q0 -22 -7 -39t-21.5 -31.5t-36.5 -28.5t-51 -31q-24 -14 -46 -29t-39 -34.5t-27.5 -46t-12.5 -64.5h303v55h-235q4 16 16.5 29t30 25t39 24t42.5 25q21 12 41.5 26t36 31t25.5 38.5t10 49.5q0 30 -11.5 53.5
t-32 39.5t-47.5 24.5t-57 8.5q-70 0 -111.5 -42.5t-41.5 -111.5zM219 280v429h-50q-10 -42 -47 -56.5t-86 -14.5v-50h115v-308h68zM570 725l-435 -752h64l435 752h-64z" />
    <glyph glyph-name="minus" unicode="&#x2212;" horiz-adv-x="600" 
d="M48 287v-68h504v68h-504z" />
    <glyph glyph-name="eth" unicode="&#xf0;" horiz-adv-x="574" 
d="M282 431q44 0 75.5 -14t51.5 -38t29.5 -55t9.5 -66q0 -47 -12.5 -83.5t-34.5 -61t-51.5 -37.5t-62.5 -13t-62.5 13t-51.5 37.5t-34.5 61t-12.5 83.5q0 77 39.5 125t116.5 48zM272 506q-57 0 -101 -20.5t-74 -55t-45.5 -79t-15.5 -93.5q0 -57 16 -106t48 -85.5t79 -57
t108 -20.5q62 0 108.5 20.5t78.5 57t48 85.5t16 106q0 115 -41.5 211.5t-132.5 171.5l115 53l-35 37l-120 -56q-20 16 -41.5 31t-35.5 25l-70 -45q14 -8 34 -21t36 -27l-109 -51l38 -40l115 54q12 -8 28 -23t33 -35t33 -43.5t28 -49.5h-2q-27 31 -63 43.5t-76 12.5z" />
    <glyph glyph-name="thorn" unicode="&#xfe;" horiz-adv-x="593" 
d="M152 447v267h-85v-911h85v266h2q14 -23 34.5 -38.5t43.5 -24.5t46.5 -13t42.5 -4q59 0 103.5 21t74 57.5t44 85.5t14.5 104t-15 104t-44.5 86.5t-74 59.5t-104.5 22q-54 0 -99 -19.5t-66 -62.5h-2zM467 263q0 -38 -8 -74t-26 -64t-47.5 -45t-73.5 -17t-75 16.5
t-50.5 43.5t-28.5 62.5t-9 73.5q0 36 8.5 71t27.5 62.5t49 44.5t73 17q41 0 71.5 -16t50 -43t29 -61.5t9.5 -70.5z" />
    <glyph glyph-name="twosuperior" unicode="&#xb2;" horiz-adv-x="333" 
d="M22 555h68q0 39 18.5 69t63.5 30q35 0 59 -19t24 -51q0 -22 -7 -39t-21.5 -31.5t-36.5 -28.5t-51 -31q-24 -14 -46 -29t-39 -34.5t-27.5 -46t-12.5 -64.5h303v55h-235q4 16 16.5 29t30 25t39 24t42.5 25q21 12 41.5 26t36 31t25.5 38.5t10 49.5q0 30 -11.5 53.5t-32 39.5
t-47.5 24.5t-57 8.5q-70 0 -111.5 -42.5t-41.5 -111.5z" />
    <glyph glyph-name="threesuperior" unicode="&#xb3;" horiz-adv-x="333" 
d="M132 527v-50h33q18 0 34.5 -4t29.5 -13.5t21 -24t8 -35.5q0 -34 -28 -53t-66 -19q-90 0 -92 86h-68q0 -35 12.5 -61.5t34 -44t51 -26.5t62.5 -9q32 0 61 8t51.5 24t36 40.5t13.5 57.5q0 38 -21 66t-66 36v2q28 11 48 33.5t20 51.5t-11 51t-30.5 36.5t-46 22t-57.5 7.5
q-67 0 -105.5 -37.5t-42.5 -103.5h68q0 37 19 61.5t61 24.5q33 0 55 -16t22 -46q0 -35 -25 -50t-58 -15h-24z" />
    <glyph glyph-name="Scaron" unicode="&#x160;" horiz-adv-x="648" 
d="M371 765l103 143h-77l-70 -96l-69 96h-84l104 -143h93zM491 505h90q-2 59 -22.5 101.5t-56 70.5t-82.5 41t-102 13q-49 0 -95.5 -12.5t-83 -38t-58.5 -65t-22 -93.5q0 -49 19.5 -81.5t52 -53t73.5 -33t83.5 -22t83.5 -18.5t73.5 -23.5t52 -37.5t19.5 -60q0 -39 -16 -64
t-42 -39.5t-58.5 -20.5t-64.5 -6q-40 0 -78 10t-66.5 31t-46 53.5t-17.5 77.5h-90q0 -65 23.5 -112.5t64 -78t94 -45.5t113.5 -15q49 0 98.5 11.5t89.5 37t65.5 66t25.5 97.5q0 53 -19.5 88t-52 58t-73.5 36.5t-83.5 23.5t-83.5 18.5t-73.5 21.5t-52 33.5t-19.5 53.5
q0 35 13.5 58.5t36 37.5t51.5 20t59 6q74 0 121.5 -34.5t55.5 -111.5z" />
    <glyph glyph-name="Yacute" unicode="&#xdd;" horiz-adv-x="648" 
d="M373 292l273 422h-108l-209 -340l-214 340h-113l276 -422v-292h95v292zM468 927l-141 -162h-64l96 162h109z" />
    <glyph glyph-name="Zcaron" unicode="&#x17d;" horiz-adv-x="611" 
d="M353 765l103 143h-77l-70 -96l-69 96h-84l104 -143h93zM22 80v-80h568v80h-455l443 554v80h-522v-80h410z" />
    <glyph glyph-name="scaron" unicode="&#x161;" horiz-adv-x="500" 
d="M297 588l103 143h-77l-70 -96l-69 96h-84l104 -143h93zM116 163h-85q2 -48 20 -81.5t48 -54t69 -29.5t82 -9q39 0 78.5 7.5t71 26.5t51 50t19.5 78q0 37 -14.5 62t-38 41.5t-54 26.5t-62.5 17q-30 7 -60 13.5t-54 16t-39.5 24t-15.5 36.5q0 20 10 32.5t26 20t35.5 10.5
t38.5 3q21 0 41.5 -4.5t37.5 -14.5t28 -26.5t13 -41.5h85q-3 47 -20 78.5t-45.5 50t-65.5 26t-81 7.5q-34 0 -68.5 -8.5t-62 -26t-45 -45.5t-17.5 -67q0 -50 25 -78t62.5 -43.5t81.5 -24t81.5 -19t62.5 -27.5t25 -50q0 -24 -12 -39.5t-30.5 -23.5t-40.5 -11t-42 -3
q-26 0 -50.5 5t-44 16.5t-31.5 31t-13 47.5z" />
    <glyph glyph-name="yacute" unicode="&#xfd;" horiz-adv-x="500" 
d="M267 -69q-15 -38 -29.5 -64t-32 -42.5t-39 -24t-49.5 -7.5q-15 0 -30 2t-29 7v78q11 -5 25.5 -8.5t24.5 -3.5q26 0 43.5 12.5t26.5 35.5l35 87l-205 514h96l151 -423h2l145 423h90zM413 770l-141 -162h-64l96 162h109z" />
    <glyph glyph-name="zcaron" unicode="&#x17e;" horiz-adv-x="480" 
d="M287 588l103 143h-77l-70 -96l-69 96h-84l104 -143h93zM22 65v-65h436v75h-330l316 384v58h-402v-75h292z" />
    <glyph glyph-name="gravecmb" unicode="&#x300;" horiz-adv-x="0" 
d="M-144 770l96 -162h-64l-140 162h108z" />
    <glyph glyph-name="acutecmb" unicode="&#x301;" horiz-adv-x="0" 
d="M35 770l-141 -162h-64l96 162h109z" />
    <glyph glyph-name="circumflexcmb" unicode="&#x302;" horiz-adv-x="0" 
d="M-63 751l104 -143h-84l-69 96l-70 -96h-76l102 143h93z" />
    <glyph glyph-name="tildecmb" unicode="&#x303;" horiz-adv-x="0" 
d="M-31 683q22 0 34.5 14.5t15.5 40.5h49q-10 -70 -37.5 -95.5t-66.5 -25.5q-20 0 -38 8t-36 18t-35.5 18t-35.5 8q-46 0 -55 -51h-47q10 61 35.5 89t67.5 28q20 0 39 -8t37 -18t36.5 -18t36.5 -8z" />
    <glyph glyph-name="macroncmb" unicode="&#x304;" horiz-adv-x="0" 
d="M-278 675v-55h340v55h-340z" />
    <glyph glyph-name="brevecmb" unicode="&#x306;" horiz-adv-x="0" 
d="M-214 756q11 -44 37 -65.5t75 -21.5q45 0 66 24t33 63h51q-11 -70 -51.5 -109t-106.5 -39q-69 0 -106.5 37t-47.5 111h50z" />
    <glyph glyph-name="dotaccentcmb" unicode="&#x307;" horiz-adv-x="0" 
d="M-154 622v104h90v-104h-90z" />
    <glyph glyph-name="dieresiscmb" unicode="&#x308;" horiz-adv-x="0" 
d="M-247 696v-104h89v104h-89zM-60 696v-104h90v104h-90z" />
    <glyph glyph-name="ringcmb" unicode="&#x30a;" horiz-adv-x="0" 
d="M-221 662q0 -23 9 -43.5t24 -36t35.5 -24.5t43.5 -9t43.5 9t36 24.5t24.5 36t9 43.5t-9 43.5t-24.5 36t-36 24.5t-43.5 9t-43.5 -9t-35.5 -24.5t-24 -36t-9 -43.5zM-177 662q0 29 19.5 48.5t48.5 19.5t48.5 -19.5t19.5 -48.5t-19.5 -48.5t-48.5 -19.5t-48.5 19.5
t-19.5 48.5z" />
    <glyph glyph-name="hungarumlautcmb" unicode="&#x30b;" horiz-adv-x="0" 
d="M-31 731l-81 -143h66l120 143h-105zM-187 731l-80 -143h65l120 143h-105z" />
    <glyph glyph-name="caroncmb" unicode="&#x30c;" horiz-adv-x="0" 
d="M-155 608l-103 143h83l69 -99l70 99h77l-103 -143h-93z" />
    <glyph glyph-name="cedillacmb" unicode="&#x327;" horiz-adv-x="0" 
d="M-197 -146l-18 -44q23 -8 45.5 -13.5t46.5 -5.5q21 0 43 4.5t40 15t29.5 27.5t11.5 42q0 37 -26 55t-58 18q-23 0 -33 -7l-2 2l42 52h-42l-61 -77l17 -28q11 4 20 6t21 2q20 0 33.5 -8.5t13.5 -22.5q0 -9 -6 -14.5t-15 -9.5t-20 -5.5t-21 -1.5q-16 0 -32.5 4t-28.5 9z
" />
    <glyph glyph-name="ogonekcmb" unicode="&#x328;" horiz-adv-x="0" 
d="M10 3q-26 -21 -42.5 -38.5t-26.5 -32t-13.5 -27t-3.5 -22.5q0 -16 9.5 -29.5t32.5 -13.5q15 0 33.5 4t29.5 10l2 -38q-14 -13 -37 -19t-46 -6q-43 0 -67.5 20t-24.5 55q0 38 28.5 70.5t85.5 66.5h40v0z" />
    <glyph glyph-name="soliduslongoverlaycmb" unicode="&#x338;" horiz-adv-x="0" 
d="M-53 731l-295 -747h72l296 747h-73z" />
    <glyph glyph-name="FL295" horiz-adv-x="0" 
 />
    <glyph glyph-name="cyrbreve" horiz-adv-x="222" 
d="M112 593q-59 0 -97.5 36.5t-46.5 96.5h51q11 -36 34.5 -52.5t57.5 -16.5q35 0 57.5 16.5t34.5 52.5h51q-10 -60 -46 -96.5t-96 -36.5z" />
    <glyph glyph-name="cyrBreve" horiz-adv-x="222" 
d="M112 761q-63 0 -103.5 39t-48.5 99h51q22 -71 100 -71q76 0 100 71h51q-10 -60 -47 -99t-103 -39z" />
    <glyph glyph-name="uni018F" unicode="&#x18f;" horiz-adv-x="743" 
d="M370 -16q-88 0 -151 30.5t-103 82.5t-59 119t-19 141v19.5t2 19.5h568q-6 51 -24.5 98t-49 82t-73.5 56t-98 21q-39 0 -74 -10.5t-63.5 -30t-49.5 -46t-32 -58.5h-94q10 54 40.5 95.5t73 70t94 43t103.5 14.5q84 0 148.5 -30t108 -81t65.5 -119.5t22 -144.5
q0 -88 -26 -157t-71 -117t-106 -73t-132 -25zM366 61q55 0 99 19.5t76 53.5t50 81t21 102h-478q3 -45 16.5 -90.5t41.5 -82.5t70.5 -60t103.5 -23z" />
    <glyph glyph-name="uni01A2" unicode="&#x1a2;" horiz-adv-x="803" 
d="M630 634h-75v-606q-30 -17 -75 -30.5t-100 -13.5q-85 0 -149 30.5t-107 82.5t-64.5 119t-21.5 141q0 73 21.5 140.5t64.5 119.5t107 83t149 31q65 0 115 -17h230v-911h-95v831zM380 63q8 0 19 1t22 2.5t21.5 4t17.5 4.5v564q-15 4 -33 8t-47 4q-65 0 -112 -25.5
t-77 -67.5t-44 -94.5t-14 -106.5t14 -106.5t44 -94.5t77 -67.5t112 -25.5z" />
    <glyph glyph-name="uni01A3" unicode="&#x1a3;" horiz-adv-x="642" 
d="M493 442h-66v-416q-29 -18 -63.5 -27.5t-76.5 -9.5q-62 0 -108.5 20.5t-78.5 57t-48 85.5t-16 106t16 106.5t48 86t78.5 57.5t108.5 21q46 0 84 -12h207v-714h-85v639zM287 63q27 0 55 10v371q-28 10 -55 10q-33 0 -62.5 -13t-51.5 -38t-34.5 -61.5t-12.5 -83.5
t12.5 -83.5t34.5 -61t51.5 -37.5t62.5 -13z" />
    <glyph glyph-name="uni01B5" unicode="&#x1b5;" horiz-adv-x="611" 
d="M22 80l198 247h-132v80h196l182 227h-410v80h522v-80l-182 -227h146v-80h-210l-197 -247h455v-80h-568v80z" />
    <glyph glyph-name="uni01B6" unicode="&#x1b6;" horiz-adv-x="480" 
d="M22 65l140 170h-82v75h144l110 132h-292v75h402v-58l-123 -149h81v-75h-143l-131 -160h330v-75h-436v65z" />
    <glyph glyph-name="uni0259" unicode="&#x259;" horiz-adv-x="547" 
d="M268 -11q-69 0 -114.5 28.5t-73 72.5t-38 96t-8.5 99h387q1 34 -8 64.5t-29 54t-51 37.5t-73 14q-54 0 -88.5 -25t-45.5 -76h-84q17 88 75 131.5t146 43.5q62 0 108.5 -20t77.5 -56t46.5 -86t15.5 -109t-18 -108t-50.5 -85t-77 -56t-97.5 -20zM273 64q33 0 59.5 11.5
t45.5 31.5t30 46.5t13 56.5h-297q2 -30 13.5 -57t31 -46.5t46 -31t58.5 -11.5z" />
    <glyph glyph-name="uni0400" unicode="&#x400;" horiz-adv-x="611" 
d="M78 714h493v-80h-398v-227h371v-80h-371v-247h401v-80h-496v714zM306 908l86 -143h-64l-130 143h108z" />
    <glyph glyph-name="afii10023" unicode="&#x401;" horiz-adv-x="611" 
d="M78 714h493v-80h-398v-227h371v-80h-371v-247h401v-80h-496v714zM276 873v-104h-89v104h89zM464 873v-104h-90v104h90z" />
    <glyph glyph-name="afii10051" unicode="&#x402;" horiz-adv-x="750" 
d="M481 -8q-25 0 -50 3v81q8 -1 14.5 -1h13.5q46 0 76.5 13t48.5 35.5t25.5 52.5t7.5 64q0 38 -11.5 65t-31 44.5t-46 25.5t-56.5 8q-36 0 -67 -13t-53.5 -37.5t-35 -60.5t-12.5 -81v-191h-95v634h-207v80h570v-80h-268v-254h2q12 21 31.5 36t43.5 25.5t50.5 15.5t52.5 5
q48 0 90 -13.5t72.5 -41.5t48 -69.5t17.5 -97.5q0 -51 -13.5 -96t-42 -79t-72 -53.5t-103.5 -19.5z" />
    <glyph glyph-name="afii10052" unicode="&#x403;" horiz-adv-x="550" 
d="M84 714h464v-80h-369v-634h-95v714zM452 908l-131 -143h-64l86 143h109z" />
    <glyph glyph-name="afii10053" unicode="&#x404;" horiz-adv-x="718" 
d="M368 -16q-71 0 -131.5 25t-104.5 73t-69 117t-25 157q0 76 20.5 144.5t62 119.5t104.5 81t147 30q52 0 102.5 -14t92.5 -42t70.5 -70t35.5 -97h-94q-9 33 -28 60t-46 46t-61.5 29t-73.5 10q-55 0 -96.5 -20.5t-70 -55t-45.5 -79t-23 -92.5h329v-79h-333q3 -59 20.5 -108
t48 -84t74 -54.5t98.5 -19.5q87 0 141.5 48t70.5 139h96q-17 -132 -100 -198t-212 -66z" />
    <glyph glyph-name="afii10054" unicode="&#x405;" horiz-adv-x="648" 
d="M332 -16q-60 0 -113.5 15t-94 45.5t-64 78t-23.5 112.5h90q0 -45 17.5 -77.5t46 -53.5t66 -31t78.5 -10q32 0 64.5 6t58.5 20.5t42 39.5t16 64q0 37 -19.5 60t-52 37.5t-73.5 23.5t-83.5 18.5t-83.5 22t-73.5 33t-52 53t-19.5 81.5q0 54 22 93.5t58.5 65t83 38t95.5 12.5
q55 0 102 -13t82.5 -41t56 -70.5t22.5 -101.5h-90q-8 77 -55.5 111.5t-121.5 34.5q-30 0 -59 -6t-51.5 -20t-36 -37.5t-13.5 -58.5q0 -33 19.5 -53.5t52 -33.5t73.5 -21.5t83.5 -18.5t83.5 -23.5t73.5 -36.5t52 -58t19.5 -88q0 -57 -25.5 -97.5t-65.5 -66t-89.5 -37
t-98.5 -11.5z" />
    <glyph glyph-name="afii10055" unicode="&#x406;" horiz-adv-x="259" 
d="M82 714h95v-714h-95v714z" />
    <glyph glyph-name="afii10056" unicode="&#x407;" horiz-adv-x="259" 
d="M82 714h95v-714h-95v714zM80 873v-104h-89v104h89zM268 873v-104h-90v104h90z" />
    <glyph glyph-name="afii10057" unicode="&#x408;" horiz-adv-x="519" 
d="M230 -16q-100 0 -154 52t-54 155v44h95v-30q0 -31 5 -57t17.5 -45t35 -29.5t57.5 -10.5q65 0 89.5 35t24.5 94v522h95v-536q0 -36 -10.5 -71t-35 -62.5t-65 -44t-100.5 -16.5z" />
    <glyph glyph-name="afii10058" unicode="&#x409;" horiz-adv-x="1105" 
d="M625 714v-291h223q106 0 162.5 -54.5t56.5 -157.5q0 -102 -56.5 -156.5t-162.5 -54.5h-318v634h-260q-1 -85 -3.5 -165.5t-9 -152t-19.5 -131.5t-35 -103.5t-55 -67.5t-80 -24q-15 0 -31.5 2.5t-26.5 7.5v86q19 -6 41 -6q45 0 70.5 46.5t37.5 130.5t15 200.5t3 256.5h448
zM816 80q156 0 156 131q0 133 -156 133h-191v-264h191z" />
    <glyph glyph-name="afii10059" unicode="&#x40a;" horiz-adv-x="1124" 
d="M78 714h95v-301h376v301h95v-301h223q106 0 162.5 -52t56.5 -155q0 -102 -56.5 -154t-162.5 -52h-318v333h-376v-333h-95v714zM835 80q78 0 117 30t39 96q0 67 -39 97.5t-117 30.5h-191v-254h191z" />
    <glyph glyph-name="afii10060" unicode="&#x40b;" horiz-adv-x="750" 
d="M208 634h-207v80h570v-80h-268v-203q29 8 72 19.5t87 11.5q82 0 129.5 -23t72 -56t31.5 -70.5t7 -67.5v-245h-95v239q0 22 -2.5 47t-16.5 46t-43 35t-83 14q-56 0 -94.5 -11t-64.5 -18v-352h-95v634z" />
    <glyph glyph-name="afii10061" unicode="&#x40c;" horiz-adv-x="667" 
d="M491 908l-131 -143h-64l86 143h109zM78 714h95v-346l362 346h123l-340 -318l352 -396h-120l-304 338l-73 -68v-270h-95v714z" />
    <glyph glyph-name="uni040D" unicode="&#x40d;" horiz-adv-x="730" 
d="M78 714h95v-605l359 605h120v-714h-95v607l-360 -607h-119v714zM346 908l86 -143h-64l-130 143h108z" />
    <glyph glyph-name="afii10062" unicode="&#x40e;" horiz-adv-x="611" 
d="M149 -11q-24 0 -47.5 3.5t-40.5 8.5v78q13 -4 32.5 -7t37.5 -3q23 0 40.5 8.5t31.5 22.5t24.5 32t19.5 37l12 25l-258 520h103l206 -428l201 428h101l-274 -561q-45 -92 -91 -128t-98 -36zM315 761q-81 0 -130 35t-52 103h91q6 -40 28.5 -55.5t61.5 -15.5q45 0 65 16.5
t25 54.5h91q0 -30 -13 -55t-36.5 -43.5t-57 -29t-73.5 -10.5z" />
    <glyph glyph-name="afii10145" unicode="&#x40f;" horiz-adv-x="712" 
d="M310 0h-232v714h95v-634h366v634h95v-714h-230v-177h-94v177z" />
    <glyph glyph-name="afii10017" unicode="&#x410;" horiz-adv-x="648" 
d="M272 714h105l279 -714h-105l-78 215h-302l-80 -215h-97zM443 295l-119 333h-2l-121 -333h242z" />
    <glyph glyph-name="afii10018" unicode="&#x411;" horiz-adv-x="675" 
d="M78 714h489v-80h-394v-210h238q106 0 162.5 -55t56.5 -158q0 -102 -56.5 -156.5t-162.5 -54.5h-333v714zM380 80q156 0 156 131q0 133 -156 133h-207v-264h207z" />
    <glyph glyph-name="afii10019" unicode="&#x412;" horiz-adv-x="685" 
d="M78 714h259q23 0 49.5 -0.5t52.5 -3t49 -7.5t38 -15q35 -21 59.5 -58t24.5 -91q0 -57 -27.5 -98.5t-78.5 -61.5v-2q66 -14 101 -60t35 -112q0 -39 -14 -76t-41.5 -65.5t-68 -46t-93.5 -17.5h-345v714zM411 80q63 0 98.5 34t35.5 94q0 35 -13 58t-34.5 36.5t-49.5 19
t-58 5.5h-217v-247h238zM363 407q81 0 116.5 28.5t35.5 85.5q0 37 -12 59.5t-33 34.5t-48.5 15.5t-58.5 3.5h-190v-227h190z" />
    <glyph glyph-name="afii10020" unicode="&#x413;" horiz-adv-x="550" 
d="M84 714h464v-80h-369v-634h-95v714z" />
    <glyph glyph-name="afii10021" unicode="&#x414;" horiz-adv-x="729" 
d="M9 80h70q20 36 37 90t29.5 118.5t19.5 137t7 146.5v142h460v-634h79v-257h-91v177h-520v-177h-91v257zM537 80v554h-273v-103q0 -66 -6.5 -132.5t-18 -126t-26 -109.5t-30.5 -83h354z" />
    <glyph glyph-name="afii10022" unicode="&#x415;" horiz-adv-x="611" 
d="M78 714h493v-80h-398v-227h371v-80h-371v-247h401v-80h-496v714z" />
    <glyph glyph-name="afii10024" unicode="&#x416;" horiz-adv-x="1011" 
d="M343 384l-314 330h118l312 -333v333h93v-333l312 333h118l-317 -328l339 -386h-118l-291 332l-43 -46v-286h-93v286l-48 47l-286 -333h-118z" />
    <glyph glyph-name="afii10025" unicode="&#x417;" horiz-adv-x="654" 
d="M332 -16q-64 0 -118 15t-93.5 46t-61.5 78t-22 112h91q1 -48 18.5 -81.5t46 -54t66.5 -29.5t81 -9q37 0 69 10.5t55.5 30t37 47t13.5 61.5q0 39 -15 63.5t-39.5 38t-57 18.5t-68.5 5q-15 0 -34 -0.5t-30 -1.5v78q12 -2 32 -2h32q34 0 62.5 6.5t49 21.5t32 39.5t11.5 60.5
q0 33 -12.5 55t-34 35.5t-49 19.5t-57.5 6q-79 0 -124 -34.5t-53 -112.5h-91q2 57 23.5 99.5t57.5 70t84.5 41.5t105.5 14q51 0 95.5 -11.5t77.5 -35.5t52 -60.5t19 -86.5q0 -29 -10 -54t-26.5 -45t-38 -34.5t-43.5 -21.5v-3q35 -7 62 -23.5t45 -39.5t27 -51t9 -57
q0 -33 -15 -72t-48.5 -73t-86 -56.5t-127.5 -22.5z" />
    <glyph glyph-name="afii10026" unicode="&#x418;" horiz-adv-x="730" 
d="M78 714h95v-605l359 605h120v-714h-95v607l-360 -607h-119v714z" />
    <glyph glyph-name="afii10027" unicode="&#x419;" horiz-adv-x="730" 
d="M78 714h95v-605l359 605h120v-714h-95v607l-360 -607h-119v714zM365 761q-81 0 -130 35t-52 103h91q6 -40 28.5 -55.5t61.5 -15.5q45 0 65 16.5t25 54.5h91q0 -30 -13 -55t-36.5 -43.5t-57 -29t-73.5 -10.5z" />
    <glyph glyph-name="afii10028" unicode="&#x41a;" horiz-adv-x="667" 
d="M78 714h95v-346l362 346h123l-340 -318l352 -396h-120l-304 338l-73 -68v-270h-95v714z" />
    <glyph glyph-name="afii10029" unicode="&#x41b;" horiz-adv-x="703" 
d="M68 -10q-15 0 -31.5 2.5t-26.5 7.5v86q19 -6 41 -6q45 0 70.5 46.5t37.5 130.5t15 200.5t3 256.5h448v-714h-95v634h-260q-1 -85 -3.5 -165.5t-9 -152t-19.5 -131.5t-35 -103.5t-55 -67.5t-80 -24z" />
    <glyph glyph-name="afii10030" unicode="&#x41c;" horiz-adv-x="871" 
d="M80 714h130l225 -600l226 600h130v-714h-90v594h-2l-223 -594h-81l-223 594h-2v-594h-90v714z" />
    <glyph glyph-name="afii10031" unicode="&#x41d;" horiz-adv-x="722" 
d="M78 714h95v-307h376v307h95v-714h-95v327h-376v-327h-95v714z" />
    <glyph glyph-name="afii10032" unicode="&#x41e;" horiz-adv-x="760" 
d="M380 -16q-85 0 -149 30.5t-107 82.5t-64.5 119t-21.5 141q0 73 21.5 140.5t64.5 119.5t107 83t149 31t149 -31t107 -83t64.5 -119.5t21.5 -140.5q0 -74 -21.5 -141t-64.5 -119t-107 -82.5t-149 -30.5zM380 63q65 0 112 25.5t77 67.5t44 94.5t14 106.5t-14 106.5t-44 94.5
t-77 67.5t-112 25.5t-112 -25.5t-77 -67.5t-44 -94.5t-14 -106.5t14 -106.5t44 -94.5t77 -67.5t112 -25.5z" />
    <glyph glyph-name="afii10033" unicode="&#x41f;" horiz-adv-x="712" 
d="M78 714h556v-714h-95v634h-366v-634h-95v714z" />
    <glyph glyph-name="afii10034" unicode="&#x420;" horiz-adv-x="648" 
d="M78 714h313q109 0 164 -55.5t55 -155.5t-55 -155.5t-164 -55.5h-218v-292h-95v714zM359 372q81 0 118.5 33.5t37.5 97.5t-37.5 97.5t-118.5 33.5h-186v-262h186z" />
    <glyph glyph-name="afii10035" unicode="&#x421;" horiz-adv-x="722" 
d="M373 -16q-83 0 -145 28.5t-103 78.5t-61.5 118t-20.5 146t22 146.5t64.5 119.5t105.5 80.5t146 29.5q56 0 106 -15t89 -44t65 -72.5t34 -100.5h-95q-16 76 -70.5 114t-129.5 38q-64 0 -109.5 -24t-75 -64.5t-43.5 -92.5t-14 -108q0 -61 14 -115.5t43.5 -95t75.5 -64.5
t110 -24q46 0 83 15.5t63.5 43t41.5 65.5t18 82h95q-14 -136 -92.5 -210.5t-216.5 -74.5z" />
    <glyph glyph-name="afii10036" unicode="&#x422;" horiz-adv-x="574" 
d="M240 634h-238v80h571v-80h-238v-634h-95v634z" />
    <glyph glyph-name="afii10037" unicode="&#x423;" horiz-adv-x="611" 
d="M182 -11q-17 0 -33.5 3.5t-27.5 8.5v85q13 -6 26.5 -9.5t30.5 -3.5q27 0 51 19t42 57l12 25l-282 540h103l229 -447l178 447h101l-240 -552q-21 -50 -43 -83t-45 -53t-48.5 -28.5t-53.5 -8.5z" />
    <glyph glyph-name="afii10038" unicode="&#x424;" horiz-adv-x="861" 
d="M383 70q-84 0 -149.5 19.5t-110.5 57t-69 91t-24 121.5q0 67 24 122t69 93t110.5 59t149.5 21v77h95v-77q84 0 150 -20.5t111 -59t68.5 -93t23.5 -122.5q0 -141 -92.5 -215t-260.5 -74v-86h-95v86zM383 577q-138 -4 -198 -61.5t-60 -156.5q0 -100 60 -153t198 -59v430z
M478 147q138 6 198 59t60 153q0 99 -60 156.5t-198 61.5v-430z" />
    <glyph glyph-name="afii10039" unicode="&#x425;" horiz-adv-x="611" 
d="M248 367l-235 347h114l178 -279l186 279h106l-236 -347l251 -367h-116l-192 295l-198 -295h-106z" />
    <glyph glyph-name="afii10040" unicode="&#x426;" horiz-adv-x="720" 
d="M611 0h-533v714h95v-634h357v634h95v-634h77v-257h-91v177z" />
    <glyph glyph-name="afii10041" unicode="&#x427;" horiz-adv-x="658" 
d="M485 306q-12 -5 -33.5 -11.5t-47.5 -12.5t-54 -10.5t-53 -4.5q-82 0 -131 20t-75.5 52t-35 73t-8.5 82v220h94v-212q0 -24 4 -51t20 -50t47 -38t85 -15q67 0 114.5 12.5t73.5 25.5v328h95v-714h-95v306z" />
    <glyph glyph-name="afii10042" unicode="&#x428;" horiz-adv-x="1011" 
d="M78 714h95v-634h285v634h95v-634h285v634h95v-714h-855v714z" />
    <glyph glyph-name="afii10043" unicode="&#x429;" horiz-adv-x="1032" 
d="M922 0h-844v714h95v-634h285v634h95v-634h285v634h95v-634h81v-257h-92v177z" />
    <glyph glyph-name="afii10044" unicode="&#x42a;" horiz-adv-x="778" 
d="M203 634h-201v80h296v-291h223q106 0 162.5 -54.5t56.5 -157.5q0 -102 -56.5 -156.5t-162.5 -54.5h-318v634zM489 80q156 0 156 131q0 133 -156 133h-191v-264h191z" />
    <glyph glyph-name="afii10045" unicode="&#x42b;" horiz-adv-x="872" 
d="M78 714h95v-291h213q106 0 162.5 -54.5t56.5 -157.5q0 -102 -56.5 -156.5t-162.5 -54.5h-308v714zM354 80q156 0 156 131q0 133 -156 133h-181v-264h181zM699 714h95v-714h-95v714z" />
    <glyph glyph-name="afii10046" unicode="&#x42c;" horiz-adv-x="653" 
d="M78 714h95v-291h223q106 0 162.5 -54.5t56.5 -157.5q0 -102 -56.5 -156.5t-162.5 -54.5h-318v714zM364 80q156 0 156 131q0 133 -156 133h-191v-264h191z" />
    <glyph glyph-name="afii10047" unicode="&#x42d;" horiz-adv-x="718" 
d="M350 -16q-129 0 -212 66t-100 198h96q16 -91 70.5 -139t141.5 -48q55 0 98.5 19.5t74 54.5t48 84t20.5 108h-333v79h329q-6 48 -23 92.5t-45.5 79t-70 55t-96.5 20.5q-39 0 -73.5 -10t-61.5 -29t-46 -46t-28 -60h-94q7 55 35.5 97t70.5 70t92.5 42t102.5 14q84 0 147 -30
t104.5 -81t62 -119.5t20.5 -144.5q0 -88 -25 -157t-69 -117t-104.5 -73t-131.5 -25z" />
    <glyph glyph-name="afii10048" unicode="&#x42e;" horiz-adv-x="1020" 
d="M650 -16q-76 0 -135.5 27t-101.5 74t-66 109t-28 133h-146v-327h-95v714h95v-307h147q7 67 32 126t67 103t100 69.5t131 25.5q79 0 141 -30.5t104.5 -81.5t64.5 -119t22 -143t-22 -143t-64.5 -119t-104.5 -81t-141 -30zM650 63q60 0 104.5 25t74 66t44 94t14.5 109
t-14.5 109t-44 94t-74 66t-104.5 25t-104.5 -25t-74 -66t-44 -94t-14.5 -109t14.5 -109t44 -94t74 -66t104.5 -25z" />
    <glyph glyph-name="afii10049" unicode="&#x42f;" horiz-adv-x="671" 
d="M232 300q-75 11 -123 64t-48 144q0 102 59.5 154t165.5 52h306v-714h-94v294h-159l-221 -294h-118zM498 374v260h-180q-78 0 -120 -30t-42 -96t41.5 -100t120.5 -34h180z" />
    <glyph glyph-name="afii10065" unicode="&#x430;" horiz-adv-x="537" 
d="M207 -11q-35 0 -66 7.5t-54.5 25t-37 45t-13.5 66.5q0 44 15 72t39.5 45.5t56 26.5t64.5 15q35 7 66.5 10.5t55.5 10t38 19t14 36.5q0 28 -10.5 45t-27 26t-37 12t-40.5 3q-54 0 -90 -20.5t-39 -77.5h-85q2 48 20 81t48 53.5t68.5 29.5t82.5 9q35 0 69.5 -5t62.5 -20.5
t45 -43.5t17 -73v-266q0 -30 3.5 -44t23.5 -14q9 0 26 5v-66q-22 -13 -61 -13q-33 0 -52.5 18.5t-19.5 60.5q-35 -42 -81.5 -60.5t-100.5 -18.5zM226 63q42 0 72 11.5t49 29t28 38t9 38.5v87q-16 -13 -42 -18t-54.5 -9t-57.5 -8t-52 -14t-37.5 -28.5t-14.5 -50.5
q0 -21 8.5 -35.5t22 -23.5t31.5 -13t38 -4z" />
    <glyph glyph-name="afii10066" unicode="&#x431;" horiz-adv-x="573" 
d="M295 -11q-100 0 -161.5 51t-77.5 158q-6 42 -6 94q0 37 2.5 77t9 79t18 75t30.5 65q34 53 83 78.5t123 30.5q49 4 82 9t37 25h85q-2 -39 -17 -60t-42 -31.5t-66 -14t-91 -7.5q-43 -3 -75 -20t-54.5 -45.5t-36.5 -67t-20 -84.5h3q22 51 68.5 84t112.5 33q109 0 172 -68
t63 -196q0 -65 -17.5 -114.5t-49.5 -83t-76.5 -50.5t-98.5 -17zM296 61q30 0 58 12.5t49 36.5t34 59.5t13 82.5q0 91 -42 143t-114 52t-114.5 -52.5t-42.5 -143.5q0 -88 42 -139t117 -51z" />
    <glyph glyph-name="afii10067" unicode="&#x432;" horiz-adv-x="540" 
d="M64 517h239q34 0 65.5 -5t56.5 -18.5t40 -38.5t15 -64q0 -42 -20 -68t-56 -43v-1q45 -9 71.5 -42t26.5 -85q0 -33 -11.5 -61t-32.5 -48t-50 -31.5t-63 -11.5h-281v517zM329 72q42 0 63.5 24.5t21.5 61.5q0 35 -23 56t-77 21h-166v-163h181zM294 305q55 0 76.5 20t21.5 53
q0 32 -21 49.5t-77 17.5h-146v-140h146z" />
    <glyph glyph-name="afii10068" unicode="&#x433;" horiz-adv-x="424" 
d="M66 517h354v-75h-269v-442h-85v517z" />
    <glyph glyph-name="afii10069" unicode="&#x434;" horiz-adv-x="589" 
d="M3 75h61q11 21 22.5 57.5t21 81t15.5 94.5t6 98v111h374v-442h70v-232h-81v157h-408v-157h-81v232zM418 75v367h-206v-44q0 -49 -5.5 -97.5t-14.5 -91.5t-19.5 -78t-20.5 -56h266z" />
    <glyph glyph-name="afii10070" unicode="&#x435;" horiz-adv-x="537" 
d="M284 -11q-62 0 -108.5 20t-77.5 56t-46.5 86t-15.5 109q0 58 18 107.5t50.5 85.5t77 56t97.5 20q69 0 114.5 -28.5t73 -72.5t38 -96t8.5 -99h-387q-1 -34 8 -64.5t29 -54t51 -37.5t73 -14q54 0 88.5 25t45.5 76h84q-17 -88 -75 -131.5t-146 -43.5zM423 308
q-2 30 -13.5 57t-31 46.5t-46 31t-58.5 11.5q-33 0 -59.5 -11.5t-45.5 -31.5t-30 -46.5t-13 -56.5h297z" />
    <glyph glyph-name="afii10072" unicode="&#x436;" horiz-adv-x="783" 
d="M250 277l-221 240h105l215 -240v240h85v-240l215 240h105l-222 -240l251 -277h-105l-215 231l-29 -26v-205h-85v205l-33 30l-211 -235h-105z" />
    <glyph glyph-name="afii10073" unicode="&#x437;" horiz-adv-x="506" 
d="M254 -11q-103 0 -161 46t-63 131h86q4 -57 42 -82t95 -25q61 0 94 26t33 66q0 39 -25 61t-85 22h-69v69h55q45 0 77 18.5t32 64.5q0 29 -27.5 51t-81.5 22q-23 0 -45.5 -5t-40.5 -16t-30 -29t-15 -44h-86q3 48 23 79.5t50 50t68 26.5t77 8q40 0 75 -8t61.5 -25.5
t42 -43.5t15.5 -62q0 -45 -25.5 -73t-57.5 -35v-2q18 -3 36 -12t32 -24.5t23 -38t9 -52.5q0 -42 -18 -73t-48 -51t-68.5 -30t-79.5 -10z" />
    <glyph glyph-name="afii10074" unicode="&#x438;" horiz-adv-x="566" 
d="M64 517h85v-422l244 422h109v-517h-85v422l-244 -422h-109v517z" />
    <glyph glyph-name="afii10075" unicode="&#x439;" horiz-adv-x="566" 
d="M64 517h85v-422l244 422h109v-517h-85v422l-244 -422h-109v517zM283 593q-30 0 -56 9t-45.5 26t-31 41.5t-11.5 56.5h71q2 -74 72 -74q35 0 53.5 19.5t18.5 54.5h71q0 -30 -11 -55t-30 -42t-45 -26.5t-56 -9.5z" />
    <glyph glyph-name="afii10076" unicode="&#x43a;" horiz-adv-x="526" 
d="M64 517h85v-247l237 247h113l-229 -224l256 -293h-109l-216 246l-52 -51v-195h-85v517z" />
    <glyph glyph-name="afii10077" unicode="&#x43b;" horiz-adv-x="563" 
d="M60 -6q-13 0 -27 2.5t-23 4.5v75q10 -3 18.5 -4t16.5 -1q33 0 50.5 26t26 80t10.5 138.5t4 201.5h363v-517h-85v442h-196q-3 -91 -6.5 -172.5t-17.5 -142.5t-45 -97t-89 -36z" />
    <glyph glyph-name="afii10078" unicode="&#x43c;" horiz-adv-x="688" 
d="M64 517h122l157 -419h2l157 419h122v-517h-85v410l-156 -410h-78l-156 410v-410h-85v517z" />
    <glyph glyph-name="afii10079" unicode="&#x43d;" horiz-adv-x="560" 
d="M64 517h85v-206h262v206h85v-517h-85v238h-262v-238h-85v517z" />
    <glyph glyph-name="afii10080" unicode="&#x43e;" horiz-adv-x="574" 
d="M287 -11q-62 0 -108.5 20.5t-78.5 57t-48 85.5t-16 106t16 106.5t48 86t78.5 57.5t108.5 21q61 0 108 -21t79 -57.5t48 -86t16 -106.5t-16 -106t-48 -85.5t-79 -57t-108 -20.5zM287 63q33 0 62.5 13t51.5 37.5t34.5 61t12.5 83.5t-12.5 83.5t-34.5 61.5t-51.5 38
t-62.5 13t-62.5 -13t-51.5 -38t-34.5 -61.5t-12.5 -83.5t12.5 -83.5t34.5 -61t51.5 -37.5t62.5 -13z" />
    <glyph glyph-name="afii10081" unicode="&#x43f;" horiz-adv-x="550" 
d="M64 517h422v-517h-85v442h-252v-442h-85v517z" />
    <glyph glyph-name="afii10082" unicode="&#x440;" horiz-adv-x="593" 
d="M67 517h85v-70h2q21 43 66 62.5t99 19.5q60 0 104.5 -22t74 -59.5t44.5 -86.5t15 -104q0 -56 -14.5 -104.5t-44 -85t-74 -57.5t-103.5 -21q-20 0 -43 4t-46 13t-43.5 24.5t-34.5 38.5h-2v-266h-85v714zM312 63q43 0 73 17t48 45t26 64t8 74q0 36 -9.5 70.5t-29 61.5
t-50 43t-71.5 16q-43 0 -73 -17t-49 -44.5t-27.5 -62.5t-8.5 -71q0 -38 9 -73.5t28.5 -62.5t50.5 -43.5t75 -16.5z" />
    <glyph glyph-name="afii10083" unicode="&#x441;" horiz-adv-x="537" 
d="M278 -11q-59 0 -104.5 19t-76 54t-46 83t-15.5 107q0 58 15 108.5t45.5 88t76 59t107.5 21.5q44 0 82.5 -10.5t68 -32.5t48.5 -55.5t24 -79.5h-88q-10 49 -42 76t-86 27q-46 0 -77 -17t-49.5 -45t-26.5 -64.5t-8 -75.5q0 -36 8.5 -70t26.5 -60.5t46.5 -42.5t69.5 -16
q63 0 98.5 33t43.5 93h87q-14 -97 -71 -148.5t-157 -51.5z" />
    <glyph glyph-name="afii10084" unicode="&#x442;" horiz-adv-x="463" 
d="M189 442h-185v75h455v-75h-185v-442h-85v442z" />
    <glyph glyph-name="afii10085" unicode="&#x443;" horiz-adv-x="500" 
d="M117 -206q-15 0 -30 2t-29 7v78q12 -4 24.5 -8t25.5 -4q26 0 42 12t28 35l35 87l-205 514h96l151 -423h2l145 423h90l-225 -585q-15 -38 -29.5 -64t-32 -42.5t-39 -24t-49.5 -7.5z" />
    <glyph glyph-name="afii10086" unicode="&#x444;" horiz-adv-x="800" 
d="M358 39q-9 -9 -22 -18t-27.5 -16t-30 -11.5t-30.5 -4.5q-58 0 -97.5 23t-64 61.5t-35.5 88.5t-11 104q0 124 54 193.5t147 69.5q16 0 33.5 -5t33 -13t29 -18t21.5 -20v241h84v-241q8 10 21 20t29 18t33 13t34 5q93 0 147 -69.5t54 -193.5q0 -54 -11 -104t-35.5 -88.5
t-64 -61.5t-97.5 -23q-29 0 -61.5 15.5t-48.5 34.5v-236h-84v236zM258 59q39 0 67 19.5t33 47.5v260q-6 21 -18 34.5t-26.5 22t-30.5 12t-30 3.5q-33 0 -56.5 -14.5t-39 -40t-22.5 -61.5t-7 -78q0 -36 6 -72.5t20.5 -66t39.5 -48t64 -18.5zM542 59q39 0 64 18.5t39.5 48
t20.5 66t6 72.5q0 42 -7 78t-22.5 61.5t-39 40t-56.5 14.5q-14 0 -30 -3.5t-30.5 -12t-26.5 -22t-18 -34.5v-260q5 -28 33 -47.5t67 -19.5z" />
    <glyph glyph-name="afii10087" unicode="&#x445;" horiz-adv-x="518" 
d="M203 272l-180 245h109l124 -181l129 181h102l-178 -238l200 -279h-109l-144 214l-144 -214h-103z" />
    <glyph glyph-name="afii10088" unicode="&#x446;" horiz-adv-x="564" 
d="M467 0h-403v517h85v-442h244v442h85v-442h70v-232h-81v157z" />
    <glyph glyph-name="afii10089" unicode="&#x447;" horiz-adv-x="523" 
d="M374 210q-23 -10 -64 -19t-86 -9q-96 0 -137 41.5t-41 116.5v177h85v-163q0 -51 23.5 -75.5t85.5 -24.5q38 0 75 8t59 18v237h85v-517h-85v210z" />
    <glyph glyph-name="afii10090" unicode="&#x448;" horiz-adv-x="769" 
d="M64 517h85v-442h193v442h85v-442h193v442h85v-517h-641v517z" />
    <glyph glyph-name="afii10091" unicode="&#x449;" horiz-adv-x="831" 
d="M734 0h-670v517h85v-442h213v442h85v-442h213v442h85v-442h70v-232h-81v157z" />
    <glyph glyph-name="afii10092" unicode="&#x44a;" horiz-adv-x="617" 
d="M152 442h-149v75h234v-198h184q76 0 122 -41.5t46 -116.5q0 -73 -44 -117t-120 -44h-273v442zM394 75q107 0 107 86q0 85 -107 85h-157v-171h157z" />
    <glyph glyph-name="afii10093" unicode="&#x44b;" horiz-adv-x="708" 
d="M64 517h85v-198h160q76 0 122 -41.5t46 -116.5q0 -73 -44 -117t-120 -44h-249v517zM282 75q107 0 107 86q0 85 -107 85h-133v-171h133zM559 517h85v-517h-85v517z" />
    <glyph glyph-name="afii10094" unicode="&#x44c;" horiz-adv-x="534" 
d="M69 517h85v-198h184q76 0 122 -41.5t46 -116.5q0 -73 -44 -117t-120 -44h-273v517zM311 75q107 0 107 86q0 85 -107 85h-157v-171h157z" />
    <glyph glyph-name="afii10095" unicode="&#x44d;" horiz-adv-x="537" 
d="M250 -11q-94 0 -152 48.5t-65 137.5h87q21 -115 132 -115q69 0 111.5 44.5t47.5 129.5h-216v69h215q-11 73 -49.5 114t-108.5 41q-99 0 -127 -94h-88q14 81 69.5 123t146.5 42q57 0 103 -17.5t78 -51.5t49.5 -82.5t17.5 -111.5t-16.5 -114.5t-49 -87.5t-79 -55.5
t-106.5 -19.5z" />
    <glyph glyph-name="afii10096" unicode="&#x44e;" horiz-adv-x="774" 
d="M497 -11q-55 0 -98 18.5t-74 51t-48.5 77t-20.5 97.5h-107v-233h-85v517h85v-211h110q6 48 24.5 89t48.5 70.5t71.5 46.5t93.5 17q58 0 102.5 -21t75.5 -57.5t47 -86t16 -106.5t-16 -106t-47 -85.5t-75.5 -57t-102.5 -20.5zM497 63q31 0 59 13t48 37.5t32 61t12 83.5
t-12 83.5t-32 61.5t-48 38t-59 13q-32 0 -59.5 -13t-47.5 -38t-32 -61.5t-12 -83.5q0 -94 42 -144.5t109 -50.5z" />
    <glyph glyph-name="afii10097" unicode="&#x44f;" horiz-adv-x="536" 
d="M173 202q-55 8 -90 50t-35 106q0 73 43.5 116t118.5 43h262v-517h-85v199h-113l-158 -199h-113zM387 272v170h-150q-54 0 -78 -23t-24 -62q0 -40 24 -62.5t78 -22.5h150z" />
    <glyph glyph-name="uni0450" unicode="&#x450;" horiz-adv-x="537" 
d="M284 -11q-62 0 -108.5 20t-77.5 56t-46.5 86t-15.5 109q0 58 18 107.5t50.5 85.5t77 56t97.5 20q69 0 114.5 -28.5t73 -72.5t38 -96t8.5 -99h-387q-1 -34 8 -64.5t29 -54t51 -37.5t73 -14q54 0 88.5 25t45.5 76h84q-17 -88 -75 -131.5t-146 -43.5zM423 308
q-2 30 -13.5 57t-31 46.5t-46 31t-58.5 11.5q-33 0 -59.5 -11.5t-45.5 -31.5t-30 -46.5t-13 -56.5h297zM259 731l86 -143h-64l-130 143h108z" />
    <glyph glyph-name="afii10071" unicode="&#x451;" horiz-adv-x="537" 
d="M284 -11q-62 0 -108.5 20t-77.5 56t-46.5 86t-15.5 109q0 58 18 107.5t50.5 85.5t77 56t97.5 20q69 0 114.5 -28.5t73 -72.5t38 -96t8.5 -99h-387q-1 -34 8 -64.5t29 -54t51 -37.5t73 -14q54 0 88.5 25t45.5 76h84q-17 -88 -75 -131.5t-146 -43.5zM423 308
q-2 30 -13.5 57t-31 46.5t-46 31t-58.5 11.5q-33 0 -59.5 -11.5t-45.5 -31.5t-30 -46.5t-13 -56.5h297zM219 696v-104h-89v104h89zM407 696v-104h-90v104h90z" />
    <glyph glyph-name="afii10099" unicode="&#x452;" horiz-adv-x="566" 
d="M291 -197q-12 0 -30 1t-32 3v76q11 -2 26.5 -2.5t25.5 -0.5q72 0 104 37t32 121v292q0 55 -29 84t-80 29q-30 0 -57 -10t-47.5 -29t-32.5 -48t-12 -66v-290h-85v566h-95v70h95v78h85v-78h206v-70h-206v-140h2q47 91 167 91q174 0 174 -189v-299q0 -112 -52.5 -169
t-158.5 -57z" />
    <glyph glyph-name="afii10100" unicode="&#x453;" horiz-adv-x="424" 
d="M66 517h354v-75h-269v-442h-85v517zM369 731l-131 -143h-64l86 143h109z" />
    <glyph glyph-name="afii10101" unicode="&#x454;" horiz-adv-x="537" 
d="M287 -11q-60 0 -106.5 19.5t-79 55.5t-49 87.5t-16.5 114.5t17.5 111.5t49.5 82.5t78 51.5t103 17.5q91 0 146.5 -42t69.5 -123h-88q-28 94 -127 94q-70 0 -108.5 -41t-49.5 -114h215v-69h-216q5 -85 47.5 -129.5t111.5 -44.5q111 0 132 115h87q-7 -89 -65 -137.5
t-152 -48.5z" />
    <glyph glyph-name="afii10102" unicode="&#x455;" horiz-adv-x="500" 
d="M250 -11q-44 0 -82.5 9t-68.5 29.5t-48 54t-20 81.5h85q1 -29 13 -48t31.5 -30.5t44 -16.5t50.5 -5q20 0 42 3t40.5 11t30.5 23.5t12 39.5q0 33 -25 50t-62.5 27.5t-81.5 19t-81.5 24t-62.5 43.5t-25 78q0 39 17.5 67t45 45.5t62 26t68.5 8.5q43 0 80.5 -7.5t66 -26
t45.5 -50t20 -78.5h-85q-2 25 -13 41.5t-28 26.5t-37.5 14.5t-41.5 4.5q-19 0 -38.5 -3t-35.5 -10.5t-26 -20.5t-10 -32q0 -23 15.5 -37t39.5 -23.5t54 -16t60 -13.5q32 -7 62.5 -17t54 -26.5t38 -41.5t14.5 -62q0 -47 -19.5 -78t-51 -50t-71 -26.5t-78.5 -7.5z" />
    <glyph glyph-name="afii10103" unicode="&#x456;" horiz-adv-x="222" 
d="M69 517h85v-517h-85v517zM69 714h85v-104h-85v104z" />
    <glyph glyph-name="afii10104" unicode="&#x457;" horiz-adv-x="242" 
d="M102 716v-104h-79v104h79zM220 716v-104h-80v104h80zM79 517h85v-517h-85v517z" />
    <glyph glyph-name="afii10105" unicode="&#x458;" horiz-adv-x="222" 
d="M30 -197q-11 0 -22 1t-21 3v73q5 -1 14 -1.5t20 -0.5q28 0 38 15.5t10 55.5v568h85v-582q0 -69 -33.5 -100.5t-90.5 -31.5zM69 714h85v-104h-85v104z" />
    <glyph glyph-name="afii10106" unicode="&#x459;" horiz-adv-x="879" 
d="M499 517v-198h184q76 0 122 -41.5t46 -116.5q0 -73 -44 -117t-120 -44h-273v442h-196q-3 -91 -6.5 -172.5t-17.5 -142.5t-45 -97t-89 -36q-13 0 -27 2.5t-23 4.5v75q10 -3 18.5 -4t16.5 -1q33 0 50.5 26t26 80t10.5 138.5t4 201.5h363zM656 75q107 0 107 86q0 85 -107 85
h-157v-171h157z" />
    <glyph glyph-name="afii10107" unicode="&#x45a;" horiz-adv-x="876" 
d="M64 517h85v-204h262v204h85v-204h184q76 0 122 -40t46 -115q0 -73 -44 -115.5t-120 -42.5h-273v240h-262v-240h-85v517zM653 75q107 0 107 83q0 43 -26.5 62.5t-80.5 19.5h-157v-165h157z" />
    <glyph glyph-name="afii10108" unicode="&#x45b;" horiz-adv-x="566" 
d="M74 566h-95v70h95v78h85v-78h206v-70h-206v-137h2q10 24 28 40.5t40.5 27t47 15.5t47.5 5q51 0 85 -14t55 -39t29.5 -59.5t8.5 -76.5v-328h-85v338q0 48 -28 76t-77 28q-39 0 -67.5 -12t-47.5 -34t-28.5 -51.5t-9.5 -64.5v-280h-85v566z" />
    <glyph glyph-name="afii10109" unicode="&#x45c;" horiz-adv-x="526" 
d="M410 731l-131 -143h-64l86 143h109zM64 517h85v-247l237 247h113l-229 -224l256 -293h-109l-216 246l-52 -51v-195h-85v517z" />
    <glyph glyph-name="uni045D" unicode="&#x45d;" horiz-adv-x="566" 
d="M64 517h85v-422l244 422h109v-517h-85v422l-244 -422h-109v517zM274 731l86 -143h-64l-130 143h108z" />
    <glyph glyph-name="afii10110" unicode="&#x45e;" horiz-adv-x="500" 
d="M117 -206q-15 0 -30 2t-29 7v78q12 -4 24.5 -8t25.5 -4q26 0 42 12t28 35l35 87l-205 514h96l151 -423h2l145 423h90l-225 -585q-15 -38 -29.5 -64t-32 -42.5t-39 -24t-49.5 -7.5zM253 593q-30 0 -56 9t-45.5 26t-31 41.5t-11.5 56.5h71q2 -74 72 -74q35 0 53.5 19.5
t18.5 54.5h71q0 -30 -11 -55t-30 -42t-45 -26.5t-56 -9.5z" />
    <glyph glyph-name="afii10193" unicode="&#x45f;" horiz-adv-x="550" 
d="M232 0h-168v517h85v-442h252v442h85v-517h-169v-157h-85v157z" />
    <glyph glyph-name="afii10146" unicode="&#x462;" horiz-adv-x="730" 
d="M160 541h-160v80h160v93h95v-93h238v-80h-238v-118h218q106 0 162.5 -54.5t56.5 -157.5q0 -102 -56.5 -156.5t-162.5 -54.5h-313v541zM441 80q156 0 156 131q0 133 -156 133h-186v-264h186z" />
    <glyph glyph-name="afii10194" unicode="&#x463;" horiz-adv-x="581" 
d="M116 442h-120v75h120v197h85v-197h185v-75h-185v-123h184q76 0 122 -41.5t46 -116.5q0 -73 -44 -117t-120 -44h-273v442zM358 75q107 0 107 86q0 85 -107 85h-157v-171h157z" />
    <glyph glyph-name="uni046A" unicode="&#x46a;" horiz-adv-x="935" 
d="M63 195q0 30 7 66.5t31.5 68.5t72 53.5t129.5 21.5h74l-202 309h584l-202 -309h75q82 0 129.5 -21.5t72 -53.5t31.5 -68.5t7 -66.5v-195h-95v189q0 22 -2.5 46.5t-16.5 44.5t-43 33.5t-83 13.5h-117v-327h-95v327h-117q-54 0 -83 -13.5t-43 -33.5t-16.5 -44.5t-2.5 -46.5
v-189h-95v195zM605 639h-271l133 -220z" />
    <glyph glyph-name="uni046B" unicode="&#x46b;" horiz-adv-x="729" 
d="M50 147q0 75 45 111.5t123 36.5h72l-158 222h464l-162 -222h77q78 0 123 -36.5t45 -111.5v-147h-85v136q0 51 -25.5 70.5t-73.5 19.5h-88v-226h-85v226h-88q-48 0 -73.5 -19.5t-25.5 -70.5v-136h-85v147zM456 453h-179l88 -139z" />
    <glyph glyph-name="afii10147" unicode="&#x472;" horiz-adv-x="760" 
d="M380 -16q-85 0 -149 30.5t-107 82.5t-64.5 119t-21.5 141q0 73 21.5 140.5t64.5 119.5t107 83t149 31t149 -31t107 -83t64.5 -119.5t21.5 -140.5q0 -74 -21.5 -141t-64.5 -119t-107 -82.5t-149 -30.5zM380 63q61 0 106 22.5t75 60t46 85t19 98.5q-27 -21 -59 -38t-66 -17
q-27 0 -60 13.5t-66 29t-64 29t-55 13.5q-20 0 -37 -6t-32 -15.5t-27.5 -20.5t-22.5 -21q7 -46 24.5 -88t47.5 -74.5t72.5 -51.5t98.5 -19zM502 352q18 0 35.5 6t32.5 15t28.5 20t24.5 21q-7 46 -24.5 89t-47 76t-72 52.5t-99.5 19.5q-62 0 -107 -23t-75 -61t-46 -87
t-19 -100q26 21 59.5 39t68.5 18q30 0 64.5 -13.5t67.5 -29t61.5 -29t47.5 -13.5z" />
    <glyph glyph-name="afii10195" unicode="&#x473;" horiz-adv-x="574" 
d="M287 -11q-62 0 -108.5 20.5t-78.5 57t-48 85.5t-16 106t16 106.5t48 86t78.5 57.5t108.5 21q61 0 108 -21t79 -57.5t48 -86t16 -106.5t-16 -106t-48 -85.5t-79 -57t-108 -20.5zM287 58q33 0 62.5 13.5t51.5 38.5t35 61t14 82q-20 -19 -41.5 -31.5t-45.5 -12.5
q-22 0 -43 9t-41 20t-39 20t-35 9q-22 0 -42.5 -12t-37.5 -28q4 -40 18.5 -71.5t36 -53t49 -33t58.5 -11.5zM364 270q21 0 42 13t38 30q-14 69 -57 107.5t-100 38.5q-30 0 -57.5 -11.5t-49 -33t-36 -52.5t-18.5 -70q17 15 37.5 26t46.5 11q18 0 39.5 -9t43 -20.5t40.5 -20.5
t31 -9z" />
    <glyph glyph-name="afii10148" unicode="&#x474;" horiz-adv-x="667" 
d="M0 714h102l204 -619h2l151 505q38 124 150 124q15 0 39.5 -3t38.5 -7v-80q-24 6 -61 6q-29 0 -49 -15t-33 -55l-185 -570h-108z" />
    <glyph glyph-name="afii10196" unicode="&#x475;" horiz-adv-x="530" 
d="M14 517h95l145 -431h2l102 334q15 48 43.5 77t79.5 29q19 0 34.5 -2t24.5 -4v-69q-10 3 -22.5 3.5t-20.5 0.5q-26 0 -40 -16.5t-23 -42.5l-132 -396h-100z" />
    <glyph glyph-name="uni048C" unicode="&#x48c;" horiz-adv-x="730" 
d="M160 634h-150v80h150v105h95v-105h162v-80h-162v-211h218q106 0 162.5 -54.5t56.5 -157.5q0 -102 -56.5 -156.5t-162.5 -54.5h-313v634zM441 80q156 0 156 131q0 133 -156 133h-186v-264h186z" />
    <glyph glyph-name="uni048D" unicode="&#x48d;" horiz-adv-x="565" 
d="M100 442h-100v75h100v108h85v-108h111v-75h-111v-123h184q76 0 122 -41.5t46 -116.5q0 -73 -44 -117t-120 -44h-273v442zM342 75q107 0 107 86q0 85 -107 85h-157v-171h157z" />
    <glyph glyph-name="afii10050" unicode="&#x490;" horiz-adv-x="550" 
d="M84 714h369v159h95v-239h-369v-634h-95v714z" />
    <glyph glyph-name="afii10098" unicode="&#x491;" horiz-adv-x="424" 
d="M66 517h269v155h85v-230h-269v-442h-85v517z" />
    <glyph glyph-name="uni0492" unicode="&#x492;" horiz-adv-x="611" 
d="M145 327h-123v80h123v307h464v-80h-369v-227h200v-80h-200v-327h-95v327z" />
    <glyph glyph-name="uni0493" unicode="&#x493;" horiz-adv-x="471" 
d="M113 222h-93v75h93v220h354v-75h-269v-145h166v-75h-166v-222h-85v222z" />
    <glyph glyph-name="uni0496" unicode="&#x496;" horiz-adv-x="1026" 
d="M940 0h-44l-260 354l-84 -88v-266h-93v266l-84 88l-260 -354h-118l316 420l-284 294h118l312 -333v333h93v-333l312 333h118l-284 -294l256 -340h77v-257h-91v177z" />
    <glyph glyph-name="uni0497" unicode="&#x497;" horiz-adv-x="797" 
d="M716 0h-38l-177 250l-67 -65v-185h-85v185l-67 65l-177 -250h-105l226 304l-197 213h105l215 -240v240h85v-240l215 240h105l-197 -213l170 -229h70v-232h-81v157z" />
    <glyph glyph-name="uni0498" unicode="&#x498;" horiz-adv-x="654" 
d="M307 -209q-24 0 -46.5 5.5t-45.5 13.5l18 44q12 -5 28.5 -9t32.5 -4q10 0 21 1.5t20 5.5t15 9.5t6 14.5q0 14 -13.5 22.5t-33.5 8.5q-12 0 -21 -2t-20 -6l-17 28l49 62q-58 4 -106.5 21t-83 47.5t-54 76t-19.5 105.5h91q1 -48 18.5 -81.5t46 -54t66.5 -29.5t81 -9
q37 0 69 10.5t55.5 30t37 47t13.5 61.5q0 39 -15 63.5t-39.5 38t-57 18.5t-68.5 5q-15 0 -34 -0.5t-30 -1.5v78q12 -2 32 -2h32q34 0 62.5 6.5t49 21.5t32 39.5t11.5 60.5q0 33 -12.5 55t-34 35.5t-49 19.5t-57.5 6q-79 0 -124 -34.5t-53 -112.5h-91q2 57 23.5 99.5t57.5 70
t84.5 41.5t105.5 14q51 0 95.5 -11.5t77.5 -35.5t52 -60.5t19 -86.5q0 -29 -10 -54t-26.5 -45t-38 -34.5t-43.5 -21.5v-3q35 -7 62 -23.5t45 -39.5t27 -51t9 -57q0 -33 -14.5 -71t-47 -71.5t-83.5 -56.5t-123 -24l-29 -37l2 -2q10 7 33 7q32 0 58 -18t26 -55
q0 -25 -11.5 -42t-29.5 -27.5t-40 -15t-43 -4.5z" />
    <glyph glyph-name="uni0499" unicode="&#x499;" horiz-adv-x="506" 
d="M227 -209q-24 0 -46.5 5.5t-45.5 13.5l18 44q12 -5 28.5 -9t32.5 -4q10 0 21 1.5t20 5.5t15 9.5t6 14.5q0 14 -13.5 22.5t-33.5 8.5q-12 0 -21 -2t-20 -6l-17 28l53 67q-89 7 -139 52t-55 124h86q4 -57 42 -82t95 -25q61 0 94 26t33 66q0 39 -25 61t-85 22h-69v69h55
q45 0 77 18.5t32 64.5q0 29 -27.5 51t-81.5 22q-23 0 -45.5 -5t-40.5 -16t-30 -29t-15 -44h-86q3 48 23 79.5t50 50t68 26.5t77 8q40 0 75 -8t61.5 -25.5t42 -43.5t15.5 -62q0 -45 -25.5 -73t-57.5 -35v-2q18 -3 36 -12t32 -24.5t23 -38t9 -52.5q0 -41 -17 -71t-45 -50
t-65 -31t-76 -12l-33 -41l2 -2q10 7 33 7q32 0 58 -18t26 -55q0 -25 -11.5 -42t-29.5 -27.5t-40 -15t-43 -4.5z" />
    <glyph glyph-name="uni049A" unicode="&#x49a;" horiz-adv-x="684" 
d="M598 0h-48l-258 361l-119 -111v-250h-95v714h95v-356l362 356h123l-301 -288l255 -346h77v-257h-91v177z" />
    <glyph glyph-name="uni049B" unicode="&#x49b;" horiz-adv-x="540" 
d="M459 0h-42l-187 254l-81 -79v-175h-85v517h85v-247l237 247h113l-208 -204l179 -238h70v-232h-81v157z" />
    <glyph glyph-name="uni049C" unicode="&#x49c;" horiz-adv-x="670" 
d="M78 714h95v-307h60v151h60v-151h23l248 307h109l-275 -340l282 -374h-120l-244 327h-23v-154h-60v154h-60v-327h-95v714z" />
    <glyph glyph-name="uni049D" unicode="&#x49d;" horiz-adv-x="551" 
d="M64 517h85v-206h45v104h55v-104h17l175 206h103l-204 -235l211 -282h-109l-176 238h-17v-118h-55v118h-45v-238h-85v517z" />
    <glyph glyph-name="uni04A0" unicode="&#x4a0;" horiz-adv-x="792" 
d="M203 634h-201v80h296v-356l362 356h123l-301 -288l313 -426h-120l-258 361l-119 -111v-250h-95v634z" />
    <glyph glyph-name="uni04A1" unicode="&#x4a1;" horiz-adv-x="614" 
d="M152 442h-149v75h234v-247l237 247h113l-208 -204l235 -313h-109l-187 254l-81 -79v-175h-85v442z" />
    <glyph glyph-name="uni04A2" unicode="&#x4a2;" horiz-adv-x="739" 
d="M630 0h-81v327h-376v-327h-95v714h95v-307h376v307h95v-634h77v-257h-91v177z" />
    <glyph glyph-name="uni04A3" unicode="&#x4a3;" horiz-adv-x="582" 
d="M485 0h-74v238h-262v-238h-85v517h85v-206h262v206h85v-442h70v-232h-81v157z" />
    <glyph glyph-name="uni04A4" unicode="&#x4a4;" horiz-adv-x="1015" 
d="M78 714h95v-307h376v307h464v-80h-369v-634h-95v327h-376v-327h-95v714z" />
    <glyph glyph-name="uni04A5" unicode="&#x4a5;" horiz-adv-x="769" 
d="M64 517h85v-206h262v206h354v-75h-269v-442h-85v238h-262v-238h-85v517z" />
    <glyph glyph-name="uni04AA" unicode="&#x4aa;" horiz-adv-x="722" 
d="M367 -209q-24 0 -46.5 5.5t-45.5 13.5l18 44q12 -5 28.5 -9t32.5 -4q10 0 21 1.5t20 5.5t15 9.5t6 14.5q0 14 -13.5 22.5t-33.5 8.5q-12 0 -21 -2t-20 -6l-17 28l48 62q-80 2 -139 31.5t-98.5 79t-59 116t-19.5 143.5q0 78 22 146.5t64.5 119.5t105.5 80.5t146 29.5
q56 0 106 -15t89 -44t65 -72.5t34 -100.5h-95q-16 76 -70.5 114t-129.5 38q-64 0 -109.5 -24t-75 -64.5t-43.5 -92.5t-14 -108q0 -61 14 -115.5t43.5 -95t75.5 -64.5t110 -24q46 0 83 15.5t63.5 43t41.5 65.5t18 82h95q-14 -129 -84.5 -202.5t-195.5 -81.5l-30 -37l2 -2
q10 7 33 7q32 0 58 -18t26 -55q0 -25 -11.5 -42t-29.5 -27.5t-40 -15t-43 -4.5z" />
    <glyph glyph-name="uni04AB" unicode="&#x4ab;" horiz-adv-x="537" 
d="M257 -209q-24 0 -46.5 5.5t-45.5 13.5l18 44q12 -5 28.5 -9t32.5 -4q10 0 21 1.5t20 5.5t15 9.5t6 14.5q0 14 -13.5 22.5t-33.5 8.5q-12 0 -21 -2t-20 -6l-17 28l53 67q-54 4 -94.5 24.5t-68 55t-41.5 80.5t-14 102q0 58 15 108.5t45.5 88t76 59t107.5 21.5
q44 0 82.5 -10.5t68 -32.5t48.5 -55.5t24 -79.5h-88q-10 49 -42 76t-86 27q-46 0 -77 -17t-49.5 -45t-26.5 -64.5t-8 -75.5q0 -36 8.5 -70t26.5 -60.5t46.5 -42.5t69.5 -16q63 0 98.5 33t43.5 93h87q-14 -93 -66.5 -143.5t-144.5 -55.5l-33 -42l2 -2q10 7 33 7q32 0 58 -18
t26 -55q0 -25 -11.5 -42t-29.5 -27.5t-40 -15t-43 -4.5z" />
    <glyph glyph-name="uni04AE" unicode="&#x4ae;" horiz-adv-x="648" 
d="M278 292l-276 422h113l214 -340l209 340h108l-273 -422v-292h-95v292z" />
    <glyph glyph-name="uni04AF" unicode="&#x4af;" horiz-adv-x="500" 
d="M211 24l-203 493h96l151 -403h2l145 403h90l-196 -492v-222h-85v221z" />
    <glyph glyph-name="uni04B0" unicode="&#x4b0;" horiz-adv-x="648" 
d="M278 159h-158v80h158v53l-276 422h113l214 -340l209 340h108l-273 -422v-53h158v-80h-158v-159h-95v159z" />
    <glyph glyph-name="uni04B1" unicode="&#x4b1;" horiz-adv-x="500" 
d="M211 -95h-135v75h135v44l-203 493h96l151 -403h2l145 403h90l-196 -492v-45h135v-75h-135v-102h-85v102z" />
    <glyph glyph-name="uni04B2" unicode="&#x4b2;" horiz-adv-x="629" 
d="M543 0h-47l-192 295l-198 -295h-106l248 367l-235 347h114l178 -279l186 279h106l-236 -347l196 -287h77v-257h-91v177z" />
    <glyph glyph-name="uni04B3" unicode="&#x4b3;" horiz-adv-x="526" 
d="M445 0h-45l-144 214l-144 -214h-103l194 272l-180 245h109l124 -181l129 181h102l-178 -238l147 -204h70v-232h-81v157z" />
    <glyph glyph-name="uni04B6" unicode="&#x4b6;" horiz-adv-x="675" 
d="M566 0h-81v309q-13 -3 -36 -7.5t-50.5 -9t-57 -7.5t-54.5 -3q-82 0 -129.5 21.5t-72 53.5t-31.5 70.5t-7 71.5v215h94v-207q0 -24 2.5 -49.5t16.5 -46.5t43.5 -34.5t83.5 -13.5q67 0 119 9.5t79 16.5v325h95v-634h77v-257h-91v177z" />
    <glyph glyph-name="uni04B7" unicode="&#x4b7;" horiz-adv-x="545" 
d="M448 0h-74v217q-7 -3 -24.5 -7t-40 -8t-47.5 -7t-48 -3q-78 0 -123 36.5t-45 111.5v177h85v-163q0 -51 25.5 -70.5t73.5 -19.5q19 0 41 2.5t42.5 6.5t36.5 8l24 6v230h85v-442h70v-232h-81v157z" />
    <glyph glyph-name="uni04B8" unicode="&#x4b8;" horiz-adv-x="658" 
d="M485 309q-20 -5 -60.5 -12.5t-83.5 -11.5v-157h-60v154q-80 1 -126.5 22.5t-70.5 53.5t-30.5 70t-6.5 71v215h94v-207q0 -24 2.5 -49t16 -46t42 -34.5t79.5 -14.5v150h60v-148q48 4 85 11.5t59 12.5v325h95v-714h-95v309z" />
    <glyph glyph-name="uni04B9" unicode="&#x4b9;" horiz-adv-x="523" 
d="M374 217q-10 -4 -36.5 -9.5t-58.5 -10.5v-111h-55v106h-10q-78 0 -123 36.5t-45 111.5v177h85v-163q0 -49 24 -69t69 -21v117h55v-113q30 4 57 10t38 9v230h85v-517h-85v217z" />
    <glyph glyph-name="uni04BA" unicode="&#x4ba;" horiz-adv-x="665" 
d="M78 714h95v-299q13 3 36 7.5t50.5 9t56.5 7.5t55 3q82 0 129.5 -21.5t72 -53.5t31.5 -70.5t7 -71.5v-225h-94v217q0 24 -2.5 49.5t-16.5 46.5t-43.5 34.5t-83.5 13.5q-67 0 -119 -9.5t-79 -16.5v-335h-95v714z" />
    <glyph glyph-name="uni04BB" unicode="&#x4bb;" 
d="M64 714h85v-273h2q10 24 28 40.5t40.5 27t47 15.5t47.5 5q51 0 85 -14t55 -39t29.5 -59.5t8.5 -76.5v-340h-85v350q0 48 -28 76t-77 28q-39 0 -67.5 -12t-47.5 -34t-28.5 -51.5t-9.5 -64.5v-292h-85v714z" />
    <glyph glyph-name="uni04C0" unicode="&#x4c0;" horiz-adv-x="259" 
d="M82 714h95v-714h-95v714z" />
    <glyph glyph-name="uni04C1" unicode="&#x4c1;" horiz-adv-x="1011" 
d="M313 420l-284 294h118l312 -333v333h93v-333l312 333h118l-284 -294l316 -420h-118l-260 354l-84 -88v-266h-93v266l-84 88l-260 -354h-118zM506 761q-63 0 -103.5 39t-48.5 99h51q22 -71 100 -71q76 0 100 71h51q-10 -60 -47 -99t-103 -39z" />
    <glyph glyph-name="uni04C2" unicode="&#x4c2;" horiz-adv-x="783" 
d="M226 304l-197 213h105l215 -240v240h85v-240l215 240h105l-197 -213l226 -304h-105l-177 250l-67 -65v-185h-85v185l-67 65l-177 -250h-105zM392 593q-59 0 -97.5 36.5t-46.5 96.5h51q11 -36 34.5 -52.5t57.5 -16.5q35 0 57.5 16.5t34.5 52.5h51q-10 -60 -46 -96.5
t-96 -36.5z" />
    <glyph glyph-name="uni04D0" unicode="&#x4d0;" horiz-adv-x="648" 
d="M272 714h105l279 -714h-105l-78 215h-302l-80 -215h-97zM443 295l-119 333h-2l-121 -333h242zM322 761q-63 0 -103.5 39t-48.5 99h51q22 -71 100 -71q76 0 100 71h51q-10 -60 -47 -99t-103 -39z" />
    <glyph glyph-name="uni04D1" unicode="&#x4d1;" horiz-adv-x="537" 
d="M207 -11q-35 0 -66 7.5t-54.5 25t-37 45t-13.5 66.5q0 44 15 72t39.5 45.5t56 26.5t64.5 15q35 7 66.5 10.5t55.5 10t38 19t14 36.5q0 28 -10.5 45t-27 26t-37 12t-40.5 3q-54 0 -90 -20.5t-39 -77.5h-85q2 48 20 81t48 53.5t68.5 29.5t82.5 9q35 0 69.5 -5t62.5 -20.5
t45 -43.5t17 -73v-266q0 -30 3.5 -44t23.5 -14q9 0 26 5v-66q-22 -13 -61 -13q-33 0 -52.5 18.5t-19.5 60.5q-35 -42 -81.5 -60.5t-100.5 -18.5zM226 63q42 0 72 11.5t49 29t28 38t9 38.5v87q-16 -13 -42 -18t-54.5 -9t-57.5 -8t-52 -14t-37.5 -28.5t-14.5 -50.5
q0 -21 8.5 -35.5t22 -23.5t31.5 -13t38 -4zM282 593q-59 0 -97.5 36.5t-46.5 96.5h51q11 -36 34.5 -52.5t57.5 -16.5q35 0 57.5 16.5t34.5 52.5h51q-10 -60 -46 -96.5t-96 -36.5z" />
    <glyph glyph-name="uni04D2" unicode="&#x4d2;" horiz-adv-x="648" 
d="M272 714h105l279 -714h-105l-78 215h-302l-80 -215h-97zM443 295l-119 333h-2l-121 -333h242zM274 873v-104h-89v104h89zM462 873v-104h-90v104h90z" />
    <glyph glyph-name="uni04D3" unicode="&#x4d3;" horiz-adv-x="537" 
d="M207 -11q-35 0 -66 7.5t-54.5 25t-37 45t-13.5 66.5q0 44 15 72t39.5 45.5t56 26.5t64.5 15q35 7 66.5 10.5t55.5 10t38 19t14 36.5q0 28 -10.5 45t-27 26t-37 12t-40.5 3q-54 0 -90 -20.5t-39 -77.5h-85q2 48 20 81t48 53.5t68.5 29.5t82.5 9q35 0 69.5 -5t62.5 -20.5
t45 -43.5t17 -73v-266q0 -30 3.5 -44t23.5 -14q9 0 26 5v-66q-22 -13 -61 -13q-33 0 -52.5 18.5t-19.5 60.5q-35 -42 -81.5 -60.5t-100.5 -18.5zM226 63q42 0 72 11.5t49 29t28 38t9 38.5v87q-16 -13 -42 -18t-54.5 -9t-57.5 -8t-52 -14t-37.5 -28.5t-14.5 -50.5
q0 -21 8.5 -35.5t22 -23.5t31.5 -13t38 -4zM219 696v-104h-89v104h89zM407 696v-104h-90v104h90z" />
    <glyph glyph-name="uni04D4" unicode="&#x4d4;" horiz-adv-x="926" 
d="M354 714h535v-80h-351v-227h330v-80h-330v-247h357v-80h-447v208h-246l-102 -208h-106zM448 288v346h-41l-168 -346h209z" />
    <glyph glyph-name="uni04D5" unicode="&#x4d5;" horiz-adv-x="870" 
d="M211 -11q-37 0 -69 7.5t-55.5 25t-37 45t-13.5 66.5q0 44 15 72t39.5 45.5t56 26.5t64.5 15q47 9 80.5 14t54.5 12.5t31 20t10 35.5q0 26 -10.5 42t-27 24.5t-37.5 11t-42 2.5q-54 0 -90 -20.5t-39 -77.5h-85q2 48 20 81t48 53.5t68.5 29.5t82.5 9q23 0 48.5 -2.5
t49 -10.5t43.5 -23t32 -39q26 40 72 57.5t93 17.5q67 0 112 -23.5t72 -64t38 -94.5t11 -114h-379q0 -35 9.5 -65.5t28.5 -54t48.5 -37t68.5 -13.5q48 0 83.5 24.5t47.5 75.5h87q-19 -85 -77.5 -129.5t-146.5 -44.5q-30 0 -58 5t-52.5 16.5t-44 30.5t-32.5 48
q-29 -53 -87.5 -76.5t-130.5 -23.5zM226 63q42 0 72.5 11.5t50 29t29 38t9.5 38.5v87q-13 -8 -31.5 -13t-39.5 -8.5t-43.5 -6.5t-42.5 -7q-21 -4 -40 -10t-33 -16.5t-22.5 -26.5t-8.5 -40q0 -21 8.5 -35.5t22 -23.5t31.5 -13t38 -4zM756 308q-1 30 -10.5 57t-27.5 46.5
t-44.5 31t-60.5 11.5t-61 -11t-46 -30.5t-29 -46.5t-10 -58h289z" />
    <glyph glyph-name="uni04D6" unicode="&#x4d6;" horiz-adv-x="611" 
d="M78 714h493v-80h-398v-227h371v-80h-371v-247h401v-80h-496v714zM332 761q-63 0 -103.5 39t-48.5 99h51q22 -71 100 -71q76 0 100 71h51q-10 -60 -47 -99t-103 -39z" />
    <glyph glyph-name="uni04D7" unicode="&#x4d7;" horiz-adv-x="537" 
d="M284 -11q-62 0 -108.5 20t-77.5 56t-46.5 86t-15.5 109q0 58 18 107.5t50.5 85.5t77 56t97.5 20q69 0 114.5 -28.5t73 -72.5t38 -96t8.5 -99h-387q-1 -34 8 -64.5t29 -54t51 -37.5t73 -14q54 0 88.5 25t45.5 76h84q-17 -88 -75 -131.5t-146 -43.5zM423 308
q-2 30 -13.5 57t-31 46.5t-46 31t-58.5 11.5q-33 0 -59.5 -11.5t-45.5 -31.5t-30 -46.5t-13 -56.5h297zM282 593q-59 0 -97.5 36.5t-46.5 96.5h51q11 -36 34.5 -52.5t57.5 -16.5q35 0 57.5 16.5t34.5 52.5h51q-10 -60 -46 -96.5t-96 -36.5z" />
    <glyph glyph-name="uni04D8" unicode="&#x4d8;" horiz-adv-x="743" 
d="M370 -16q-88 0 -151 30.5t-103 82.5t-59 119t-19 141v19.5t2 19.5h568q-6 51 -24.5 98t-49 82t-73.5 56t-98 21q-39 0 -74 -10.5t-63.5 -30t-49.5 -46t-32 -58.5h-94q10 54 40.5 95.5t73 70t94 43t103.5 14.5q84 0 148.5 -30t108 -81t65.5 -119.5t22 -144.5
q0 -88 -26 -157t-71 -117t-106 -73t-132 -25zM366 61q55 0 99 19.5t76 53.5t50 81t21 102h-478q3 -45 16.5 -90.5t41.5 -82.5t70.5 -60t103.5 -23z" />
    <glyph glyph-name="afii10846" unicode="&#x4d9;" horiz-adv-x="547" 
d="M268 -11q-69 0 -114.5 28.5t-73 72.5t-38 96t-8.5 99h387q1 34 -8 64.5t-29 54t-51 37.5t-73 14q-54 0 -88.5 -25t-45.5 -76h-84q17 88 75 131.5t146 43.5q62 0 108.5 -20t77.5 -56t46.5 -86t15.5 -109t-18 -108t-50.5 -85t-77 -56t-97.5 -20zM273 64q33 0 59.5 11.5
t45.5 31.5t30 46.5t13 56.5h-297q2 -30 13.5 -57t31 -46.5t46 -31t58.5 -11.5z" />
    <glyph glyph-name="uni04DC" unicode="&#x4dc;" horiz-adv-x="1011" 
d="M313 420l-284 294h118l312 -333v333h93v-333l312 333h118l-284 -294l316 -420h-118l-260 354l-84 -88v-266h-93v266l-84 88l-260 -354h-118zM456 873v-104h-89v104h89zM644 873v-104h-90v104h90z" />
    <glyph glyph-name="uni04DD" unicode="&#x4dd;" horiz-adv-x="783" 
d="M226 304l-197 213h105l215 -240v240h85v-240l215 240h105l-197 -213l226 -304h-105l-177 250l-67 -65v-185h-85v185l-67 65l-177 -250h-105zM342 696v-104h-89v104h89zM530 696v-104h-90v104h90z" />
    <glyph glyph-name="uni04DE" unicode="&#x4de;" horiz-adv-x="654" 
d="M332 -16q-64 0 -118 15t-93.5 46t-61.5 78t-22 112h91q1 -48 18.5 -81.5t46 -54t66.5 -29.5t81 -9q37 0 69 10.5t55.5 30t37 47t13.5 61.5q0 39 -15 63.5t-39.5 38t-57 18.5t-68.5 5q-15 0 -34 -0.5t-30 -1.5v78q12 -2 32 -2h32q34 0 62.5 6.5t49 21.5t32 39.5t11.5 60.5
q0 33 -12.5 55t-34 35.5t-49 19.5t-57.5 6q-79 0 -124 -34.5t-53 -112.5h-91q2 57 23.5 99.5t57.5 70t84.5 41.5t105.5 14q51 0 95.5 -11.5t77.5 -35.5t52 -60.5t19 -86.5q0 -29 -10 -54t-26.5 -45t-38 -34.5t-43.5 -21.5v-3q35 -7 62 -23.5t45 -39.5t27 -51t9 -57
q0 -33 -15 -72t-48.5 -73t-86 -56.5t-127.5 -22.5zM277 873v-104h-89v104h89zM465 873v-104h-90v104h90z" />
    <glyph glyph-name="uni04DF" unicode="&#x4df;" horiz-adv-x="506" 
d="M254 -11q-103 0 -161 46t-63 131h86q4 -57 42 -82t95 -25q61 0 94 26t33 66q0 39 -25 61t-85 22h-69v69h55q45 0 77 18.5t32 64.5q0 29 -27.5 51t-81.5 22q-23 0 -45.5 -5t-40.5 -16t-30 -29t-15 -44h-86q3 48 23 79.5t50 50t68 26.5t77 8q40 0 75 -8t61.5 -25.5
t42 -43.5t15.5 -62q0 -45 -25.5 -73t-57.5 -35v-2q18 -3 36 -12t32 -24.5t23 -38t9 -52.5q0 -42 -18 -73t-48 -51t-68.5 -30t-79.5 -10zM203 696v-104h-89v104h89zM391 696v-104h-90v104h90z" />
    <glyph glyph-name="uni04E2" unicode="&#x4e2;" horiz-adv-x="730" 
d="M78 714h95v-605l359 605h120v-714h-95v607l-360 -607h-119v714zM535 852v-55h-340v55h340z" />
    <glyph glyph-name="uni04E3" unicode="&#x4e3;" horiz-adv-x="566" 
d="M64 517h85v-422l244 422h109v-517h-85v422l-244 -422h-109v517zM453 675v-55h-340v55h340z" />
    <glyph glyph-name="uni04E4" unicode="&#x4e4;" horiz-adv-x="730" 
d="M78 714h95v-605l359 605h120v-714h-95v607l-360 -607h-119v714zM315 873v-104h-89v104h89zM503 873v-104h-90v104h90z" />
    <glyph glyph-name="uni04E5" unicode="&#x4e5;" horiz-adv-x="566" 
d="M64 517h85v-422l244 422h109v-517h-85v422l-244 -422h-109v517zM233 696v-104h-89v104h89zM421 696v-104h-90v104h90z" />
    <glyph glyph-name="uni04E6" unicode="&#x4e6;" horiz-adv-x="760" 
d="M380 -16q-85 0 -149 30.5t-107 82.5t-64.5 119t-21.5 141q0 73 21.5 140.5t64.5 119.5t107 83t149 31t149 -31t107 -83t64.5 -119.5t21.5 -140.5q0 -74 -21.5 -141t-64.5 -119t-107 -82.5t-149 -30.5zM380 63q65 0 112 25.5t77 67.5t44 94.5t14 106.5t-14 106.5t-44 94.5
t-77 67.5t-112 25.5t-112 -25.5t-77 -67.5t-44 -94.5t-14 -106.5t14 -106.5t44 -94.5t77 -67.5t112 -25.5zM330 873v-104h-89v104h89zM518 873v-104h-90v104h90z" />
    <glyph glyph-name="uni04E7" unicode="&#x4e7;" horiz-adv-x="574" 
d="M287 -11q-62 0 -108.5 20.5t-78.5 57t-48 85.5t-16 106t16 106.5t48 86t78.5 57.5t108.5 21q61 0 108 -21t79 -57.5t48 -86t16 -106.5t-16 -106t-48 -85.5t-79 -57t-108 -20.5zM287 63q33 0 62.5 13t51.5 37.5t34.5 61t12.5 83.5t-12.5 83.5t-34.5 61.5t-51.5 38
t-62.5 13t-62.5 -13t-51.5 -38t-34.5 -61.5t-12.5 -83.5t12.5 -83.5t34.5 -61t51.5 -37.5t62.5 -13zM237 696v-104h-89v104h89zM425 696v-104h-90v104h90z" />
    <glyph glyph-name="uni04E8" unicode="&#x4e8;" horiz-adv-x="760" 
d="M380 -16q-85 0 -149 30.5t-107 82.5t-64.5 119t-21.5 141q0 73 21.5 140.5t64.5 119.5t107 83t149 31t149 -31t107 -83t64.5 -119.5t21.5 -140.5q0 -74 -21.5 -141t-64.5 -119t-107 -82.5t-149 -30.5zM380 63q61 0 105.5 22.5t74.5 59.5t46 84.5t20 97.5h-492
q3 -50 19.5 -97.5t46.5 -84.5t74.5 -59.5t105.5 -22.5zM624 407q-6 47 -23 91t-47 78t-73 54.5t-101 20.5t-101 -20.5t-73 -54.5t-47 -78t-23 -91h488z" />
    <glyph glyph-name="uni04E9" unicode="&#x4e9;" horiz-adv-x="574" 
d="M287 -11q-62 0 -108.5 20.5t-78.5 57t-48 85.5t-16 106t16 106.5t48 86t78.5 57.5t108.5 21q61 0 108 -21t79 -57.5t48 -86t16 -106.5t-16 -106t-48 -85.5t-79 -57t-108 -20.5zM287 63q63 0 108 44t52 126h-320q7 -82 52 -126t108 -44zM444 306q-12 72 -55.5 110
t-101.5 38t-101.5 -38t-55.5 -110h314z" />
    <glyph glyph-name="uni04EE" unicode="&#x4ee;" horiz-adv-x="611" 
d="M149 -11q-24 0 -47.5 3.5t-40.5 8.5v78q13 -4 32.5 -7t37.5 -3q23 0 40.5 8.5t31.5 22.5t24.5 32t19.5 37l12 25l-258 520h103l206 -428l201 428h101l-274 -561q-45 -92 -91 -128t-98 -36zM475 852v-55h-340v55h340z" />
    <glyph glyph-name="uni04EF" unicode="&#x4ef;" horiz-adv-x="500" 
d="M117 -206q-15 0 -30 2t-29 7v78q12 -4 24.5 -8t25.5 -4q26 0 42 12t28 35l35 87l-205 514h96l151 -423h2l145 423h90l-225 -585q-15 -38 -29.5 -64t-32 -42.5t-39 -24t-49.5 -7.5zM420 675v-55h-340v55h340z" />
    <glyph glyph-name="uni04F0" unicode="&#x4f0;" horiz-adv-x="611" 
d="M149 -11q-24 0 -47.5 3.5t-40.5 8.5v78q13 -4 32.5 -7t37.5 -3q23 0 40.5 8.5t31.5 22.5t24.5 32t19.5 37l12 25l-258 520h103l206 -428l201 428h101l-274 -561q-45 -92 -91 -128t-98 -36zM256 873v-104h-89v104h89zM444 873v-104h-90v104h90z" />
    <glyph glyph-name="uni04F1" unicode="&#x4f1;" horiz-adv-x="500" 
d="M117 -206q-15 0 -30 2t-29 7v78q12 -4 24.5 -8t25.5 -4q26 0 42 12t28 35l35 87l-205 514h96l151 -423h2l145 423h90l-225 -585q-15 -38 -29.5 -64t-32 -42.5t-39 -24t-49.5 -7.5zM200 696v-104h-89v104h89zM388 696v-104h-90v104h90z" />
    <glyph glyph-name="uni04F2" unicode="&#x4f2;" horiz-adv-x="611" 
d="M149 -11q-24 0 -47.5 3.5t-40.5 8.5v78q13 -4 32.5 -7t37.5 -3q23 0 40.5 8.5t31.5 22.5t24.5 32t19.5 37l12 25l-258 520h103l206 -428l201 428h101l-274 -561q-45 -92 -91 -128t-98 -36zM524 908l-120 -143h-66l81 143h105zM368 908l-120 -143h-65l80 143h105z" />
    <glyph glyph-name="uni04F3" unicode="&#x4f3;" horiz-adv-x="500" 
d="M117 -206q-15 0 -30 2t-29 7v78q12 -4 24.5 -8t25.5 -4q26 0 42 12t28 35l35 87l-205 514h96l151 -423h2l145 423h90l-225 -585q-15 -38 -29.5 -64t-32 -42.5t-39 -24t-49.5 -7.5zM467 731l-120 -143h-66l81 143h105zM311 731l-120 -143h-65l80 143h105z" />
    <glyph glyph-name="uni04F4" unicode="&#x4f4;" horiz-adv-x="658" 
d="M485 306q-13 -3 -36 -8t-50.5 -9.5t-57 -8t-54.5 -3.5q-82 0 -129.5 21.5t-72 53.5t-31.5 70.5t-7 71.5v220h94v-212q0 -24 2.5 -49.5t16.5 -46.5t43.5 -34.5t83.5 -13.5q67 0 119 10t79 18v328h95v-714h-95v306zM279 873v-104h-89v104h89zM467 873v-104h-90v104h90z" />
    <glyph glyph-name="uni04F5" unicode="&#x4f5;" horiz-adv-x="523" 
d="M374 217q-7 -3 -24.5 -7t-40 -8t-47.5 -7t-48 -3q-78 0 -123 36.5t-45 111.5v177h85v-163q0 -51 25.5 -70.5t73.5 -19.5q19 0 41 2.5t42.5 6.5t36.5 8l24 6v230h85v-517h-85v217zM212 696v-104h-89v104h89zM400 696v-104h-90v104h90z" />
    <glyph glyph-name="uni04F8" unicode="&#x4f8;" horiz-adv-x="877" 
d="M78 714h95v-291h213q106 0 162.5 -54.5t56.5 -157.5q0 -102 -56.5 -156.5t-162.5 -54.5h-308v714zM354 80q156 0 156 131q0 133 -156 133h-181v-264h181zM699 714h95v-714h-95v714zM389 873v-104h-89v104h89zM577 873v-104h-90v104h90z" />
    <glyph glyph-name="uni04F9" unicode="&#x4f9;" horiz-adv-x="708" 
d="M64 517h85v-198h160q76 0 122 -41.5t46 -116.5q0 -73 -44 -117t-120 -44h-249v517zM282 75q107 0 107 86q0 85 -107 85h-133v-171h133zM559 517h85v-517h-85v517zM304 696v-104h-89v104h89zM492 696v-104h-90v104h90z" />
    <glyph glyph-name="afii61352" unicode="&#x2116;" horiz-adv-x="1035" 
d="M82 697h96l341 -562v562h85v-697h-99l-338 556v-556h-85v697zM693 213h280v-63h-280v63zM830 272q-70 0 -109.5 38.5t-39.5 104.5t39 106t105 40q72 0 111 -39t39 -108q0 -67 -38 -104.5t-107 -37.5zM829 327q35 0 54 21t19 69q0 46 -20 67.5t-52 21.5q-35 0 -55.5 -22
t-20.5 -68t20 -67.5t55 -21.5z" />
    <glyph glyph-name="Aogonek" unicode="&#x104;" horiz-adv-x="648" 
d="M473 215h-302l-80 -215h-97l278 714h105l279 -714h-64q-25 -21 -41 -37.5t-25 -31t-12.5 -26.5t-3.5 -22q0 -16 9.5 -29.5t32.5 -13.5q15 0 33.5 4t29.5 10l2 -38q-14 -13 -37 -19t-46 -6q-43 0 -67.5 20t-24.5 55q0 37 27.5 69t81.5 65zM443 295l-119 333h-2l-121 -333
h242z" />
    <glyph glyph-name="aogonek" unicode="&#x105;" horiz-adv-x="537" 
d="M522 2q-6 -3 -12 -5.5t-14 -4.5q-21 -6 -40 -17.5t-34 -26.5t-23.5 -31.5t-8.5 -33.5q0 -16 9.5 -29.5t32.5 -13.5q15 0 33.5 4t29.5 10l2 -38q-14 -13 -37 -19t-46 -6q-43 0 -67.5 20t-24.5 55q0 37 30.5 71t76.5 58q-40 14 -40 73q-35 -42 -81.5 -60.5t-100.5 -18.5
q-35 0 -66.5 8t-54.5 25t-36.5 44.5t-13.5 66.5q0 44 15 72t39.5 45.5t56 26.5t64.5 15q35 7 66.5 10.5t55.5 10t38 19t14 36.5q0 28 -10.5 45t-27 26t-37 12t-40.5 3q-54 0 -90 -20.5t-39 -77.5h-85q2 48 20 81t48 53.5t68.5 29.5t82.5 9q35 0 69.5 -5t62.5 -20.5t45 -43.5
t17 -73v-266q0 -30 3.5 -44t23.5 -14q11 0 26 5v-66zM384 267q-16 -12 -42 -17.5t-54.5 -9t-57.5 -8t-52 -14.5t-37.5 -28.5t-14.5 -50.5q0 -21 8.5 -35.5t22 -23.5t31.5 -13t38 -4q42 0 72 11.5t49 29t28 38t9 38.5v87z" />
    <glyph glyph-name="Cacute" unicode="&#x106;" horiz-adv-x="722" 
d="M580 499h95q-8 57 -34 100.5t-65 72.5t-89 44t-106 15q-82 0 -145.5 -29.5t-106 -80.5t-64.5 -119.5t-22 -146.5t20.5 -146t61.5 -118t103 -78.5t145 -28.5q137 0 216 75t93 210h-95q-3 -44 -18 -82t-41.5 -65.5t-63 -43t-83.5 -15.5q-64 0 -110 24t-75.5 64.5t-43.5 95
t-14 115.5q0 56 14 108t43.5 92.5t75 64.5t109.5 24q75 0 129.5 -38t70.5 -114zM508 927l-141 -162h-64l96 162h109z" />
    <glyph glyph-name="cacute" unicode="&#x107;" horiz-adv-x="537" 
d="M415 351h88q-5 46 -24 79.5t-48.5 55.5t-68 32.5t-82.5 10.5q-61 0 -107 -21.5t-76.5 -59t-45.5 -88t-15 -108.5t15.5 -106.5t46 -83.5t76 -54t104.5 -19q99 0 156.5 52t71.5 148h-87q-8 -60 -43.5 -93t-98.5 -33q-40 0 -69 16t-47 42.5t-26.5 60.5t-8.5 70q0 39 8 75.5
t26.5 64.5t49.5 45t77 17q54 0 86 -27t42 -76zM424 770l-141 -162h-64l96 162h109z" />
    <glyph glyph-name="Eogonek" unicode="&#x118;" horiz-adv-x="611" 
d="M553 0q-9 0 -25.5 -10.5t-33.5 -27t-29.5 -37.5t-12.5 -42q0 -16 9.5 -29.5t32.5 -13.5q15 0 33.5 4t29.5 10l2 -38q-14 -13 -37 -19t-46 -6q-43 0 -67.5 20t-24.5 55q0 37 27.5 69t81.5 65h-415v714h493v-80h-398v-227h371v-80h-371v-247h401v-80h-21z" />
    <glyph glyph-name="eogonek" unicode="&#x119;" horiz-adv-x="537" 
d="M505 164q-11 -51 -33.5 -86.5t-62.5 -58.5q-36 -21 -57.5 -40t-33.5 -36.5t-16 -32.5t-4 -27q0 -16 9.5 -29.5t32.5 -13.5q15 0 33.5 4t29.5 10l2 -38q-14 -13 -37 -19t-46 -6q-43 0 -67.5 20t-24.5 55t24 65t72 61q-21 -3 -42 -3q-62 0 -107.5 20t-76.5 56t-46.5 86
t-17.5 109q0 58 18 107.5t50.5 85.5t77 56t97.5 20q69 0 114.5 -28.5t73 -72.5t38 -96t8.5 -99h-387q-1 -34 8 -64.5t29 -54t51 -37.5t73 -14q54 0 88.5 25t45.5 76h84zM423 308q-2 30 -13.5 57t-31 46.5t-46 31t-58.5 11.5q-33 0 -59.5 -11.5t-45.5 -31.5t-30 -46.5
t-13 -56.5h297z" />
    <glyph glyph-name="Nacute" unicode="&#x143;" horiz-adv-x="722" 
d="M77 714v-714h90v573h2l373 -573h104v714h-90v-579h-2l-376 579h-101zM518 927l-141 -162h-64l96 162h109z" />
    <glyph glyph-name="nacute" unicode="&#x144;" 
d="M64 517v-517h85v292q0 35 9.5 64.5t28.5 51.5t47.5 34t67.5 12q49 0 77 -28t28 -76v-350h85v340q0 42 -8.5 76.5t-29.5 59.5t-55 39t-85 14q-115 0 -168 -94h-2v82h-80zM431 770l-141 -162h-64l96 162h109z" />
    <glyph glyph-name="Sacute" unicode="&#x15a;" horiz-adv-x="648" 
d="M491 505h90q-2 59 -22.5 101.5t-56 70.5t-82.5 41t-102 13q-49 0 -95.5 -12.5t-83 -38t-58.5 -65t-22 -93.5q0 -49 19.5 -81.5t52 -53t73.5 -33t83.5 -22t83.5 -18.5t73.5 -23.5t52 -37.5t19.5 -60q0 -39 -16 -64t-42 -39.5t-58.5 -20.5t-64.5 -6q-40 0 -78 10t-66.5 31
t-46 53.5t-17.5 77.5h-90q0 -65 23.5 -112.5t64 -78t94 -45.5t113.5 -15q49 0 98.5 11.5t89.5 37t65.5 66t25.5 97.5q0 53 -19.5 88t-52 58t-73.5 36.5t-83.5 23.5t-83.5 18.5t-73.5 21.5t-52 33.5t-19.5 53.5q0 35 13.5 58.5t36 37.5t51.5 20t59 6q74 0 121.5 -34.5
t55.5 -111.5zM481 927l-141 -162h-64l96 162h109z" />
    <glyph glyph-name="sacute" unicode="&#x15b;" horiz-adv-x="500" 
d="M116 163h-85q2 -48 20 -81.5t48 -54t69 -29.5t82 -9q39 0 78.5 7.5t71 26.5t51 50t19.5 78q0 37 -14.5 62t-38 41.5t-54 26.5t-62.5 17q-30 7 -60 13.5t-54 16t-39.5 24t-15.5 36.5q0 20 10 32.5t26 20t35.5 10.5t38.5 3q21 0 41.5 -4.5t37.5 -14.5t28 -26.5t13 -41.5h85
q-3 47 -20 78.5t-45.5 50t-65.5 26t-81 7.5q-34 0 -68.5 -8.5t-62 -26t-45 -45.5t-17.5 -67q0 -50 25 -78t62.5 -43.5t81.5 -24t81.5 -19t62.5 -27.5t25 -50q0 -24 -12 -39.5t-30.5 -23.5t-40.5 -11t-42 -3q-26 0 -50.5 5t-44 16.5t-31.5 31t-13 47.5zM402 770l-141 -162
h-64l96 162h109z" />
    <glyph glyph-name="Zacute" unicode="&#x179;" horiz-adv-x="611" 
d="M22 80v-80h568v80h-455l443 554v80h-522v-80h410zM463 927l-141 -162h-64l96 162h109z" />
    <glyph glyph-name="zacute" unicode="&#x17a;" horiz-adv-x="480" 
d="M22 65v-65h436v75h-330l316 384v58h-402v-75h292zM393 770l-141 -162h-64l96 162h109z" />
    <glyph glyph-name="Zdotaccent" unicode="&#x17b;" horiz-adv-x="611" 
d="M22 80v-80h568v80h-455l443 554v80h-522v-80h410zM261 808v104h90v-104h-90z" />
    <glyph glyph-name="zdotaccent" unicode="&#x17c;" horiz-adv-x="480" 
d="M22 65v-65h436v75h-330l316 384v58h-402v-75h292zM195 636v104h90v-104h-90z" />
    <glyph glyph-name="uni0100" unicode="&#x100;" horiz-adv-x="648" 
d="M272 714h105l279 -714h-105l-78 215h-302l-80 -215h-98zM443 295l-119 333h-2l-121 -333h242zM155 872h341v-55h-341v55z" />
    <glyph glyph-name="uni0102" unicode="&#x102;" horiz-adv-x="648" 
d="M201 295l121 333h2l119 -333h-242zM272 714l-278 -714h97l80 215h302l78 -215h105l-279 714h-105zM219 929q11 -44 37 -65.5t75 -21.5q45 0 66 24t33 63h51q-11 -70 -51.5 -109t-106.5 -39q-69 0 -106.5 37t-47.5 111h50z" />
    <glyph glyph-name="uni01FA" unicode="&#x1fa;" horiz-adv-x="648" 
d="M343 973h102l-104 -106h-64zM263 682q-16 13 -25 31.5t-9 40.5q0 21 7.5 38t21 30t30.5 20t37 7q19 0 36.5 -7t30.5 -19.5t20.5 -30t7.5 -38.5q0 -22 -9.5 -40.5t-24.5 -31.5l270 -682h-105l-78 215h-302l-80 -215h-98zM270 754q0 -23 15.5 -39.5t39.5 -16.5
q23 0 38.5 16.5t15.5 39.5q0 24 -15.5 39.5t-38.5 15.5q-24 0 -39.5 -15.5t-15.5 -39.5zM201 295h242l-119 333h-2z" />
    <glyph glyph-name="uni01FC" unicode="&#x1fc;" horiz-adv-x="926" 
d="M354 714h535v-80h-351v-227h330v-80h-330v-247h357v-80h-447v208h-246l-102 -208h-107zM407 634l-168 -346h209v346h-41zM614 922h109l-131 -143h-64z" />
    <glyph glyph-name="uni0108" unicode="&#x108;" horiz-adv-x="722" 
d="M43 355q0 78 22 146.5t64.5 119.5t105.5 80.5t146 29.5q56 0 106 -15t89 -44t65 -72.5t34 -100.5h-95q-16 76 -70.5 114t-129.5 38q-64 0 -109.5 -24t-75 -64.5t-43.5 -92.5t-14 -108q0 -61 14 -115.5t43.5 -95t75.5 -64.5t110 -24q46 0 83 15.5t63.5 43t41.5 65.5t18 82
h95q-14 -135 -93 -210.5t-216 -75.5q-83 0 -145 29t-103 79t-61.5 118t-20.5 146zM334 922h93l104 -143h-84l-69 96l-70 -96h-77z" />
    <glyph glyph-name="uni010C" unicode="&#x10c;" horiz-adv-x="722" 
d="M43 355q0 78 22 146.5t64.5 119.5t105.5 80.5t146 29.5q56 0 106 -15t89 -44t65 -72.5t34 -100.5h-95q-16 76 -70.5 114t-129.5 38q-64 0 -109.5 -24t-75 -64.5t-43.5 -92.5t-14 -108q0 -61 14 -115.5t43.5 -95t75.5 -64.5t110 -24q46 0 83 15.5t63.5 43t41.5 65.5t18 82
h95q-14 -135 -93 -210.5t-216 -75.5q-83 0 -145 29t-103 79t-61.5 118t-20.5 146zM427 779h-93l-104 143h84l69 -96l70 96h77z" />
    <glyph glyph-name="uni010A" unicode="&#x10a;" horiz-adv-x="722" 
d="M43 355q0 78 22 146.5t64.5 119.5t105.5 80.5t146 29.5q56 0 106 -15t89 -44t65 -72.5t34 -100.5h-95q-16 76 -70.5 114t-129.5 38q-64 0 -109.5 -24t-75 -64.5t-43.5 -92.5t-14 -108q0 -61 14 -115.5t43.5 -95t75.5 -64.5t110 -24q46 0 83 15.5t63.5 43t41.5 65.5t18 82
h95q-14 -135 -93 -210.5t-216 -75.5q-83 0 -145 29t-103 79t-61.5 118t-20.5 146zM425 793h-90v104h90v-104z" />
    <glyph glyph-name="uni010E" unicode="&#x10e;" horiz-adv-x="704" 
d="M78 714h245q165 0 254 -84t89 -256q0 -90 -20 -159.5t-62 -117t-107 -72.5t-154 -25h-245v714zM331 80q16 0 40 2.5t51 12t53.5 27.5t47.5 49t34.5 77.5t13.5 112.5q0 64 -12.5 114.5t-41 85.5t-73.5 54t-111 19h-160v-554h158zM362 779h-93l-104 143h84l69 -96l70 96h77
z" />
    <glyph glyph-name="uni0110" unicode="&#x110;" horiz-adv-x="704" 
d="M78 341h-70v64h70v309h245q165 0 254 -84t89 -256q0 -90 -20 -159.5t-62 -117t-107 -72.5t-154 -25h-245v341zM173 405h214v-64h-214v-261h158q16 0 40 2.5t51 12t53.5 27.5t47.5 49t34.5 77.5t13.5 112.5q0 64 -12.5 114.5t-41 85.5t-73.5 54t-111 19h-160v-229z" />
    <glyph glyph-name="uni011A" unicode="&#x11a;" horiz-adv-x="611" 
d="M78 714h493v-80h-398v-227h371v-80h-371v-247h401v-80h-496v714zM366 779h-93l-104 143h84l69 -96l70 96h77z" />
    <glyph glyph-name="uni0112" unicode="&#x112;" horiz-adv-x="611" 
d="M78 714h493v-80h-398v-227h371v-80h-371v-247h401v-80h-496v714zM149 872h341v-55h-341v55z" />
    <glyph glyph-name="uni0114" unicode="&#x114;" horiz-adv-x="611" 
d="M78 714h493v-80h-398v-227h371v-80h-371v-247h401v-80h-496v714zM213 919q24 -83 112 -83q43 0 63.5 22.5t35.5 60.5h51q-11 -64 -51.5 -101t-106.5 -37q-69 0 -106.5 35.5t-47.5 102.5h50z" />
    <glyph glyph-name="uni0116" unicode="&#x116;" horiz-adv-x="611" 
d="M78 714h493v-80h-398v-227h371v-80h-371v-247h401v-80h-496v714zM364 793h-90v104h90v-104z" />
    <glyph glyph-name="uni011C" unicode="&#x11c;" horiz-adv-x="759" 
d="M43 343q0 78 21.5 148.5t64 123.5t106 84.5t148.5 31.5q58 0 109.5 -13.5t92 -42.5t68 -73.5t37.5 -107.5h-95q-7 40 -26 70t-47 49t-63.5 28.5t-75.5 9.5q-65 0 -111.5 -26t-76 -68.5t-43.5 -97t-14 -111.5q0 -56 16 -107.5t47 -91t76.5 -63t105.5 -23.5q55 0 98.5 18
t73 49.5t44.5 74t13 91.5h-228v80h313v-376h-60l-25 89q-21 -28 -47.5 -48t-56.5 -33t-62 -19t-63 -6q-80 0 -143 30t-107 80t-67 115t-23 135zM340 922h93l104 -143h-84l-69 96l-70 -96h-77z" />
    <glyph glyph-name="uni011E" unicode="&#x11e;" horiz-adv-x="759" 
d="M43 343q0 78 21.5 148.5t64 123.5t106 84.5t148.5 31.5q58 0 109.5 -13.5t92 -42.5t68 -73.5t37.5 -107.5h-95q-7 40 -26 70t-47 49t-63.5 28.5t-75.5 9.5q-65 0 -111.5 -26t-76 -68.5t-43.5 -97t-14 -111.5q0 -56 16 -107.5t47 -91t76.5 -63t105.5 -23.5q55 0 98.5 18
t73 49.5t44.5 74t13 91.5h-228v80h313v-376h-60l-25 89q-21 -28 -47.5 -48t-56.5 -33t-62 -19t-63 -6q-80 0 -143 30t-107 80t-67 115t-23 135zM280 919q24 -83 112 -83q43 0 63.5 22.5t35.5 60.5h51q-11 -64 -51.5 -101t-106.5 -37q-69 0 -106.5 35.5t-47.5 102.5h50z" />
    <glyph glyph-name="uni0120" unicode="&#x120;" horiz-adv-x="759" 
d="M43 343q0 78 21.5 148.5t64 123.5t106 84.5t148.5 31.5q58 0 109.5 -13.5t92 -42.5t68 -73.5t37.5 -107.5h-95q-7 40 -26 70t-47 49t-63.5 28.5t-75.5 9.5q-65 0 -111.5 -26t-76 -68.5t-43.5 -97t-14 -111.5q0 -56 16 -107.5t47 -91t76.5 -63t105.5 -23.5q55 0 98.5 18
t73 49.5t44.5 74t13 91.5h-228v80h313v-376h-60l-25 89q-21 -28 -47.5 -48t-56.5 -33t-62 -19t-63 -6q-80 0 -143 30t-107 80t-67 115t-23 135zM430 793h-90v104h90v-104z" />
    <glyph glyph-name="uni0122" unicode="&#x122;" horiz-adv-x="759" 
d="M43 343q0 78 21.5 148.5t64 123.5t106 84.5t148.5 31.5q58 0 109.5 -13.5t92 -42.5t68 -73.5t37.5 -107.5h-95q-7 40 -26 70t-47 49t-63.5 28.5t-75.5 9.5q-65 0 -111.5 -26t-76 -68.5t-43.5 -97t-14 -111.5q0 -56 16 -107.5t47 -91t76.5 -63t105.5 -23.5q55 0 98.5 18
t73 49.5t44.5 74t13 91.5h-228v80h313v-376h-60l-25 89q-21 -28 -47.5 -48t-56.5 -33t-62 -19t-63 -6q-80 0 -143 30t-107 80t-67 115t-23 135zM321 -50h111v-77q0 -43 -27 -63t-72 -20v35q15 4 23.5 8.5t12 9.5t4 9.5t0.5 9.5h-52v88z" />
    <glyph glyph-name="uni0124" unicode="&#x124;" horiz-adv-x="722" 
d="M78 714h95v-307h376v307h95v-714h-95v327h-376v-327h-95v714zM312 922h93l104 -143h-84l-69 96l-70 -96h-77z" />
    <glyph glyph-name="uni0126" unicode="&#x126;" horiz-adv-x="722" 
d="M78 714h95v-144h376v144h95v-714h-95v306h-376v-306h-95v714zM549 384v128h-376v-128h376z" />
    <glyph glyph-name="uni012C" unicode="&#x12c;" horiz-adv-x="259" 
d="M82 714h95v-714h-95v714zM24 919q24 -83 112 -83q43 0 63.5 22.5t35.5 60.5h51q-11 -64 -51.5 -101t-106.5 -37q-69 0 -106.5 35.5t-47.5 102.5h50z" />
    <glyph glyph-name="uni0128" unicode="&#x128;" horiz-adv-x="259" 
d="M82 714v-714h95v714h-95zM189 839q22 0 34.5 14.5t15.5 40.5h49q-10 -70 -37.5 -95.5t-66.5 -25.5q-20 0 -38 8t-36 18t-35.5 18t-35.5 8q-46 0 -55 -51h-47q10 61 35.5 89t67.5 28q20 0 39 -8t37 -18t36.5 -18t36.5 -8z" />
    <glyph glyph-name="uni012A" unicode="&#x12a;" horiz-adv-x="259" 
d="M82 714h95v-714h-95v714zM-40 872h341v-55h-341v55z" />
    <glyph glyph-name="uni0130" unicode="&#x130;" horiz-adv-x="259" 
d="M82 714h95v-714h-95v714zM175 793h-90v104h90v-104z" />
    <glyph glyph-name="uni012E" unicode="&#x12e;" horiz-adv-x="259" 
d="M82 714h95v-714q-23 -22 -37.5 -38.5t-22.5 -30.5t-11.5 -25.5t-3.5 -23.5q0 -19 9 -30.5t25 -11.5q19 0 32 8t24 22l28 -18q-19 -34 -41.5 -48t-49.5 -14q-36 0 -62.5 18t-26.5 60q0 11 4 25.5t15 31.5t30.5 36t51.5 39h-59v714z" />
    <glyph glyph-name="uni0134" unicode="&#x134;" horiz-adv-x="519" 
d="M22 235h95v-30q0 -31 5 -57t17.5 -45t35 -29.5t57.5 -10.5q65 0 89.5 35t24.5 94v522h95v-536q0 -36 -10.5 -71t-35 -62.5t-65 -44.5t-100.5 -17q-100 0 -154 53t-54 155v44zM344 922h93l104 -143h-84l-69 96l-70 -96h-77z" />
    <glyph glyph-name="uni0136" unicode="&#x136;" horiz-adv-x="667" 
d="M78 714h95v-356l362 356h123l-301 -288l313 -426h-120l-258 361l-119 -111v-250h-95v714zM290 -50h111v-77q0 -43 -27 -63t-72 -20v35q15 4 23.5 8.5t12 9.5t4 9.5t0.5 9.5h-52v88z" />
    <glyph glyph-name="uni0139" unicode="&#x139;" 
d="M78 714h95v-634h378v-80h-473v714zM179 922h109l-131 -143h-64z" />
    <glyph glyph-name="uni013D" unicode="&#x13d;" 
d="M78 714h95v-634h378v-80h-473v714zM302 714h109l-75 -143h-60z" />
    <glyph glyph-name="uni013B" unicode="&#x13b;" 
d="M78 714h95v-634h378v-80h-473v714zM253 -50h111v-77q0 -43 -27 -63t-72 -20v35q15 4 23.5 8.5t12 9.5t4 9.5t0.5 9.5h-52v88z" />
    <glyph glyph-name="uni013F" unicode="&#x13f;" 
d="M78 714h95v-634h378v-80h-473v714zM405 337h-90v104h90v-104z" />
    <glyph glyph-name="uni0147" unicode="&#x147;" horiz-adv-x="722" 
d="M77 714h101l376 -579h2v579h90v-714h-104l-373 573h-2v-573h-90v714zM406 779h-93l-104 143h84l69 -96l70 96h77z" />
    <glyph glyph-name="uni0145" unicode="&#x145;" horiz-adv-x="722" 
d="M77 714h101l376 -579h2v579h90v-714h-104l-373 573h-2v-573h-90v714zM303 -50h111v-77q0 -43 -27 -63t-72 -20v35q15 4 23.5 8.5t12 9.5t4 9.5t0.5 9.5h-52v88z" />
    <glyph glyph-name="uni014C" unicode="&#x14c;" horiz-adv-x="760" 
d="M38 357q0 73 21.5 140.5t64.5 119.5t107 83t149 31t149 -31t107 -83t64.5 -119.5t21.5 -140.5t-21.5 -140.5t-64.5 -119.5t-107 -83t-149 -31t-149 31t-107 83t-64.5 119.5t-21.5 140.5zM133 357q0 -54 14 -106.5t44 -94.5t77 -67.5t112 -25.5t112 25.5t77 67.5t44 94.5
t14 106.5t-14 106.5t-44 94.5t-77 67.5t-112 25.5t-112 -25.5t-77 -67.5t-44 -94.5t-14 -106.5zM211 872h341v-55h-341v55z" />
    <glyph glyph-name="uni014E" unicode="&#x14e;" horiz-adv-x="760" 
d="M38 357q0 73 21.5 140.5t64.5 119.5t107 83t149 31t149 -31t107 -83t64.5 -119.5t21.5 -140.5t-21.5 -140.5t-64.5 -119.5t-107 -83t-149 -31t-149 31t-107 83t-64.5 119.5t-21.5 140.5zM133 357q0 -54 14 -106.5t44 -94.5t77 -67.5t112 -25.5t112 25.5t77 67.5t44 94.5
t14 106.5t-14 106.5t-44 94.5t-77 67.5t-112 25.5t-112 -25.5t-77 -67.5t-44 -94.5t-14 -106.5zM275 919q24 -83 112 -83q43 0 63.5 22.5t35.5 60.5h51q-11 -64 -51.5 -101t-106.5 -37q-69 0 -106.5 35.5t-47.5 102.5h50z" />
    <glyph glyph-name="uni0150" unicode="&#x150;" horiz-adv-x="760" 
d="M38 357q0 73 21.5 140.5t64.5 119.5t107 83t149 31t149 -31t107 -83t64.5 -119.5t21.5 -140.5t-21.5 -140.5t-64.5 -119.5t-107 -83t-149 -31t-149 31t-107 83t-64.5 119.5t-21.5 140.5zM133 357q0 -54 14 -106.5t44 -94.5t77 -67.5t112 -25.5t112 25.5t77 67.5t44 94.5
t14 106.5t-14 106.5t-44 94.5t-77 67.5t-112 25.5t-112 -25.5t-77 -67.5t-44 -94.5t-14 -106.5zM502 922h105l-120 -143h-66zM346 922h105l-120 -143h-66z" />
    <glyph glyph-name="uni01FE" unicode="&#x1fe;" horiz-adv-x="760" 
d="M411 922h109l-131 -143h-64zM723 700l-82 -90q42 -52 61.5 -116.5t19.5 -136.5q0 -73 -21.5 -140.5t-64.5 -119.5t-107 -83t-149 -31q-73 0 -130 23t-99 63l-81 -89l-33 30l84 92q-42 51 -62.5 117t-20.5 138q0 73 21.5 140.5t64.5 119.5t107 83t149 31q75 0 132.5 -23
t99.5 -65l79 87zM552 577q-29 34 -72 54t-100 20q-65 0 -112 -25.5t-77 -67.5t-44 -94.5t-14 -106.5q0 -51 12 -99t38 -88zM210 134q29 -33 71 -52t99 -19q65 0 112 25.5t77 67.5t44 94.5t14 106.5q0 49 -11.5 97t-36.5 87z" />
    <glyph glyph-name="uni0154" unicode="&#x154;" horiz-adv-x="685" 
d="M78 714h336q102 0 159.5 -50t57.5 -137q0 -65 -29.5 -114t-94.5 -67v-2q31 -6 50.5 -20t31 -33.5t17 -43.5t8.5 -50q2 -26 3 -53t5 -53t11.5 -49.5t22.5 -41.5h-106q-10 11 -13.5 30t-4.5 42.5t-2 50.5t-6 53q-4 26 -10 49.5t-19 41t-34.5 28t-55.5 10.5h-232v-305h-95
v714zM371 385q33 0 63 5t52.5 19.5t36 39t13.5 63.5q0 54 -30 88t-97 34h-236v-249h198zM364 922h109l-131 -143h-64z" />
    <glyph glyph-name="uni0158" unicode="&#x158;" horiz-adv-x="685" 
d="M78 714h336q102 0 159.5 -50t57.5 -137q0 -65 -29.5 -114t-94.5 -67v-2q31 -6 50.5 -20t31 -33.5t17 -43.5t8.5 -50q2 -26 3 -53t5 -53t11.5 -49.5t22.5 -41.5h-106q-10 11 -13.5 30t-4.5 42.5t-2 50.5t-6 53q-4 26 -10 49.5t-19 41t-34.5 28t-55.5 10.5h-232v-305h-95
v714zM371 385q33 0 63 5t52.5 19.5t36 39t13.5 63.5q0 54 -30 88t-97 34h-236v-249h198zM370 779h-93l-104 143h84l69 -96l70 96h77z" />
    <glyph glyph-name="uni0156" unicode="&#x156;" horiz-adv-x="685" 
d="M78 714h336q102 0 159.5 -50t57.5 -137q0 -65 -29.5 -114t-94.5 -67v-2q31 -6 50.5 -20t31 -33.5t17 -43.5t8.5 -50q2 -26 3 -53t5 -53t11.5 -49.5t22.5 -41.5h-106q-10 11 -13.5 30t-4.5 42.5t-2 50.5t-6 53q-4 26 -10 49.5t-19 41t-34.5 28t-55.5 10.5h-232v-305h-95
v714zM371 385q33 0 63 5t52.5 19.5t36 39t13.5 63.5q0 54 -30 88t-97 34h-236v-249h198zM295 -50h111v-77q0 -43 -27 -63t-72 -20v35q15 4 23.5 8.5t12 9.5t4 9.5t0.5 9.5h-52v88z" />
    <glyph glyph-name="uni015C" unicode="&#x15c;" horiz-adv-x="648" 
d="M491 505q-8 77 -55.5 111.5t-121.5 34.5q-30 0 -59 -6t-51.5 -20t-36 -37.5t-13.5 -58.5q0 -33 19.5 -53.5t52 -33.5t73.5 -21.5t83.5 -18.5t83.5 -23.5t73.5 -36.5t52 -58t19.5 -88q0 -57 -25.5 -97.5t-65.5 -66t-89.5 -37.5t-98.5 -12q-60 0 -113.5 15t-94 46t-64 78.5
t-23.5 112.5h90q0 -45 17.5 -77.5t46 -53.5t66 -31t78.5 -10q32 0 64.5 6t58.5 20.5t42 39.5t16 64q0 37 -19.5 60t-52 37.5t-73.5 23.5t-83.5 18.5t-83.5 22t-73.5 33t-52 53t-19.5 81.5q0 54 22 93.5t58.5 65t83 38t95.5 12.5q55 0 102 -13t82.5 -41t56 -70.5t22.5 -101.5
h-90zM278 922h93l104 -143h-84l-69 96l-70 -96h-77z" />
    <glyph glyph-name="uni015E" unicode="&#x15e;" horiz-adv-x="648" 
d="M219 -147q33 -13 65 -13q20 0 39 7t19 24q0 14 -13.5 22.5t-33.5 8.5q-12 0 -21 -2t-20 -6l-17 28l49 64q-52 5 -97.5 22.5t-79 48.5t-53 75t-19.5 103h90q0 -45 17.5 -77.5t46 -53.5t66 -31t78.5 -10q32 0 64.5 6t58.5 20.5t42 39.5t16 64q0 37 -19.5 60t-52 37.5
t-73.5 23.5t-83.5 18.5t-83.5 22t-73.5 33t-52 53t-19.5 81.5q0 54 22 93.5t58.5 65t83 38t95.5 12.5q55 0 102 -13t82.5 -41t56 -70.5t22.5 -101.5h-90q-8 77 -55.5 111.5t-121.5 34.5q-30 0 -59 -6t-51.5 -20t-36 -37.5t-13.5 -58.5q0 -33 19.5 -53.5t52 -33.5t73.5 -21.5
t83.5 -18.5t83.5 -23.5t73.5 -36.5t52 -58t19.5 -88q0 -57 -25.5 -97.5t-65.5 -66t-89.5 -37.5t-98.5 -12h-6l-28 -36l2 -2q14 7 33 7q32 0 58 -18t26 -55q0 -25 -11.5 -42t-29.5 -27.5t-40 -15t-43 -4.5q-45 0 -92 19z" />
    <glyph glyph-name="uni0218" unicode="&#x218;" horiz-adv-x="648" 
d="M491 505q-8 77 -55.5 111.5t-121.5 34.5q-30 0 -59 -6t-51.5 -20t-36 -37.5t-13.5 -58.5q0 -33 19.5 -53.5t52 -33.5t73.5 -21.5t83.5 -18.5t83.5 -23.5t73.5 -36.5t52 -58t19.5 -88q0 -57 -25.5 -97.5t-65.5 -66t-89.5 -37.5t-98.5 -12q-60 0 -113.5 15t-94 46t-64 78.5
t-23.5 112.5h90q0 -45 17.5 -77.5t46 -53.5t66 -31t78.5 -10q32 0 64.5 6t58.5 20.5t42 39.5t16 64q0 37 -19.5 60t-52 37.5t-73.5 23.5t-83.5 18.5t-83.5 22t-73.5 33t-52 53t-19.5 81.5q0 54 22 93.5t58.5 65t83 38t95.5 12.5q55 0 102 -13t82.5 -41t56 -70.5t22.5 -101.5
h-90zM270 -50h111v-77q0 -43 -27 -63t-72 -20v35q15 4 23.5 8.5t12 9.5t4 9.5t0.5 9.5h-52v88z" />
    <glyph glyph-name="uni0164" unicode="&#x164;" horiz-adv-x="574" 
d="M240 634h-238v80h571v-80h-238v-634h-95v634zM333 779h-93l-104 143h84l69 -96l70 96h77z" />
    <glyph glyph-name="uni0162" unicode="&#x162;" horiz-adv-x="574" 
d="M240 634h-238v80h571v-80h-238v-634h-95v634zM231 -50h111v-77q0 -43 -27 -63t-72 -20v35q15 4 23.5 8.5t12 9.5t4 9.5t0.5 9.5h-52v88z" />
    <glyph glyph-name="uni021A" unicode="&#x21a;" horiz-adv-x="574" 
d="M240 634h-238v80h571v-80h-238v-634h-95v634zM231 -50h111v-77q0 -43 -27 -63t-72 -20v35q15 4 23.5 8.5t12 9.5t4 9.5t0.5 9.5h-52v88z" />
    <glyph glyph-name="uni0166" unicode="&#x166;" horiz-adv-x="574" 
d="M98 487h142v147h-238v80h571v-80h-238v-147h144v-61h-144v-426h-95v426h-142v61z" />
    <glyph glyph-name="uni0168" unicode="&#x168;" horiz-adv-x="722" 
d="M648 258v456h-95v-456q0 -96 -47.5 -145.5t-138.5 -49.5q-96 0 -147 49.5t-51 145.5v456h-95v-456q0 -143 77.5 -208.5t215.5 -65.5q135 0 208 68.5t73 205.5zM438 839q22 0 34.5 14.5t15.5 40.5h49q-10 -70 -37.5 -95.5t-66.5 -25.5q-20 0 -38 8t-36 18t-35.5 18
t-35.5 8q-46 0 -55 -51h-47q10 61 35.5 89t67.5 28q20 0 39 -8t37 -18t36.5 -18t36.5 -8z" />
    <glyph glyph-name="uni016A" unicode="&#x16a;" horiz-adv-x="722" 
d="M648 258q0 -137 -73 -206t-208 -69q-69 0 -123.5 16t-92 50t-57.5 86t-20 123v456h95v-456q0 -96 51 -145.5t147 -49.5q91 0 138.5 49.5t47.5 145.5v456h95v-456zM193 872h341v-55h-341v55z" />
    <glyph glyph-name="uni016C" unicode="&#x16c;" horiz-adv-x="722" 
d="M648 258q0 -137 -73 -206t-208 -69q-69 0 -123.5 16t-92 50t-57.5 86t-20 123v456h95v-456q0 -96 51 -145.5t147 -49.5q91 0 138.5 49.5t47.5 145.5v456h95v-456zM257 919q24 -83 112 -83q43 0 63.5 22.5t35.5 60.5h51q-11 -64 -51.5 -101t-106.5 -37q-69 0 -106.5 35.5
t-47.5 102.5h50z" />
    <glyph glyph-name="uni016E" horiz-adv-x="722" 
d="M648 258q0 -137 -73 -206t-208 -69q-69 0 -123.5 16t-92 50t-57.5 86t-20 123v456h95v-456q0 -96 51 -145.5t147 -49.5q91 0 138.5 49.5t47.5 145.5v456h95v-456zM249 861q0 23 9 43.5t24.5 35.5t36 24t43.5 9t43.5 -9t36 -24t24.5 -35.5t9 -43.5t-9 -43.5t-24.5 -35.5
t-36 -24t-43.5 -9t-43.5 9t-36 24t-24.5 35.5t-9 43.5zM295 860q0 -29 19 -48.5t48 -19.5t48 19.5t19 48.5t-19 48.5t-48 19.5t-48 -19.5t-19 -48.5z" />
    <glyph glyph-name="uni0170" unicode="&#x170;" horiz-adv-x="722" 
d="M648 258q0 -137 -73 -206t-208 -69q-69 0 -123.5 16t-92 50t-57.5 86t-20 123v456h95v-456q0 -96 51 -145.5t147 -49.5q91 0 138.5 49.5t47.5 145.5v456h95v-456zM484 922h105l-120 -143h-66zM328 922h105l-120 -143h-66z" />
    <glyph glyph-name="uni0172" unicode="&#x172;" horiz-adv-x="722" 
d="M648 258q0 -127 -63 -195.5t-181 -77.5q-40 -35 -53 -59t-13 -44q0 -19 10.5 -30.5t30.5 -11.5q35 0 59 30l32 -18q-20 -35 -48.5 -48.5t-59.5 -13.5q-38 0 -65 18t-27 58q0 28 20 58t65 59q-66 1 -118.5 18t-88.5 51t-55 85t-19 121v456h95v-456q0 -96 51 -145.5
t147 -49.5q91 0 138.5 49.5t47.5 145.5v456h95v-456z" />
    <glyph glyph-name="uni1E82" unicode="&#x1e82;" horiz-adv-x="926" 
d="M723 0h-99l-163 600h-2l-165 -600h-99l-183 714h97l140 -594h2l160 594h103l158 -594h2l145 594h95zM488 922h109l-131 -143h-64z" />
    <glyph glyph-name="uni0174" unicode="&#x174;" horiz-adv-x="926" 
d="M723 0h-99l-163 600h-2l-165 -600h-99l-183 714h97l140 -594h2l160 594h103l158 -594h2l145 594h95zM417 922h93l104 -143h-84l-69 96l-70 -96h-77z" />
    <glyph glyph-name="uni1E84" unicode="&#x1e84;" horiz-adv-x="926" 
d="M723 0h-99l-163 600h-2l-165 -600h-99l-183 714h97l140 -594h2l160 594h103l158 -594h2l145 594h95zM513 897h90v-104h-90v104zM325 897h90v-104h-90v104z" />
    <glyph glyph-name="uni1E80" unicode="&#x1e80;" horiz-adv-x="926" 
d="M723 0h-99l-163 600h-2l-165 -600h-99l-183 714h97l140 -594h2l160 594h103l158 -594h2l145 594h95zM326 922h109l86 -143h-64z" />
    <glyph glyph-name="uni0176" unicode="&#x176;" horiz-adv-x="648" 
d="M373 292v-292h-95v292l-276 422h113l214 -340l209 340h108zM282 922h93l104 -143h-84l-69 96l-70 -96h-77z" />
    <glyph glyph-name="uni1EF2" unicode="&#x1ef2;" horiz-adv-x="648" 
d="M373 292l273 422h-108l-209 -340l-214 340h-113l276 -422v-292h95v292zM289 927l96 -162h-64l-140 162h108z" />
    <glyph glyph-name="uni0101" unicode="&#x101;" horiz-adv-x="537" 
d="M522 2q-23 -14 -61 -14q-33 0 -52.5 19t-19.5 61q-35 -42 -81.5 -61t-100.5 -19q-35 0 -66.5 8t-54.5 25.5t-36.5 45t-13.5 66.5q0 44 15 72t39.5 45.5t56 26.5t64.5 15q35 7 66.5 10.5t55.5 10t38 19t14 36.5q0 28 -10.5 45t-27 26t-37 12t-40.5 3q-54 0 -90 -20.5
t-39 -77.5h-85q2 48 20 81t48 53.5t68.5 29.5t82.5 9q35 0 69.5 -5t62.5 -20.5t45 -43.5t17 -73v-266q0 -30 3.5 -44t23.5 -14q11 0 26 5v-66zM384 267q-16 -12 -42 -17.5t-54.5 -9t-57.5 -8t-52 -14.5t-37.5 -28.5t-14.5 -50.5q0 -21 8.5 -35.5t22 -23.5t31.5 -13t38 -4
q42 0 72 11.5t49 29t28 38t9 38.5v87zM102 682h341v-55h-341v55z" />
    <glyph glyph-name="uni0103" unicode="&#x103;" horiz-adv-x="537" 
d="M522 2q-22 -13 -61 -13q-33 0 -52.5 18.5t-19.5 60.5q-35 -42 -81.5 -60.5t-100.5 -18.5q-35 0 -66.5 8t-54.5 25t-36.5 44.5t-13.5 66.5q0 44 15 72t39.5 45.5t56 26.5t64.5 15q35 7 66.5 10.5t55.5 10t38 19t14 36.5q0 28 -10.5 45t-27 26t-37 12t-40.5 3
q-54 0 -90 -20.5t-39 -77.5h-85q2 48 20 81t48 53.5t68.5 29.5t82.5 9q35 0 69.5 -5t62.5 -20.5t45 -43.5t17 -73v-266q0 -30 3.5 -44t23.5 -14q11 0 26 5v-66zM384 267q-16 -12 -42 -17.5t-54.5 -9t-57.5 -8t-52 -14.5t-37.5 -28.5t-14.5 -50.5q0 -21 8.5 -35.5t22 -23.5
t31.5 -13t38 -4q42 0 72 11.5t49 29t28 38t9 38.5v87zM173 756q11 -44 37 -65.5t75 -21.5q45 0 66 24t33 63h51q-11 -70 -51.5 -109t-106.5 -39q-69 0 -106.5 37t-47.5 111h50z" />
    <glyph glyph-name="uni01FB" unicode="&#x1fb;" horiz-adv-x="537" 
d="M309 922h109l-129 -126h-63zM272 565q-45 0 -75.5 29t-30.5 74t31 74t75 29q45 0 75.5 -29t30.5 -74t-31 -74t-75 -29zM333 668q0 27 -16.5 44.5t-44.5 17.5t-44.5 -17.5t-16.5 -44.5q0 -26 16.5 -44t44.5 -18t44.5 18t16.5 44zM522 2q-23 -14 -61 -14q-33 0 -52.5 19
t-19.5 61q-35 -42 -81.5 -61t-100.5 -19q-35 0 -66.5 8t-54.5 25.5t-36.5 45t-13.5 66.5q0 44 15 72t39.5 45t56 26.5t64.5 15.5q35 7 66.5 10.5t55.5 10t38 19t14 36.5q0 28 -10.5 45t-27 26t-37 12t-40.5 3q-54 0 -90 -20.5t-39 -77.5h-85q2 48 20 81t48 53.5t68.5 29.5
t82.5 9q35 0 69.5 -5t62.5 -20.5t45 -43.5t17 -73v-266q0 -30 3.5 -44t23.5 -14q11 0 26 5v-66zM384 267q-16 -12 -42 -17.5t-54.5 -9t-57.5 -8t-52 -14.5t-37.5 -28.5t-14.5 -50.5q0 -21 8.5 -35.5t22 -23.5t31.5 -13t38 -4q42 0 72 11.5t49 29t28 38t9 38.5v87z" />
    <glyph glyph-name="uni01FD" unicode="&#x1fd;" horiz-adv-x="870" 
d="M467 233q0 -35 9.5 -65.5t28.5 -54t48.5 -37t68.5 -13.5q48 0 83.5 24.5t47.5 75.5h87q-19 -85 -77.5 -130t-146.5 -45q-30 0 -58 5t-52.5 16.5t-44 31t-32.5 48.5q-29 -53 -87.5 -77t-130.5 -24q-37 0 -69 8t-55.5 25.5t-37 45t-13.5 66.5q0 44 15 72t39.5 45.5t56 26.5
t64.5 15q47 9 80.5 14t54.5 12.5t31 20t10 35.5q0 26 -10.5 42t-27 24.5t-37.5 11t-42 2.5q-54 0 -90 -20.5t-39 -77.5h-85q2 48 20 81t48 53.5t68.5 29.5t82.5 9q22 0 47.5 -2.5t49.5 -10.5t44 -23t32 -39q26 40 72 57.5t93 17.5q67 0 112 -23.5t72 -64t38 -94.5t11 -114
h-379zM756 308q-1 30 -11 57t-28 46.5t-44 31t-60 11.5t-61 -11t-46 -30.5t-29 -46.5t-10 -58h289zM126 139q0 -21 8.5 -35.5t22 -23.5t31.5 -13t38 -4q42 0 72.5 11.5t50 29t29 38t9.5 38.5v87q-13 -8 -31.5 -13t-39.5 -8.5t-43.5 -6.5t-42.5 -7q-21 -4 -40 -10t-33 -16.5
t-22.5 -26.5t-8.5 -40zM502 732h109l-131 -143h-64z" />
    <glyph glyph-name="uni0109" unicode="&#x109;" horiz-adv-x="537" 
d="M415 351q-10 49 -42 76t-86 27q-46 0 -77 -17t-49.5 -45t-26.5 -64.5t-8 -75.5q0 -36 8.5 -70t26.5 -60.5t46.5 -42.5t69.5 -16q63 0 98.5 33t43.5 93h87q-14 -96 -71.5 -148.5t-156.5 -52.5q-59 0 -104.5 19.5t-76 54.5t-46 83.5t-15.5 106.5t15 108.5t45.5 88t76 59
t107.5 21.5q44 0 82.5 -10.5t68 -32.5t48.5 -55.5t24 -79.5h-88zM238 732h93l104 -143h-84l-69 96l-70 -96h-77z" />
    <glyph glyph-name="uni010D" unicode="&#x10d;" horiz-adv-x="537" 
d="M415 351q-10 49 -42 76t-86 27q-46 0 -77 -17t-49.5 -45t-26.5 -64.5t-8 -75.5q0 -36 8.5 -70t26.5 -60.5t46.5 -42.5t69.5 -16q63 0 98.5 33t43.5 93h87q-14 -96 -71.5 -148.5t-156.5 -52.5q-59 0 -104.5 19.5t-76 54.5t-46 83.5t-15.5 106.5t15 108.5t45.5 88t76 59
t107.5 21.5q44 0 82.5 -10.5t68 -32.5t48.5 -55.5t24 -79.5h-88zM327 589h-93l-104 143h84l69 -96l70 96h77z" />
    <glyph glyph-name="uni010B" unicode="&#x10b;" horiz-adv-x="537" 
d="M415 351q-10 49 -42 76t-86 27q-46 0 -77 -17t-49.5 -45t-26.5 -64.5t-8 -75.5q0 -36 8.5 -70t26.5 -60.5t46.5 -42.5t69.5 -16q63 0 98.5 33t43.5 93h87q-14 -96 -71.5 -148.5t-156.5 -52.5q-59 0 -104.5 19.5t-76 54.5t-46 83.5t-15.5 106.5t15 108.5t45.5 88t76 59
t107.5 21.5q44 0 82.5 -10.5t68 -32.5t48.5 -55.5t24 -79.5h-88zM329 604h-90v104h90v-104z" />
    <glyph glyph-name="uni010F" unicode="&#x10f;" horiz-adv-x="593" 
d="M526 0h-85v70h-2q-21 -43 -66 -62.5t-99 -19.5q-60 0 -104.5 22t-74 59.5t-44.5 86.5t-15 104t14.5 103.5t44 85.5t74 58.5t103.5 21.5q19 0 42.5 -4t46.5 -13.5t43.5 -25t34.5 -38.5h2v266h85v-714zM126 254q0 -36 9.5 -70.5t29 -61.5t50 -43t71.5 -16q43 0 73 17
t49 44.5t27.5 62.5t8.5 71q0 38 -9 73.5t-28.5 62.5t-50.5 43.5t-75 16.5t-73.5 -17t-47.5 -45t-26 -64t-8 -74zM602 714h109l-75 -143h-60z" />
    <glyph glyph-name="uni0111" unicode="&#x111;" horiz-adv-x="598" 
d="M271 636h170v78h85v-78h86v-53h-86v-583h-85v70h-2q-21 -43 -66 -62.5t-99 -19.5q-60 0 -104.5 22t-74 59.5t-44.5 86.5t-15 104t14.5 103.5t44 85.5t74 58.5t103.5 21.5q19 0 42.5 -4t46.5 -13.5t43.5 -25t34.5 -38.5h2v135h-170v53zM126 254q0 -36 9.5 -70.5t29 -61.5
t50 -43t71.5 -16q43 0 73 17t49 44.5t27.5 62.5t8.5 71q0 38 -9 73.5t-28.5 62.5t-50.5 43.5t-75 16.5t-73.5 -17t-47.5 -45t-26 -64t-8 -74z" />
    <glyph glyph-name="uni011B" unicode="&#x11b;" horiz-adv-x="537" 
d="M423 308h-297q2 30 13 56.5t30 46.5t45.5 31.5t59.5 11.5q32 0 58.5 -11.5t46 -31t31 -46.5t13.5 -57zM505 164h-84q-11 -51 -45.5 -76t-88.5 -25q-42 0 -73 14t-51 37.5t-29 54t-8 64.5h387q2 47 -8.5 99t-38 96t-73 72.5t-114.5 28.5q-53 0 -97.5 -20t-77 -56
t-50.5 -85t-18 -108q2 -59 17.5 -109t46.5 -86t76.5 -56t107.5 -20q88 0 146 44t75 131zM232 608l-103 143h83l69 -99l70 99h77l-103 -143h-93z" />
    <glyph glyph-name="uni0113" unicode="&#x113;" horiz-adv-x="537" 
d="M505 164q-17 -87 -75 -131.5t-146 -44.5q-62 0 -107.5 20.5t-76.5 56.5t-46.5 86t-17.5 109q0 58 18 107.5t50.5 85.5t77 56t97.5 20q69 0 114.5 -28.5t73 -72.5t38 -96t8.5 -99h-387q-1 -34 8 -64.5t29 -54t51 -37.5t73 -14q54 0 88.5 25t45.5 76h84zM423 308
q-2 30 -13.5 57t-31 46.5t-46 31t-58.5 11.5q-33 0 -59.5 -11.5t-45.5 -31.5t-30 -46.5t-13 -56.5h297zM111 682h341v-55h-341v55z" />
    <glyph glyph-name="uni0115" unicode="&#x115;" horiz-adv-x="537" 
d="M505 164q-17 -87 -75 -131.5t-146 -44.5q-62 0 -107.5 20.5t-76.5 56.5t-46.5 86t-17.5 109q0 58 18 107.5t50.5 85.5t77 56t97.5 20q69 0 114.5 -28.5t73 -72.5t38 -96t8.5 -99h-387q-1 -34 8 -64.5t29 -54t51 -37.5t73 -14q54 0 88.5 25t45.5 76h84zM423 308
q-2 30 -13.5 57t-31 46.5t-46 31t-58.5 11.5q-33 0 -59.5 -11.5t-45.5 -31.5t-30 -46.5t-13 -56.5h297zM175 729q24 -83 112 -83q43 0 63.5 22.5t35.5 60.5h51q-11 -64 -51.5 -101t-106.5 -37q-69 0 -106.5 35.5t-47.5 102.5h50z" />
    <glyph glyph-name="uni0117" unicode="&#x117;" horiz-adv-x="537" 
d="M505 164q-17 -87 -75 -131.5t-146 -44.5q-62 0 -107.5 20.5t-76.5 56.5t-46.5 86t-17.5 109q0 58 18 107.5t50.5 85.5t77 56t97.5 20q69 0 114.5 -28.5t73 -72.5t38 -96t8.5 -99h-387q-1 -34 8 -64.5t29 -54t51 -37.5t73 -14q54 0 88.5 25t45.5 76h84zM423 308
q-2 30 -13.5 57t-31 46.5t-46 31t-58.5 11.5q-33 0 -59.5 -11.5t-45.5 -31.5t-30 -46.5t-13 -56.5h297zM326 604h-90v104h90v-104z" />
    <glyph glyph-name="uni011D" unicode="&#x11d;" horiz-adv-x="574" 
d="M510 44q0 -128 -58 -191t-182 -63q-36 0 -73.5 8t-68 26t-50.5 47t-22 71h85q1 -23 14.5 -39t33 -26t42.5 -14.5t44 -4.5q42 0 71 14.5t48 40t27.5 61.5t8.5 80v34h-2q-22 -48 -66.5 -71t-94.5 -23q-58 0 -101 21t-72 57t-43.5 83.5t-14.5 100.5q0 46 12 94t40 88
t73.5 65.5t113.5 25.5q49 0 90 -21.5t64 -64.5h1v74h80v-473zM272 69q42 0 71.5 17.5t47.5 46t26.5 64.5t8.5 72q0 34 -8 67t-25.5 59.5t-45.5 42.5t-68 16q-41 0 -70 -15.5t-47.5 -41.5t-27 -60t-8.5 -71q0 -35 7 -70t24 -63.5t45 -46t70 -17.5zM240 732h93l104 -143h-84
l-69 96l-70 -96h-77z" />
    <glyph glyph-name="uni011F" unicode="&#x11f;" horiz-adv-x="574" 
d="M510 44q0 -128 -58 -191t-182 -63q-36 0 -73.5 8t-68 26t-50.5 47t-22 71h85q1 -23 14.5 -39t33 -26t42.5 -14.5t44 -4.5q42 0 71 14.5t48 40t27.5 61.5t8.5 80v34h-2q-22 -48 -66.5 -71t-94.5 -23q-58 0 -101 21t-72 57t-43.5 83.5t-14.5 100.5q0 46 12 94t40 88
t73.5 65.5t113.5 25.5q49 0 90 -21.5t64 -64.5h1v74h80v-473zM272 69q42 0 71.5 17.5t47.5 46t26.5 64.5t8.5 72q0 34 -8 67t-25.5 59.5t-45.5 42.5t-68 16q-41 0 -70 -15.5t-47.5 -41.5t-27 -60t-8.5 -71q0 -35 7 -70t24 -63.5t45 -46t70 -17.5zM180 729q24 -83 112 -83
q43 0 63.5 22.5t35.5 60.5h51q-11 -64 -51.5 -101t-106.5 -37q-69 0 -106.5 35.5t-47.5 102.5h50z" />
    <glyph glyph-name="uni0121" unicode="&#x121;" horiz-adv-x="574" 
d="M510 44q0 -128 -58 -191t-182 -63q-36 0 -73.5 8t-68 26t-50.5 47t-22 71h85q1 -23 14.5 -39t33 -26t42.5 -14.5t44 -4.5q42 0 71 14.5t48 40t27.5 61.5t8.5 80v34h-2q-22 -48 -66.5 -71t-94.5 -23q-58 0 -101 21t-72 57t-43.5 83.5t-14.5 100.5q0 46 12 94t40 88
t73.5 65.5t113.5 25.5q49 0 90 -21.5t64 -64.5h1v74h80v-473zM272 69q42 0 71.5 17.5t47.5 46t26.5 64.5t8.5 72q0 34 -8 67t-25.5 59.5t-45.5 42.5t-68 16q-41 0 -70 -15.5t-47.5 -41.5t-27 -60t-8.5 -71q0 -35 7 -70t24 -63.5t45 -46t70 -17.5zM331 604h-90v104h90v-104z
" />
    <glyph glyph-name="uni0123" unicode="&#x123;" horiz-adv-x="574" 
d="M510 44q0 -128 -58 -191t-182 -63q-36 0 -73.5 8t-68 26t-50.5 47t-22 71h85q1 -23 14.5 -39t33 -26t42.5 -14.5t44 -4.5q42 0 71 14.5t48 40t27.5 61.5t8.5 80v34h-2q-22 -48 -66.5 -71t-94.5 -23q-58 0 -101 21t-72 57t-43.5 83.5t-14.5 100.5q0 46 12 94t40 88
t73.5 65.5t113.5 25.5q49 0 90 -21.5t64 -64.5h1v74h80v-473zM272 69q42 0 71.5 17.5t47.5 46t26.5 64.5t8.5 72q0 34 -8 67t-25.5 59.5t-45.5 42.5t-68 16q-41 0 -70 -15.5t-47.5 -41.5t-27 -60t-8.5 -71q0 -35 7 -70t24 -63.5t45 -46t70 -17.5zM341 626h-111v77
q0 43 27 63t72 20v-35q-15 -4 -23.5 -8.5t-12 -9.5t-4 -10t-0.5 -9h52v-88z" />
    <glyph glyph-name="uni0125" unicode="&#x125;" 
d="M64 714h85v-273h2q10 24 28 40.5t40.5 27t47 15.5t47.5 5q51 0 85 -14t55 -39t29.5 -59.5t8.5 -76.5v-340h-85v350q0 48 -28 76t-77 28q-39 0 -67.5 -12t-47.5 -34t-28.5 -51.5t-9.5 -64.5v-292h-85v714zM223 922h93l104 -143h-84l-69 96l-70 -96h-77z" />
    <glyph glyph-name="uni0127" unicode="&#x127;" horiz-adv-x="561" 
d="M-17 583v53h86v78h85v-78h170v-53h-170v-142h2q10 24 28 40.5t40.5 27t47 15.5t47.5 5q51 0 85 -14t55 -39t29.5 -59.5t8.5 -76.5v-340h-85v350q0 48 -28 76t-77 28q-39 0 -67.5 -12t-47.5 -34t-28.5 -51.5t-9.5 -64.5v-292h-85v583h-86z" />
    <glyph glyph-name="uni012D" unicode="&#x12d;" horiz-adv-x="222" 
d="M69 0v517h85v-517h-85zM6 729q24 -83 112 -83q43 0 63.5 22.5t35.5 60.5h51q-11 -64 -51.5 -101t-106.5 -37q-69 0 -106.5 35.5t-47.5 102.5h50z" />
    <glyph glyph-name="uni0129" unicode="&#x129;" horiz-adv-x="222" 
d="M69 0h85v517h-85v-517zM190 683q22 0 34.5 14.5t15.5 40.5h49q-10 -70 -37.5 -95.5t-66.5 -25.5q-20 0 -38 8t-36 18t-35.5 18t-35.5 8q-46 0 -55 -51h-47q10 61 35.5 89t67.5 28q20 0 39 -8t37 -18t36.5 -18t36.5 -8z" />
    <glyph glyph-name="uni012B" unicode="&#x12b;" horiz-adv-x="222" 
d="M69 0v517h85v-517h-85zM-58 682h341v-55h-341v55z" />
    <glyph glyph-name="uni012F" unicode="&#x12f;" horiz-adv-x="222" 
d="M154 610h-85v104h85v-104zM69 0v517h85v-517q-23 -22 -37.5 -38.5t-22.5 -30.5t-11.5 -25.5t-3.5 -23.5q0 -19 9 -30.5t25 -11.5q19 0 32 8t24 22l28 -18q-19 -34 -41.5 -48t-49.5 -14q-36 0 -62.5 18t-26.5 60q0 11 4 25.5t15 31.5t30.5 36t51.5 39h-49z" />
    <glyph glyph-name="uni0237" unicode="&#x237;" horiz-adv-x="222" 
d="M154 -66q0 -69 -33.5 -100.5t-90.5 -31.5q-24 0 -44 4v73q5 -1 9 -1.5t8 -0.5h18q28 0 38 15.5t10 55.5v569h85v-583z" />
    <glyph glyph-name="uni0135" unicode="&#x135;" horiz-adv-x="222" 
d="M154 -66q0 -69 -33.5 -100.5t-90.5 -31.5q-24 0 -44 4v73q5 -1 9 -1.5t8 -0.5h18q28 0 38 15.5t10 55.5v569h85v-583zM64 732h93l104 -143h-84l-69 96l-70 -96h-77z" />
    <glyph glyph-name="uni0137" unicode="&#x137;" horiz-adv-x="519" 
d="M69 714h85v-423l236 226h114l-205 -188l220 -329h-108l-177 270l-80 -74v-196h-85v714zM220 -50h111v-77q0 -43 -27 -63t-72 -20v35q15 4 23.5 8.5t12 9.5t4 9.5t0.5 9.5h-52v88z" />
    <glyph glyph-name="uni0138" unicode="&#x138;" horiz-adv-x="514" 
d="M64 517h85v-226l236 226h114l-205 -188l220 -329h-108l-177 270l-80 -74v-196h-85v517z" />
    <glyph glyph-name="uni013A" unicode="&#x13a;" horiz-adv-x="222" 
d="M69 714h85v-714h-85v714zM151 922h109l-131 -143h-64z" />
    <glyph glyph-name="uni013E" unicode="&#x13e;" horiz-adv-x="302" 
d="M69 714h85v-714h-85v714zM221 714h76v-264h-76v264z" />
    <glyph glyph-name="uni013C" unicode="&#x13c;" horiz-adv-x="222" 
d="M69 714h85v-714h-85v714zM56 -50h111v-77q0 -43 -27 -63t-72 -20v35q15 4 23.5 8.5t12 9.5t4 9.5t0.5 9.5h-52v88z" />
    <glyph glyph-name="uni0140" unicode="&#x140;" horiz-adv-x="342" 
d="M69 714h85v-714h-85v714zM315 337h-90v104h90v-104z" />
    <glyph glyph-name="uni0148" unicode="&#x148;" 
d="M64 517h80v-82h2q53 94 168 94q51 0 85 -14t55 -39t29.5 -59.5t8.5 -76.5v-340h-85v350q0 48 -28 76t-77 28q-39 0 -67.5 -12t-47.5 -34t-28.5 -51.5t-9.5 -64.5v-292h-85v517zM326 589h-93l-104 143h84l69 -96l70 96h77z" />
    <glyph glyph-name="uni0146" unicode="&#x146;" 
d="M64 517h80v-82h2q53 94 168 94q51 0 85 -14t55 -39t29.5 -59.5t8.5 -76.5v-340h-85v350q0 48 -28 76t-77 28q-39 0 -67.5 -12t-47.5 -34t-28.5 -51.5t-9.5 -64.5v-292h-85v517zM221 -50h111v-77q0 -43 -27 -63t-72 -20v35q15 4 23.5 8.5t12 9.5t4 9.5t0.5 9.5h-52v88z
" />
    <glyph glyph-name="uni0149" unicode="&#x149;" horiz-adv-x="663" 
d="M171 517h80v-82h2q53 94 168 94q51 0 85 -14t55 -39t29.5 -59.5t8.5 -76.5v-340h-85v350q0 48 -28 76t-77 28q-39 0 -67.5 -12t-47.5 -34t-28.5 -51.5t-9.5 -64.5v-292h-85v517zM18 714h111v-111q0 -30 -6.5 -56.5t-20 -46.5t-34.5 -32t-49 -12v50q17 0 28 8.5t18 22.5
t9.5 31.5t2.5 34.5h-59v111z" />
    <glyph glyph-name="uni014D" unicode="&#x14d;" horiz-adv-x="574" 
d="M36 258q0 57 16 106.5t48 86t78.5 57.5t108.5 21q61 0 108 -21t79 -57.5t48 -86t16 -106.5t-16 -106t-48 -85.5t-79 -57.5t-108 -21q-62 0 -108.5 21t-78.5 57.5t-48 85.5t-16 106zM126 258q0 -47 12.5 -83.5t34.5 -61t51.5 -37.5t62.5 -13t62.5 13t51.5 37.5t34.5 61
t12.5 83.5t-12.5 83.5t-34.5 61.5t-51.5 38t-62.5 13t-62.5 -13t-51.5 -38t-34.5 -61.5t-12.5 -83.5zM118 682h341v-55h-341v55z" />
    <glyph glyph-name="uni014F" unicode="&#x14f;" horiz-adv-x="574" 
d="M36 258q0 57 16 106.5t48 86t78.5 57.5t108.5 21q61 0 108 -21t79 -57.5t48 -86t16 -106.5t-16 -106t-48 -85.5t-79 -57.5t-108 -21q-62 0 -108.5 21t-78.5 57.5t-48 85.5t-16 106zM126 258q0 -47 12.5 -83.5t34.5 -61t51.5 -37.5t62.5 -13t62.5 13t51.5 37.5t34.5 61
t12.5 83.5t-12.5 83.5t-34.5 61.5t-51.5 38t-62.5 13t-62.5 -13t-51.5 -38t-34.5 -61.5t-12.5 -83.5zM182 729q24 -83 112 -83q43 0 63.5 22.5t35.5 60.5h51q-11 -64 -51.5 -101t-106.5 -37q-69 0 -106.5 35.5t-47.5 102.5h50z" />
    <glyph glyph-name="uni0151" unicode="&#x151;" horiz-adv-x="574" 
d="M36 258q0 57 16 106.5t48 86t78.5 57.5t108.5 21q61 0 108 -21t79 -57.5t48 -86t16 -106.5t-16 -106t-48 -85.5t-79 -57.5t-108 -21q-62 0 -108.5 21t-78.5 57.5t-48 85.5t-16 106zM126 258q0 -47 12.5 -83.5t34.5 -61t51.5 -37.5t62.5 -13t62.5 13t51.5 37.5t34.5 61
t12.5 83.5t-12.5 83.5t-34.5 61.5t-51.5 38t-62.5 13t-62.5 -13t-51.5 -38t-34.5 -61.5t-12.5 -83.5zM409 732h105l-120 -143h-66zM253 732h105l-120 -143h-66z" />
    <glyph glyph-name="uni01FF" unicode="&#x1ff;" horiz-adv-x="574" 
d="M326 732h109l-131 -143h-64zM480 443q29 -35 43.5 -82.5t14.5 -102.5q0 -57 -16 -106t-48 -85.5t-79 -57.5t-108 -21q-52 0 -93 15t-72 42l-60 -67l-28 24l62 69q-30 37 -45 84.5t-15 102.5q0 57 16 106.5t48 86t78.5 57.5t108.5 21q54 0 95 -15t73 -44l58 65l27 -26z
M398 407q-44 47 -111 47q-33 0 -62.5 -13t-51.5 -38t-34.5 -61.5t-12.5 -83.5q0 -36 8 -66t22 -55zM178 108q45 -45 109 -45q33 0 62.5 13t51.5 37.5t34.5 61t12.5 83.5q0 37 -7.5 66.5t-20.5 52.5z" />
    <glyph glyph-name="uni0155" unicode="&#x155;" horiz-adv-x="333" 
d="M61 517h80v-109h2q31 63 76 93t114 28v-90q-51 0 -87 -14t-58 -41t-32 -66t-10 -88v-230h-85v517zM228 732h109l-131 -143h-64z" />
    <glyph glyph-name="uni0159" unicode="&#x159;" horiz-adv-x="333" 
d="M61 517h80v-109h2q31 63 76 93t114 28v-90q-51 0 -87 -14t-58 -41t-32 -66t-10 -88v-230h-85v517zM242 589h-93l-104 143h84l69 -96l70 96h77z" />
    <glyph glyph-name="uni0157" unicode="&#x157;" horiz-adv-x="333" 
d="M61 517h80v-109h2q31 63 76 93t114 28v-90q-51 0 -87 -14t-58 -41t-32 -66t-10 -88v-230h-85v517zM48 -50h111v-77q0 -43 -27 -63t-72 -20v35q15 4 23.5 8.5t12 9.5t4 9.5t0.5 9.5h-52v88z" />
    <glyph glyph-name="uni015D" unicode="&#x15d;" horiz-adv-x="500" 
d="M116 163q1 -29 13 -48t31.5 -30.5t44 -16.5t50.5 -5q20 0 42 3t40.5 11t30.5 23.5t12 39.5q0 33 -25 50t-62.5 27.5t-81.5 19t-81.5 24t-62.5 43.5t-25 78q0 39 17.5 67t45 45.5t62 26t68.5 8.5q43 0 80.5 -7.5t66 -26t45.5 -50t20 -78.5h-85q-2 25 -13 41.5t-28 26.5
t-37.5 14.5t-41.5 4.5q-19 0 -38.5 -3t-35.5 -10.5t-26 -20.5t-10 -32q0 -23 15.5 -37t39.5 -23.5t54 -16t60 -13.5q32 -7 62.5 -17t54 -26.5t38 -41.5t14.5 -62q0 -47 -19.5 -78t-51 -50t-71 -27t-78.5 -8q-44 0 -82.5 9.5t-68.5 30t-48 54t-20 81.5h85zM204 732h93
l104 -143h-84l-69 96l-70 -96h-77z" />
    <glyph glyph-name="uni015F" unicode="&#x15f;" horiz-adv-x="500" 
d="M146 -147q33 -13 65 -13q20 0 39 7t19 24q0 14 -13.5 22.5t-33.5 8.5q-12 0 -21 -2t-20 -6l-17 28l53 68q-38 3 -71 14t-58 32t-40.5 52t-16.5 75h85q1 -29 13 -48t31.5 -30.5t44 -16.5t50.5 -5q20 0 42 3t40.5 11t30.5 23.5t12 39.5q0 33 -25 50t-62.5 27.5t-81.5 19
t-81.5 24t-62.5 43.5t-25 78q0 39 17.5 67t45 45.5t62 26t68.5 8.5q43 0 80.5 -7.5t66 -26t45.5 -50t20 -78.5h-85q-2 25 -13 41.5t-28 26.5t-37.5 14.5t-41.5 4.5q-19 0 -38.5 -3t-35.5 -10.5t-26 -20.5t-10 -32q0 -23 15.5 -37t39.5 -23.5t54 -16t60 -13.5q32 -7 62.5 -17
t54 -26.5t38 -41.5t14.5 -62q0 -45 -19 -76t-49 -50t-68 -27.5t-77 -9.5l-32 -41l2 -2q14 7 33 7q32 0 58 -18t26 -55q0 -25 -11.5 -42t-29.5 -27.5t-40 -15t-43 -4.5q-45 0 -92 19z" />
    <glyph glyph-name="uni0219" unicode="&#x219;" horiz-adv-x="500" 
d="M116 163q1 -29 13 -48t31.5 -30.5t44 -16.5t50.5 -5q20 0 42 3t40.5 11t30.5 23.5t12 39.5q0 33 -25 50t-62.5 27.5t-81.5 19t-81.5 24t-62.5 43.5t-25 78q0 39 17.5 67t45 45.5t62 26t68.5 8.5q43 0 80.5 -7.5t66 -26t45.5 -50t20 -78.5h-85q-2 25 -13 41.5t-28 26.5
t-37.5 14.5t-41.5 4.5q-19 0 -38.5 -3t-35.5 -10.5t-26 -20.5t-10 -32q0 -23 15.5 -37t39.5 -23.5t54 -16t60 -13.5q32 -7 62.5 -17t54 -26.5t38 -41.5t14.5 -62q0 -47 -19.5 -78t-51 -50t-71 -27t-78.5 -8q-44 0 -82.5 9.5t-68.5 30t-48 54t-20 81.5h85zM197 -50h111v-77
q0 -43 -27 -63t-72 -20v35q15 4 23.5 8.5t12 9.5t4 9.5t0.5 9.5h-52v88z" />
    <glyph glyph-name="uni0165" unicode="&#x165;" horiz-adv-x="315" 
d="M273 714h109l-75 -143h-60zM182 517h103v-75h-103v-321q0 -15 2.5 -24t9.5 -14t19.5 -6.5t32.5 -1.5h39v-75h-65q-33 0 -56.5 4.5t-38 16.5t-21.5 34t-7 58v329h-88v75h88v155h85v-155z" />
    <glyph glyph-name="uni0163" unicode="&#x163;" horiz-adv-x="315" 
d="M182 517h103v-75h-103v-321q0 -15 2.5 -24t9.5 -14t19.5 -6.5t32.5 -1.5h39v-75h-65q-33 0 -56.5 4.5t-38 16.5t-21.5 34t-7 58v329h-88v75h88v155h85v-155zM103 -144q12 -5 28.5 -9t32.5 -4q10 0 21 1.5t20 5.5t15 9.5t6 14.5q0 14 -13.5 22.5t-33.5 8.5q-12 0 -21 -2
t-20 -6l-17 28l61 77h42l-42 -52l2 -2q10 7 33 7q32 0 58 -18t26 -55q0 -25 -11.5 -42t-29.5 -27.5t-40 -15t-43 -4.5q-24 0 -46.5 5.5t-45.5 13.5z" />
    <glyph glyph-name="uni021B" unicode="&#x21b;" horiz-adv-x="315" 
d="M182 517h103v-75h-103v-321q0 -15 2.5 -24t9.5 -14t19.5 -6.5t32.5 -1.5h39v-75h-65q-33 0 -56.5 4.5t-38 16.5t-21.5 34t-7 58v329h-88v75h88v155h85v-155zM130 -50h111v-77q0 -43 -27 -63t-72 -20v35q15 4 23.5 8.5t12 9.5t4 9.5t0.5 9.5h-52v88z" />
    <glyph glyph-name="uni0167" unicode="&#x167;" horiz-adv-x="315" 
d="M14 346h83v96h-88v75h88v155h85v-155h103v-75h-103v-96h95v-55h-95v-170q0 -15 2.5 -24t9.5 -14t19.5 -6.5t32.5 -1.5h39v-75h-65q-33 0 -56.5 4.5t-38 16.5t-21.5 34t-7 58v178h-83v55z" />
    <glyph glyph-name="uni0169" unicode="&#x169;" 
d="M492 0v517h-85v-292q0 -35 -9.5 -64.5t-28.5 -51.5t-47.5 -34t-67.5 -12q-49 0 -77 28t-28 76v350h-85v-340q0 -42 8.5 -76.5t29.5 -59.5t55 -38.5t85 -13.5q57 0 99 22.5t69 70.5h2v-82h80zM355 683q22 0 34.5 14.5t15.5 40.5h49q-10 -70 -37.5 -95.5t-66.5 -25.5
q-20 0 -38 8t-36 18t-35.5 18t-35.5 8q-46 0 -55 -51h-47q10 61 35.5 89t67.5 28q20 0 39 -8t37 -18t36.5 -18t36.5 -8z" />
    <glyph glyph-name="uni016B" unicode="&#x16b;" 
d="M492 0h-80v82h-2q-53 -94 -168 -94q-51 0 -85 14t-55 39t-29.5 59.5t-8.5 76.5v340h85v-350q0 -48 28 -76t77 -28q39 0 67.5 12t47.5 34t28.5 51.5t9.5 64.5v292h85v-517zM108 682h341v-55h-341v55z" />
    <glyph glyph-name="uni016D" unicode="&#x16d;" 
d="M492 0h-80v82h-2q-53 -94 -168 -94q-51 0 -85 14t-55 39t-29.5 59.5t-8.5 76.5v340h85v-350q0 -48 28 -76t77 -28q39 0 67.5 12t47.5 34t28.5 51.5t9.5 64.5v292h85v-517zM172 729q24 -83 112 -83q43 0 63.5 22.5t35.5 60.5h51q-11 -64 -51.5 -101t-106.5 -37
q-69 0 -106.5 35.5t-47.5 102.5h50z" />
    <glyph glyph-name="uni016F" unicode="&#x16f;" 
d="M492 0h-80v82h-2q-53 -94 -168 -94q-51 0 -85 14t-55 39t-29.5 59.5t-8.5 76.5v340h85v-350q0 -48 28 -76t77 -28q39 0 67.5 12t47.5 34t28.5 51.5t9.5 64.5v292h85v-517zM165 681q0 23 9 43.5t24.5 35.5t36 24t43.5 9t43.5 -9t36 -24t24.5 -35.5t9 -43.5t-9 -43.5
t-24.5 -35.5t-36 -24t-43.5 -9t-43.5 9t-36 24t-24.5 35.5t-9 43.5zM211 680q0 -29 19 -48.5t48 -19.5t48 19.5t19 48.5t-19 48.5t-48 19.5t-48 -19.5t-19 -48.5z" />
    <glyph glyph-name="uni0171" unicode="&#x171;" 
d="M492 0h-80v82h-2q-53 -94 -168 -94q-51 0 -85 14t-55 39t-29.5 59.5t-8.5 76.5v340h85v-350q0 -48 28 -76t77 -28q39 0 67.5 12t47.5 34t28.5 51.5t9.5 64.5v292h85v-517zM399 732h105l-120 -143h-66zM243 732h105l-120 -143h-66z" />
    <glyph glyph-name="uni0173" unicode="&#x173;" 
d="M492 0h-40q-26 -21 -42 -38t-25.5 -31t-13 -26t-3.5 -23q0 -19 10.5 -30.5t30.5 -11.5q35 0 59 30l32 -18q-20 -35 -48.5 -48.5t-59.5 -13.5q-38 0 -65 18t-27 58q0 32 26.5 66t85.5 68v82h-2q-53 -94 -168 -94q-51 0 -85 14t-55 39t-29.5 59.5t-8.5 76.5v340h85v-350
q0 -48 28 -76t77 -28q39 0 67.5 12t47.5 34t28.5 51.5t9.5 64.5v292h85v-517z" />
    <glyph glyph-name="uni1E83" unicode="&#x1e83;" horiz-adv-x="758" 
d="M576 0h-90l-105 411h-2l-104 -411h-92l-166 517h94l117 -423h2l104 423h93l108 -423h2l116 423h88zM418 732h109l-131 -143h-64z" />
    <glyph glyph-name="uni0175" unicode="&#x175;" horiz-adv-x="758" 
d="M576 0h-90l-105 411h-2l-104 -411h-92l-166 517h94l117 -423h2l104 423h93l108 -423h2l116 423h88zM336 732h93l104 -143h-84l-69 96l-70 -96h-77z" />
    <glyph glyph-name="uni1E85" unicode="&#x1e85;" horiz-adv-x="758" 
d="M576 0h-90l-105 411h-2l-104 -411h-92l-166 517h94l117 -423h2l104 423h93l108 -423h2l116 423h88zM431 706h90v-104h-90v104zM243 706h90v-104h-90v104z" />
    <glyph glyph-name="uni1E81" unicode="&#x1e81;" horiz-adv-x="758" 
d="M576 0h-90l-105 411h-2l-104 -411h-92l-166 517h94l117 -423h2l104 423h93l108 -423h2l116 423h88zM232 732h109l86 -143h-64z" />
    <glyph glyph-name="uni0177" unicode="&#x177;" horiz-adv-x="500" 
d="M267 -69q-15 -38 -29.5 -64t-32 -42.5t-39 -24t-49.5 -7.5q-15 0 -30 2t-29 7v78q12 -4 24.5 -8t25.5 -4q26 0 42 12t28 35l35 88l-205 514h96l151 -423h2l145 423h90zM209 732h93l104 -143h-84l-69 96l-70 -96h-77z" />
    <glyph glyph-name="uni1EF3" unicode="&#x1ef3;" horiz-adv-x="500" 
d="M267 -69q-15 -38 -29.5 -64t-32 -42.5t-39 -24t-49.5 -7.5q-15 0 -30 2t-29 7v78q11 -5 25.5 -8.5t24.5 -3.5q26 0 43.5 12.5t26.5 35.5l35 87l-205 514h96l151 -423h2l145 423h90zM214 770l96 -162h-64l-140 162h108z" />
    <glyph glyph-name="uni0132" unicode="&#x132;" horiz-adv-x="770" 
d="M82 714h95v-714h-95v714zM273 235h95v-30q0 -31 5 -57t17.5 -45t35 -29.5t57.5 -10.5q65 0 89.5 35t24.5 94v522h95v-536q0 -36 -10.5 -71t-35 -62.5t-65 -44.5t-100.5 -17q-100 0 -154 53t-54 155v44z" />
    <glyph glyph-name="uni0133" unicode="&#x133;" horiz-adv-x="438" 
d="M154 610h-85v104h85v-104zM69 517h85v-517h-85v517zM370 610h-85v104h85v-104zM370 -66q0 -69 -33.5 -100.5t-90.5 -31.5q-24 0 -44 4v73q5 -1 9 -1.5t8 -0.5h18q28 0 38 15.5t10 55.5v569h85v-583z" />
    <glyph glyph-name="uniE000" horiz-adv-x="222" 
d="M-23 922h109l86 -143h-64z" />
    <glyph glyph-name="uniE002" horiz-adv-x="222" 
d="M136 922h109l-131 -143h-64z" />
    <glyph glyph-name="uniE004" horiz-adv-x="222" 
d="M64 922h93l104 -143h-84l-69 96l-70 -96h-77z" />
    <glyph glyph-name="uniE006" horiz-adv-x="222" 
d="M158 779h-93l-104 143h84l69 -96l70 96h77z" />
    <glyph glyph-name="uniE008" horiz-adv-x="222" 
d="M106 714h109l-75 -143h-60z" />
    <glyph glyph-name="uniE009" horiz-adv-x="222" 
d="M285 907q-6 -44 -32 -79q-13 -16 -29.5 -24t-39.5 -8q-21 0 -39 6t-36 14q-18 7 -35 13t-31 6q-19 0 -31 -12q-6 -5 -9.5 -11t-8.5 -19h-52q10 46 34.5 78t71.5 32q20 0 38 -6.5t35 -14t33.5 -13.5t32.5 -6q18 0 29 12t17 32h52z" />
    <glyph glyph-name="uniE00B" horiz-adv-x="222" 
d="M160 897h90v-104h-90v104zM-28 897h90v-104h-90v104z" />
    <glyph glyph-name="uniE00D" horiz-adv-x="222" 
d="M-59 872h341v-55h-341v55z" />
    <glyph glyph-name="uni02C9" unicode="&#x2c9;" horiz-adv-x="222" 
d="M-59 682h341v-55h-341v55z" />
    <glyph glyph-name="uniE00F" horiz-adv-x="222" 
d="M5 919q24 -83 112 -83q43 0 63.5 22.5t35.5 60.5h51q-11 -64 -51.5 -101t-106.5 -37q-69 0 -106.5 35.5t-47.5 102.5h50z" />
    <glyph glyph-name="uniE011" horiz-adv-x="222" 
d="M-2 861q0 23 9 43.5t24.5 35.5t36 24t43.5 9t43.5 -9t36 -24t24.5 -35.5t9 -43.5t-9 -43.5t-24.5 -35.5t-36 -24t-43.5 -9t-43.5 9t-36 24t-24.5 35.5t-9 43.5zM44 860q0 -29 19 -48.5t48 -19.5t48 19.5t19 48.5t-19 48.5t-48 19.5t-48 -19.5t-19 -48.5z" />
    <glyph glyph-name="uniE013" horiz-adv-x="222" 
d="M189 922h105l-120 -143h-66zM33 922h105l-120 -143h-66z" />
    <glyph glyph-name="uniE015" horiz-adv-x="222" 
d="M156 793h-90v104h90v-104z" />
    <glyph glyph-name="uniE017" horiz-adv-x="278" 
d="M81 -50h111v-77q0 -43 -27 -63t-72 -20v35q15 4 23.5 8.5t12 9.5t4 9.5t0.5 9.5h-52v88z" />
    <glyph glyph-name="uniE01A" horiz-adv-x="278" 
d="M194 626h-111v77q0 43 27 63t72 20v-35q-15 -4 -23.5 -8.5t-12 -9.5t-4 -10t-0.5 -9h52v-88z" />
    <glyph glyph-name="uni00AD" unicode="&#xad;" horiz-adv-x="389" 
d="M50 318h289v-80h-289v80z" />
    <glyph glyph-name="uni2219" unicode="&#x2219;" horiz-adv-x="278" 
d="M75 311q0 26 19 45t45 19t45 -19t19 -45q0 -24 -19 -44t-44 -20q-26 0 -45.5 19t-19.5 45z" />
    <glyph glyph-name="uni2215" unicode="&#x2215;" horiz-adv-x="167" 
d="M269 725h64l-435 -753h-64z" />
    <glyph glyph-name="uni2153" unicode="&#x2153;" horiz-adv-x="834" 
d="M565 725h64l-435 -753h-64zM229 280h-68v308h-115v50q49 0 86 15t47 56h50v-429zM612 247h24q33 0 56.5 15.5t23.5 50.5q0 30 -19.5 47.5t-50.5 17.5q-43 0 -62 -25.5t-21 -63.5h-66q2 65 41.5 104t107.5 39q61 0 99 -31t38 -84q0 -32 -20.5 -55t-48.5 -33v-2
q45 -11 65.5 -37t20.5 -64q0 -33 -13 -58t-34.5 -42t-50 -26t-59.5 -9q-72 0 -114 36.5t-42 105.5h66q1 -42 24 -65t68 -23q40 0 64 20t24 58t-25 56t-59 18h-37v50z" />
    <glyph glyph-name="uni215B" unicode="&#x215b;" horiz-adv-x="834" 
d="M578 725h64l-435 -753h-64zM239 280h-68v308h-115v50q49 0 86 15t47 56h50v-429zM652 -9q-33 0 -60.5 8t-47.5 24.5t-31 41t-11 56.5q0 41 22.5 67.5t55.5 38.5v2q-60 23 -60 87q0 48 35 82t99 34t98.5 -31t34.5 -85q0 -63 -61 -86v-2q38 -11 58.5 -38t20.5 -68
q0 -32 -11.5 -56t-32 -41t-48.5 -25.5t-61 -8.5zM653 381q-32 0 -51 -17.5t-19 -47.5q0 -31 19 -49t51 -18t51.5 18t19.5 49q0 32 -20 48.5t-51 16.5zM653 42q38 0 61.5 21.5t23.5 59.5q0 35 -23.5 57.5t-61.5 22.5q-37 0 -60.5 -22.5t-23.5 -57.5q0 -38 23.5 -59.5
t60.5 -21.5z" />
    <glyph glyph-name="uni2154" unicode="&#x2154;" horiz-adv-x="834" 
d="M609 725h64l-435 -753h-64zM35 558q1 69 42 111.5t113 42.5q62 0 101 -34t39 -92q0 -28 -8 -49t-22 -38.5t-33.5 -31t-42.5 -26.5l-40 -22q-35 -20 -55.5 -40t-25.5 -44h221v-55h-297q2 38 11.5 66.5t25 50.5t36.5 38.5t46 30.5l48 26q40 22 54 41t14 51q0 33 -19 53
t-54 20q-47 0 -66 -29.5t-20 -69.5h-68zM626 247h24q33 0 56.5 15.5t23.5 50.5q0 30 -19.5 47.5t-50.5 17.5q-43 0 -62 -25.5t-21 -63.5h-66q2 65 41.5 104t107.5 39q61 0 99 -31t38 -84q0 -32 -20.5 -55t-48.5 -33v-2q45 -11 65.5 -37t20.5 -64q0 -33 -13 -58t-34.5 -42
t-50 -26t-59.5 -9q-72 0 -114 36.5t-42 105.5h66q1 -42 24 -65t68 -23q40 0 64 20t24 58t-25 56t-59 18h-37v50z" />
    <glyph glyph-name="uni215C" unicode="&#x215c;" horiz-adv-x="834" 
d="M614 725h64l-435 -753h-64zM168 527h24q33 0 56.5 15.5t23.5 50.5q0 30 -19.5 47.5t-50.5 17.5q-43 0 -62 -25.5t-21 -63.5h-66q2 65 41.5 104t107.5 39q61 0 99 -31t38 -84q0 -32 -20.5 -55t-48.5 -33v-2q45 -11 65.5 -37t20.5 -64q0 -33 -13 -58t-34.5 -42t-50 -26
t-59.5 -9q-72 0 -114 36.5t-42 105.5h66q1 -42 24 -65t68 -23q40 0 64 20t24 58t-25 56t-59 18h-37v50zM647 -9q-33 0 -60.5 8t-47.5 24.5t-31 41t-11 56.5q0 41 22.5 67.5t55.5 38.5v2q-60 23 -60 87q0 48 35 82t99 34t98.5 -31t34.5 -85q0 -63 -61 -86v-2q38 -11 58.5 -38
t20.5 -68q0 -32 -11.5 -56t-32 -41t-48.5 -25.5t-61 -8.5zM648 381q-32 0 -51 -17.5t-19 -47.5q0 -31 19 -49t51 -18t51.5 18t19.5 49q0 32 -20 48.5t-51 16.5zM648 42q38 0 61.5 21.5t23.5 59.5q0 35 -23.5 57.5t-61.5 22.5q-37 0 -60.5 -22.5t-23.5 -57.5
q0 -38 23.5 -59.5t60.5 -21.5z" />
    <glyph glyph-name="uni215D" unicode="&#x215d;" horiz-adv-x="834" 
d="M614 725h64l-435 -753h-64zM102 703h225v-55h-174l-24 -113l4 -1q17 15 38 22t43 7q67 0 103.5 -37.5t36.5 -101.5q0 -27 -9 -54t-28 -49t-48.5 -36t-69.5 -14q-63 0 -105 31.5t-45 96.5h68q2 -35 24 -54.5t58 -19.5q44 0 65.5 26t21.5 72q0 38 -21.5 63.5t-66.5 25.5
q-24 0 -44 -11t-32 -31h-65zM647 -9q-33 0 -60.5 8t-47.5 24.5t-31 41t-11 56.5q0 41 22.5 67.5t55.5 38.5v2q-60 23 -60 87q0 48 35 82t99 34t98.5 -31t34.5 -85q0 -63 -61 -86v-2q38 -11 58.5 -38t20.5 -68q0 -32 -11.5 -56t-32 -41t-48.5 -25.5t-61 -8.5zM648 381
q-32 0 -51 -17.5t-19 -47.5q0 -31 19 -49t51 -18t51.5 18t19.5 49q0 32 -20 48.5t-51 16.5zM648 42q38 0 61.5 21.5t23.5 59.5q0 35 -23.5 57.5t-61.5 22.5q-37 0 -60.5 -22.5t-23.5 -57.5q0 -38 23.5 -59.5t60.5 -21.5z" />
    <glyph glyph-name="uni215E" unicode="&#x215e;" horiz-adv-x="834" 
d="M569 725h64l-435 -753h-64zM76 703h288v-52q-67 -76 -108 -165t-50 -206h-74q8 103 52 197t111 169h-219v57zM632 -9q-33 0 -60.5 8t-47.5 24.5t-31 41t-11 56.5q0 41 22.5 67.5t55.5 38.5v2q-60 23 -60 87q0 48 35 82t99 34t98.5 -31t34.5 -85q0 -63 -61 -86v-2
q38 -11 58.5 -38t20.5 -68q0 -32 -11.5 -56t-32 -41t-48.5 -25.5t-61 -8.5zM633 381q-32 0 -51 -17.5t-19 -47.5q0 -31 19 -49t51 -18t51.5 18t19.5 49q0 32 -20 48.5t-51 16.5zM633 42q38 0 61.5 21.5t23.5 59.5q0 35 -23.5 57.5t-61.5 22.5q-37 0 -60.5 -22.5t-23.5 -57.5
q0 -38 23.5 -59.5t60.5 -21.5z" />
    <glyph glyph-name="uni0394" unicode="&#x394;" horiz-adv-x="648" 
d="M-4 0l276 714h105l276 -714h-657zM124 80h394l-193 549h-2z" />
    <glyph glyph-name="uni03BC" unicode="&#x3bc;" 
d="M492 0h-80v82h-2q-29 -48 -69.5 -71t-87.5 -23q-31 0 -56.5 9t-42.5 26h-2v-221h-85v715h85v-350q0 -48 27.5 -76t75.5 -28q38 0 66.5 12t47.5 34t28.5 51.5t9.5 64.5v292h85v-517z" />
    <glyph glyph-name="uni2113" unicode="&#x2113;" horiz-adv-x="500" 
d="M415 41q-59 -55 -130 -55q-55 0 -91 31.5t-36 96.5v114l-58 -62h-2l-26 37l86 84v259q0 42 10 74.5t27.5 55t41 34t50.5 11.5q48 0 79 -34t31 -94q0 -74 -43.5 -153t-127.5 -165v-150q0 -26 7 -43t18 -26.5t24 -13.5t26 -4q20 0 42.5 9t45.5 29h2zM340 588q0 38 -15 61.5
t-38 23.5t-42 -28t-19 -88v-222q56 65 85 130.5t29 122.5z" />
    <glyph glyph-name="uni212E" unicode="&#x212e;" horiz-adv-x="760" 
d="M192 348v-236q77 -77 189 -77q81 0 142 37t110 120l46 -28q-30 -47 -61 -80t-66.5 -54.5t-77.5 -31.5t-93 -10q-77 0 -139 28t-106 76.5t-68 114.5t-24 141q0 76 24 142t68 114.5t106 76.5t139 28q75 0 137.5 -26.5t106.5 -74.5t69 -114.5t25 -145.5h-527zM572 396v189
q-83 78 -192 78q-110 0 -188 -78v-189h380z" />
    <glyph glyph-name="uni014B" unicode="&#x14b;" 
d="M64 517h80v-82h2q53 94 168 94q51 0 85 -14t55 -39t29.5 -59.5t8.5 -76.5v-390q0 -80 -38.5 -114t-105.5 -34q-15 0 -33 1.5t-32 5.5v73q14 -2 28 -3.5t28 -1.5q38 0 53 18t15 69v386q0 48 -28 76t-77 28q-39 0 -67.5 -12t-47.5 -34t-28.5 -51.5t-9.5 -64.5v-292h-85v517
z" />
    <glyph glyph-name="uni014A" unicode="&#x14a;" horiz-adv-x="722" 
d="M556 -17l-387 590h-2v-573h-90v714h101l376 -579h2v579h90v-754q0 -44 -11 -74t-31.5 -49t-50.5 -27t-68 -8q-16 0 -37.5 2t-38.5 7v78q16 -3 33.5 -5t32.5 -2q22 0 37.5 4t25 14t14 28t4.5 47v8z" />
    <glyph glyph-name="uniF001" horiz-adv-x="518" 
d="M99 442h-87v75h87v77q0 63 36.5 95.5t106.5 32.5q12 0 27.5 -2t27.5 -6v-74q-11 4 -24 5.5t-24 1.5q-31 0 -48 -12t-17 -46v-72h100v-75h-100v-442h-85v442zM365 610v104h85v-104h-85zM365 0v517h85v-517h-85z" />
    <glyph glyph-name="uniF002" horiz-adv-x="518" 
d="M99 442h-87v75h87v77q0 63 36.5 95.5t106.5 32.5q12 0 27.5 -2t27.5 -6v-74q-11 4 -24 5.5t-24 1.5q-31 0 -48 -12t-17 -46v-72h100v-75h-100v-442h-85v442zM365 714h85v-714h-85v714z" />
    <glyph glyph-name="uni2010" unicode="&#x2010;" horiz-adv-x="389" 
d="M50 318h289v-80h-289v80z" />
    <glyph glyph-name="uni2015" unicode="&#x2015;" horiz-adv-x="1000" 
d="M100 318h800v-80h-800v80z" />
    <glyph glyph-name="uni203D" unicode="&#x203d;" 
d="M303 650q46 -4 80 -18.5t56 -37t33 -51.5t11 -60q0 -33 -12.5 -60.5t-30.5 -50.5t-40 -43.5t-40 -40.5t-30.5 -40.5t-12.5 -44.5v-29h-79l-20 320v79q-19 -5 -33.5 -15t-24.5 -23t-16 -27t-8 -27h-82q2 27 13.5 53.5t32 49t50 38.5t68.5 24v68h85v-64zM399 481
q0 37 -22.5 65.5t-73.5 32.5v-85l-16 -183q18 20 37.5 39t36 39t27.5 42.5t11 49.5zM218 111h111v-111h-111v111z" />
    <glyph glyph-name="uni2070" unicode="&#x2070;" horiz-adv-x="370" 
d="M186 829q35 0 63 -12t47.5 -38.5t29.5 -68.5t10 -101q0 -117 -42 -169t-110 -52q-71 0 -110.5 50t-39.5 169q0 118 42 170t110 52zM185 774q-38 0 -59.5 -36.5t-21.5 -129.5q0 -91 21.5 -128t59.5 -37t59.5 36.5t21.5 129.5q0 91 -21.5 128t-59.5 37z" />
    <glyph glyph-name="uni2074" unicode="&#x2074;" horiz-adv-x="370" 
d="M339 499h-56v-102h-66v102h-192v68l192 253h66v-266h56v-55zM80 554h137v181h-2z" />
    <glyph glyph-name="uni2075" unicode="&#x2075;" horiz-adv-x="370" 
d="M84 820h225v-55h-174l-24 -113l4 -1q17 15 38 22t43 7q67 0 103.5 -37.5t36.5 -101.5q0 -27 -9 -54t-28 -49t-48.5 -36t-69.5 -14q-63 0 -105 31.5t-45 96.5h68q2 -35 24 -54.5t58 -19.5q44 0 65.5 26t21.5 72q0 38 -21.5 63.5t-66.5 25.5q-24 0 -44 -11t-32 -31h-65z
" />
    <glyph glyph-name="uni2076" unicode="&#x2076;" horiz-adv-x="370" 
d="M263 720q-4 28 -22 41.5t-45 13.5t-44.5 -13.5t-28.5 -35t-15.5 -48t-5.5 -51.5l1 -1q16 24 42.5 36t56.5 12q67 0 101 -39.5t34 -100.5q0 -66 -40 -106t-106 -40q-156 0 -156 213q0 43 8.5 84.5t28 73t51 51t76.5 19.5q54 0 89 -27.5t39 -81.5h-64zM189 441
q38 0 59.5 24.5t21.5 69.5q0 41 -22 64.5t-60 23.5t-60 -26.5t-22 -61.5q0 -42 23 -68t60 -26z" />
    <glyph glyph-name="uni2077" unicode="&#x2077;" horiz-adv-x="370" 
d="M43 820h288v-52q-67 -76 -108 -165t-50 -206h-74q8 103 52 197t111 169h-219v57z" />
    <glyph glyph-name="uni2078" unicode="&#x2078;" horiz-adv-x="370" 
d="M183 388q-33 0 -60.5 8t-47.5 24.5t-31 41t-11 56.5q0 41 22.5 67.5t55.5 38.5v2q-60 23 -60 87q0 48 35 82t99 34t98.5 -31t34.5 -85q0 -63 -61 -86v-2q38 -11 58.5 -38t20.5 -68q0 -32 -11.5 -56t-32 -41t-48.5 -25.5t-61 -8.5zM184 778q-32 0 -51 -17.5t-19 -47.5
q0 -31 19 -49t51 -18t51.5 18t19.5 49q0 32 -20 48.5t-51 16.5zM184 439q38 0 61.5 21.5t23.5 59.5q0 35 -23.5 57.5t-61.5 22.5q-37 0 -60.5 -22.5t-23.5 -57.5q0 -38 23.5 -59.5t60.5 -21.5z" />
    <glyph glyph-name="uni2079" unicode="&#x2079;" horiz-adv-x="370" 
d="M108 497q4 -28 22 -41.5t45 -13.5t44.5 13.5t28.5 35t15.5 48t5.5 51.5l-1 1q-16 -24 -42.5 -36t-56.5 -12q-67 0 -101 39.5t-34 100.5q0 66 40 106t106 40q156 0 156 -213q0 -44 -8.5 -85t-28 -72.5t-51 -51t-76.5 -19.5q-54 0 -89 27.5t-39 81.5h64zM182 776
q-38 0 -60 -24.5t-22 -69.5q0 -41 22.5 -64.5t60.5 -23.5t60.5 26.5t22.5 61.5q0 42 -23.5 68t-60.5 26z" />
    <glyph glyph-name="uni207A" unicode="&#x207a;" horiz-adv-x="400" 
d="M169 707h63v-124h128v-62h-128v-124h-63v124h-128v62h128v124z" />
    <glyph glyph-name="uni207B" unicode="&#x207b;" horiz-adv-x="250" 
d="M35 594h180v-64h-180v64z" />
    <glyph glyph-name="uni207C" unicode="&#x207c;" horiz-adv-x="400" 
d="M360 581h-319v62h319v-62zM360 457h-319v62h319v-62z" />
    <glyph glyph-name="uni207D" unicode="&#x207d;" horiz-adv-x="190" 
d="M124 318q-18 30 -34 60.5t-27.5 64.5t-18 72t-6.5 82q0 75 24.5 144.5t66.5 134.5h54q-37 -66 -56 -133.5t-19 -145.5q0 -77 18.5 -145t56.5 -134h-59z" />
    <glyph glyph-name="uni207E" unicode="&#x207e;" horiz-adv-x="190" 
d="M66 876q37 -59 61.5 -125t24.5 -154q0 -75 -24.5 -144.5t-66.5 -134.5h-54q37 66 56 133.5t19 145.5q0 77 -18.5 145t-56.5 134h59z" />
    <glyph glyph-name="uni207F" unicode="&#x207f;" horiz-adv-x="370" 
d="M42 710h66v-46q17 26 43.5 40.5t61.5 14.5q59 0 87 -33t28 -84v-205h-67v189q0 36 -15.5 57t-53.5 21q-41 0 -62.5 -27t-21.5 -66v-174h-66v313z" />
    <glyph glyph-name="uni2080" unicode="&#x2080;" horiz-adv-x="370" 
d="M186 263q35 0 63 -12t47.5 -38.5t29.5 -68.5t10 -101q0 -117 -42 -169t-110 -52q-71 0 -110.5 50t-39.5 169q0 118 42 170t110 52zM185 208q-38 0 -59.5 -36.5t-21.5 -129.5q0 -91 21.5 -128t59.5 -37t59.5 36.5t21.5 129.5q0 91 -21.5 128t-59.5 37z" />
    <glyph glyph-name="uni2081" unicode="&#x2081;" horiz-adv-x="370" 
d="M242 -169h-68v304h-115v50q49 0 86 15t47 56h50v-425z" />
    <glyph glyph-name="uni2082" unicode="&#x2082;" horiz-adv-x="370" 
d="M39 109q1 69 42 111.5t113 42.5q62 0 101 -34t39 -92q0 -28 -8 -49t-22 -38.5t-33.5 -31t-42.5 -26.5l-40 -22q-35 -20 -55.5 -40t-25.5 -44h221v-55h-297q2 38 11.5 66.5t25 50.5t36.5 38.5t46 30.5l48 26q40 22 54 41t14 51q0 33 -19 53t-54 20q-47 0 -66 -29.5
t-20 -69.5h-68z" />
    <glyph glyph-name="uni2083" unicode="&#x2083;" horiz-adv-x="370" 
d="M154 78h24q33 0 56.5 15.5t23.5 50.5q0 30 -19.5 47.5t-50.5 17.5q-43 0 -62 -25.5t-21 -63.5h-66q2 65 41.5 104t107.5 39q61 0 99 -31t38 -84q0 -32 -20.5 -55t-48.5 -33v-2q45 -11 65.5 -37t20.5 -64q0 -33 -13 -58t-34.5 -42t-50 -26t-59.5 -9q-72 0 -114 36.5
t-42 105.5h66q1 -42 24 -65t68 -23q40 0 64 20t24 58t-25 56t-59 18h-37v50z" />
    <glyph glyph-name="uni2084" unicode="&#x2084;" horiz-adv-x="370" 
d="M339 -67h-56v-102h-66v102h-192v68l192 253h66v-266h56v-55zM80 -12h137v181h-2z" />
    <glyph glyph-name="uni2085" unicode="&#x2085;" horiz-adv-x="370" 
d="M84 254h225v-55h-174l-24 -113l4 -1q17 15 38 22t43 7q67 0 103.5 -37.5t36.5 -101.5q0 -27 -9 -54t-28 -49t-48.5 -36t-69.5 -14q-63 0 -105 31.5t-45 96.5h68q2 -35 24 -54.5t58 -19.5q44 0 65.5 26t21.5 72q0 38 -21.5 63.5t-66.5 25.5q-24 0 -44 -11t-32 -31h-65z
" />
    <glyph glyph-name="uni2086" unicode="&#x2086;" horiz-adv-x="370" 
d="M263 154q-4 28 -22 41.5t-45 13.5t-44.5 -13.5t-28.5 -35t-15.5 -48t-5.5 -51.5l1 -1q16 24 42.5 36t56.5 12q67 0 101 -39.5t34 -100.5q0 -66 -40 -106t-106 -40q-156 0 -156 213q0 43 8.5 84.5t28 73t51 51t76.5 19.5q54 0 89 -27.5t39 -81.5h-64zM189 -125
q38 0 59.5 24.5t21.5 69.5q0 41 -22 64.5t-60 23.5t-60 -26.5t-22 -61.5q0 -42 23 -68t60 -26z" />
    <glyph glyph-name="uni2087" unicode="&#x2087;" horiz-adv-x="370" 
d="M43 254h288v-52q-67 -76 -108 -165t-50 -206h-74q8 103 52 197t111 169h-219v57z" />
    <glyph glyph-name="uni2088" unicode="&#x2088;" horiz-adv-x="370" 
d="M183 -178q-33 0 -60.5 8t-47.5 24.5t-31 41t-11 56.5q0 41 22.5 67.5t55.5 38.5v2q-60 23 -60 87q0 48 35 82t99 34t98.5 -31t34.5 -85q0 -63 -61 -86v-2q38 -11 58.5 -38t20.5 -68q0 -32 -11.5 -56t-32 -41t-48.5 -25.5t-61 -8.5zM184 212q-32 0 -51 -17.5t-19 -47.5
q0 -31 19 -49t51 -18t51.5 18t19.5 49q0 32 -20 48.5t-51 16.5zM184 -127q38 0 61.5 21.5t23.5 59.5q0 35 -23.5 57.5t-61.5 22.5q-37 0 -60.5 -22.5t-23.5 -57.5q0 -38 23.5 -59.5t60.5 -21.5z" />
    <glyph glyph-name="uni2089" unicode="&#x2089;" horiz-adv-x="370" 
d="M108 -69q4 -28 22 -41.5t45 -13.5t44.5 13.5t28.5 35t15.5 48t5.5 51.5l-1 1q-16 -24 -42.5 -36t-56.5 -12q-67 0 -101 39.5t-34 100.5q0 66 40 106t106 40q156 0 156 -213q0 -44 -8.5 -85t-28 -72.5t-51 -51t-76.5 -19.5q-54 0 -89 27.5t-39 81.5h64zM182 210
q-38 0 -60 -24.5t-22 -69.5q0 -41 22.5 -64.5t60.5 -23.5t60.5 26.5t22.5 61.5q0 42 -23.5 68t-60.5 26z" />
    <glyph glyph-name="uni208A" unicode="&#x208a;" horiz-adv-x="400" 
d="M169 141h63v-124h128v-62h-128v-124h-63v124h-128v62h128v124z" />
    <glyph glyph-name="uni208B" unicode="&#x208b;" horiz-adv-x="250" 
d="M35 28h180v-64h-180v64z" />
    <glyph glyph-name="uni208C" unicode="&#x208c;" horiz-adv-x="400" 
d="M360 15h-319v62h319v-62zM360 -109h-319v62h319v-62z" />
    <glyph glyph-name="uni208D" unicode="&#x208d;" horiz-adv-x="190" 
d="M124 -248q-18 30 -34 60.5t-27.5 64.5t-18 72t-6.5 82q0 75 24.5 144.5t66.5 134.5h54q-37 -66 -56 -133.5t-19 -145.5q0 -77 18.5 -145t56.5 -134h-59z" />
    <glyph glyph-name="uni208E" unicode="&#x208e;" horiz-adv-x="190" 
d="M66 310q37 -59 61.5 -125t24.5 -154q0 -75 -24.5 -144.5t-66.5 -134.5h-54q37 66 56 133.5t19 145.5q0 77 -18.5 145t-56.5 134h59z" />
    <glyph glyph-name="uni2105" unicode="&#x2105;" horiz-adv-x="834" 
d="M600 725h64l-435 -753h-64zM269 568q-3 47 -23.5 65.5t-50.5 18.5q-44 0 -65.5 -35.5t-21.5 -128.5q0 -47 6 -78t17 -50t27 -27t37 -8q35 0 54.5 20.5t21.5 68.5h72q-8 -77 -46.5 -111.5t-102.5 -34.5q-77 0 -118 52t-41 168q0 110 39.5 165.5t124.5 55.5q131 0 142 -141
h-72zM637 -12q-75 0 -117.5 50t-42.5 170q0 118 44.5 169.5t117.5 51.5q75 0 117.5 -50t42.5 -170q0 -59 -11.5 -101t-33 -68.5t-51.5 -39t-66 -12.5zM638 44q21 0 37.5 8t27.5 27.5t17 51t6 78.5q0 91 -23 127.5t-65 36.5q-21 0 -37.5 -8t-27.5 -27.5t-17 -51t-6 -78.5
q0 -46 6 -77t17 -50.5t27.5 -28t37.5 -8.5z" />
    <glyph glyph-name="uni2117" unicode="&#x2117;" horiz-adv-x="800" 
d="M24 359q0 79 30 147t81.5 118t120 78.5t145.5 28.5q76 0 144.5 -28.5t119.5 -78.5t81 -118t30 -147q0 -81 -30 -149.5t-81 -119t-119.5 -79t-144.5 -28.5q-77 0 -145.5 28.5t-120 79t-81.5 119t-30 149.5zM92 359q0 -69 23.5 -127.5t65 -101.5t98 -67.5t122.5 -24.5
q65 0 121 24.5t97.5 67.5t65 101.5t23.5 127.5q0 67 -23.5 125t-65 100.5t-97.5 67t-121 24.5q-66 0 -122.5 -24.5t-98 -67t-65 -100.5t-23.5 -125zM265 576h169q78 0 115.5 -34t37.5 -93q0 -60 -37 -95t-110 -35h-107v-180h-68v437zM333 374h100q47 0 66.5 18.5t19.5 55.5
q0 34 -20 53.5t-68 19.5h-98v-147z" />
    <glyph glyph-name="uni0374" unicode="&#x374;" horiz-adv-x="222" 
d="M115 561h-67l38 171h106z" />
    <glyph glyph-name="uni0375" unicode="&#x375;" horiz-adv-x="222" 
d="M101 -32h67l-38 -171h-106z" />
    <glyph glyph-name="uni037E" unicode="&#x37e;" horiz-adv-x="278" 
d="M194 406h-111v111h111v-111zM83 111h111v-101q1 -57 -25.5 -98.5t-84.5 -58.5v50q16 6 28 17.5t19 25t9.5 28t1.5 26.5h-59v111z" />
    <glyph glyph-name="uni0384" unicode="&#x384;" horiz-adv-x="241" 
d="M121 732h110l-75 -143h-68z" />
    <glyph glyph-name="uniE01B" horiz-adv-x="241" 
d="M121 714h110l-75 -143h-68z" />
    <glyph glyph-name="uni0385" unicode="&#x385;" horiz-adv-x="332" 
d="M147 732h88l-63 -143h-62zM337 602h-84v104h84v-104zM79 602h-84v104h84v-104z" />
    <glyph glyph-name="uni0386" unicode="&#x386;" horiz-adv-x="655" 
d="M279 714h105l279 -714h-105l-78 215h-302l-80 -215h-98zM450 295l-119 333h-2l-121 -333h242zM77 714h110l-75 -143h-68z" />
    <glyph glyph-name="uni0387" unicode="&#x387;" horiz-adv-x="278" 
d="M194 406h-111v111h111v-111z" />
    <glyph glyph-name="uni0388" unicode="&#x388;" horiz-adv-x="754" 
d="M44 714h110l-75 -143h-68zM221 714h493v-80h-398v-227h371v-80h-371v-247h401v-80h-496v714z" />
    <glyph glyph-name="uni0389" unicode="&#x389;" horiz-adv-x="865" 
d="M44 714h110l-75 -143h-68zM221 714h95v-307h376v307h95v-714h-95v327h-376v-327h-95v714z" />
    <glyph glyph-name="uni038A" unicode="&#x38a;" horiz-adv-x="394" 
d="M44 714h110l-75 -143h-68zM221 714h95v-714h-95v714z" />
    <glyph glyph-name="uni038C" unicode="&#x38c;" horiz-adv-x="865" 
d="M44 714h110l-75 -143h-68zM143 357q0 73 21.5 140.5t64.5 119.5t107 83t149 31t149 -31t107 -83t64.5 -119.5t21.5 -140.5t-21.5 -140.5t-64.5 -119.5t-107 -83t-149 -31t-149 31t-107 83t-64.5 119.5t-21.5 140.5zM238 357q0 -54 14 -106.5t44 -94.5t77 -67.5t112 -25.5
t112 25.5t77 67.5t44 94.5t14 106.5t-14 106.5t-44 94.5t-77 67.5t-112 25.5t-112 -25.5t-77 -67.5t-44 -94.5t-14 -106.5z" />
    <glyph glyph-name="uni038E" unicode="&#x38e;" horiz-adv-x="842" 
d="M44 714h110l-75 -143h-68zM567 292v-292h-95v292l-276 422h113l214 -340l209 340h108z" />
    <glyph glyph-name="uni038F" unicode="&#x38f;" horiz-adv-x="868" 
d="M44 714h110l-75 -143h-68zM836 0h-282v72q88 60 132 143.5t44 186.5q0 52 -16.5 97t-47 79t-75 53.5t-100.5 19.5q-55 0 -100 -18.5t-77 -52.5t-49.5 -82t-17.5 -106q0 -102 45 -181t135 -139v-72h-283v80h171v4q-82 57 -122.5 132t-40.5 175q0 73 25 135t70 107.5
t107 71.5t137 26q78 0 139.5 -26.5t105 -71.5t66.5 -105t23 -127q0 -201 -164 -317v-4h175v-80z" />
    <glyph glyph-name="uni0390" unicode="&#x390;" horiz-adv-x="237" 
d="M154 517v-405q0 -50 35 -50q8 0 16.5 1.5t18.5 3.5v-66q-16 -7 -31 -10t-35 -3q-45 0 -67 24.5t-22 77.5v427h85zM104 732h88l-63 -143h-62zM294 602h-84v104h84v-104zM36 602h-84v104h84v-104z" />
    <glyph glyph-name="uni0391" unicode="&#x391;" horiz-adv-x="648" 
d="M272 714h105l279 -714h-105l-78 215h-302l-80 -215h-98zM443 295l-119 333h-2l-121 -333h242z" />
    <glyph glyph-name="uni0392" unicode="&#x392;" horiz-adv-x="685" 
d="M78 714h259q23 0 49.5 -0.5t52.5 -3t48.5 -7.5t38.5 -15q35 -21 59.5 -58t24.5 -91q0 -57 -27.5 -98.5t-78.5 -61.5v-2q66 -14 101 -60t35 -112q0 -39 -14 -76t-41.5 -65.5t-68 -46t-93.5 -17.5h-345v714zM363 407q81 0 116.5 28.5t35.5 85.5q0 37 -12 59.5t-33 34.5
t-48.5 15.5t-58.5 3.5h-190v-227h190zM411 80q63 0 98.5 34t35.5 94q0 35 -13 58t-34.5 36.5t-49.5 19t-58 5.5h-217v-247h238z" />
    <glyph glyph-name="uni0393" unicode="&#x393;" horiz-adv-x="552" 
d="M78 714h468v-80h-373v-634h-95v714z" />
    <glyph glyph-name="uni0395" unicode="&#x395;" horiz-adv-x="611" 
d="M78 714h493v-80h-398v-227h371v-80h-371v-247h401v-80h-496v714z" />
    </font>
</defs>
</svg>
