<?xml version="1.0" standalone="no"?>
<!DOCTYPE svg PUBLIC "-//W3C//DTD SVG 1.1//EN" "http://www.w3.org/Graphics/SVG/1.1/DTD/svg11.dtd" >
<svg xmlns="http://www.w3.org/2000/svg" xmlns:xlink="http://www.w3.org/1999/xlink" version="1.1">
<metadata>
Created by FontForge 20201107 at Fri Feb  5 22:10:35 2021
 By Jimmy Wärting
Copyright (c) 1981, 1982, 1983, 1989 and 1993, Linotype Library GmbH or its affiliated Linotype-Hell companies. All rights reserved.

The digitally encoded machine readable software for producing the Typefaces licensed to you is now the property of Heidelberger Druckmaschinen AG and its licensors, and may not be reproduced, used, displayed, modified, disclosed or transferred without the express written approval of Heidelberger Druckmaschinen AG.

Copyright (c) 1988, 1990, 1993 Adobe Systems Incorporated. All Rights Reserved.
</metadata>
<defs>
<font id="HelveticaNeue-Bold" horiz-adv-x="611" >
  <font-face 
    font-family="Helvetica Neue"
    font-weight="700"
    font-stretch="normal"
    units-per-em="1000"
    panose-1="2 0 8 3 0 0 0 9 0 4"
    ascent="800"
    descent="-200"
    x-height="517"
    cap-height="714"
    bbox="-1018 -481 1437 1141"
    underline-thickness="50"
    underline-position="-125"
    unicode-range="U+0008-FFA7"
  />
    <missing-glyph />
    <glyph glyph-name="fi" unicode="fi" 
d="M85 422v-422h142v422h98v95h-98v31q0 32 12.5 45.5t41.5 13.5q27 0 52 -3v106q-18 1 -37 2.5t-38 1.5q-87 0 -130 -44t-43 -113v-40h-85v-95h85zM411 517v-517h142v517h-142zM553 597v117h-142v-117h142z" />
    <glyph glyph-name="fl" unicode="fl" 
d="M85 422v-422h142v422h98v95h-98v31q0 32 12.5 45.5t41.5 13.5q27 0 52 -3v106q-18 1 -37 2.5t-38 1.5q-87 0 -130 -44t-43 -113v-40h-85v-95h85zM411 714v-714h142v714h-142z" />
    <glyph glyph-name="uniFB00" unicode="ff" horiz-adv-x="636" 
d="M388 422h-161v-422h-142v422h-85v95h85v40q0 69 43 113t130 44q19 0 38 -1.5t37 -2.5v-106q-26 3 -52 3q-29 0 -41.5 -13.5t-12.5 -45.5v-31h161v40q0 69 43 113t130 44q19 0 38 -1.5t37 -2.5v-106q-26 3 -52 3q-29 0 -41.5 -13.5t-12.5 -45.5v-31h98v-95h-98v-422h-142
v422z" />
    <glyph glyph-name="uniFB03" unicode="ffi" horiz-adv-x="894" 
d="M388 422h-161v-422h-142v422h-85v95h85v40q0 69 43 113t130 44q19 0 38 -1.5t37 -2.5v-106q-26 3 -52 3q-29 0 -41.5 -13.5t-12.5 -45.5v-31h161v40q0 69 43 113t130 44q19 0 38 -1.5t37 -2.5v-106q-26 3 -52 3q-29 0 -41.5 -13.5t-12.5 -45.5v-31h98v-95h-98v-422h-142
v422zM836 597h-142v117h142v-117zM694 517h142v-517h-142v517z" />
    <glyph glyph-name="uniFB04" unicode="ffl" horiz-adv-x="894" 
d="M388 422h-161v-422h-142v422h-85v95h85v40q0 69 43 113t130 44q19 0 38 -1.5t37 -2.5v-106q-26 3 -52 3q-29 0 -41.5 -13.5t-12.5 -45.5v-31h161v40q0 69 43 113t130 44q19 0 38 -1.5t37 -2.5v-106q-26 3 -52 3q-29 0 -41.5 -13.5t-12.5 -45.5v-31h98v-95h-98v-422h-142
v422zM694 714h142v-714h-142v714z" />
    <glyph glyph-name=".null" horiz-adv-x="0" 
 />
    <glyph glyph-name=".null" horiz-adv-x="0" 
 />
    <glyph glyph-name="uni000A" horiz-adv-x="0" 
 />
    <glyph glyph-name="space" unicode="&#xa;" horiz-adv-x="278" 
 />
    <glyph glyph-name="space" unicode=" " horiz-adv-x="278" 
 />
    <glyph glyph-name="controlHT" horiz-adv-x="0" 
 />
    <glyph glyph-name="nonmarkingreturn" unicode="&#x9;" horiz-adv-x="278" 
 />
    <glyph glyph-name="controlGS" unicode="&#xd;" horiz-adv-x="278" 
 />
    <glyph glyph-name="controlBS" horiz-adv-x="0" 
 />
    <glyph glyph-name="exclam" unicode="!" horiz-adv-x="278" 
d="M61 154v-154h157v154h-157zM213 522v192h-148v-192l38 -308h71z" />
    <glyph glyph-name="quotedbl" unicode="&#x22;" horiz-adv-x="463" 
d="M85 714v-321h107v321h-107zM271 714v-321h107v321h-107z" />
    <glyph glyph-name="numbersign" unicode="#" horiz-adv-x="556" 
d="M243 412h96l-17 -124h-97zM116 198l-28 -198h97l28 198h96l-27 -198h97l27 198h87v90h-74l17 124h87v90h-74l27 198h-97l-27 -198h-97l28 198h-97l-28 -198h-95v-90h83l-18 -124h-95v-90h83z" />
    <glyph glyph-name="dollar" unicode="$" horiz-adv-x="556" 
d="M141 232h-141q10 -118 73 -179t175 -69v-85h59v85q75 5 123 30t76.5 57t39.5 65.5t11 55.5q0 25 -3.5 57t-22.5 64t-59 61.5t-114 49.5q-14 4 -26.5 7t-24.5 6v177q34 0 58 -28t25 -68h142q-3 52 -22 90t-49 63.5t-69.5 40t-84.5 19.5v77h-59v-77q-45 -3 -87 -17.5
t-74 -41t-51.5 -65.5t-19.5 -90q0 -50 17 -83.5t45.5 -56t64.5 -36t73 -23.5q10 -2 18.5 -4.5t13.5 -4.5v-209q-46 9 -77 42t-30 90zM307 100v192q59 -16 83.5 -35.5t24.5 -58.5q0 -24 -10 -41.5t-25.5 -29.5t-35 -18.5t-37.5 -8.5zM248 614v-163q-48 11 -69 29t-21 51
q0 21 7.5 36.5t20.5 26t29 15.5t33 5z" />
    <glyph glyph-name="percent" unicode="%" horiz-adv-x="1000" 
d="M693 182q0 17 1.5 38t8.5 39t20.5 30t37.5 12q22 0 34.5 -13.5t18.5 -32t7.5 -39t1.5 -35.5q0 -16 -1.5 -36.5t-8 -39t-20 -31.5t-36.5 -13q-24 0 -37 13t-19 31.5t-7 39.5t-1 37zM591 183q0 -41 8.5 -77t28 -62.5t51 -41.5t77.5 -15q44 0 76 14.5t52.5 40.5t30.5 61
t10 76t-8 77t-27.5 62.5t-50.5 42t-78 15.5q-44 0 -76 -15t-53 -41t-31 -61t-10 -76zM668 722l-414 -743h87l412 743h-85zM177 514q0 17 1.5 39t8.5 41t20.5 32t37.5 13q22 0 34.5 -14t18.5 -34t7.5 -41.5t1.5 -36.5q0 -16 -1.5 -35.5t-8 -37t-20 -29.5t-36.5 -12
q-24 0 -37 12t-19 29.5t-7 37.5t-1 36zM75 516q0 -41 8.5 -76.5t28 -61t51 -40t77.5 -14.5q44 0 76 14t52.5 39t30.5 59.5t10 75.5t-8 78t-27.5 64.5t-50.5 43.5t-78 16q-44 0 -76 -15.5t-53 -42.5t-31 -63t-10 -77z" />
    <glyph glyph-name="ampersand" unicode="&#x26;" horiz-adv-x="685" 
d="M464 71l58 -71h174l-145 169q30 38 47 83t22 93h-123q-3 -22 -9 -43.5t-17 -41.5l-92 113q54 29 90.5 72t36.5 106q0 42 -15.5 74t-42 53.5t-62 32.5t-76.5 11q-36 0 -69.5 -11.5t-59.5 -33t-41.5 -51.5t-15.5 -67q0 -47 19.5 -82t48.5 -70q-31 -15 -60 -35t-51.5 -45.5
t-35.5 -57t-13 -69.5q0 -51 18 -90.5t49 -67t73.5 -41.5t90.5 -14q61 0 109.5 21t91.5 63zM267 315l122 -149q-25 -28 -53.5 -45.5t-66.5 -17.5q-20 0 -38.5 7.5t-32.5 20t-22.5 30t-8.5 36.5q0 22 8.5 40t22.5 33t32 26t37 19zM382 559q0 -39 -21.5 -61t-51.5 -41
q-20 25 -38 49t-18 58q0 28 19 45.5t45 17.5t45.5 -20t19.5 -48z" />
    <glyph glyph-name="quotesingle" unicode="'" horiz-adv-x="278" 
d="M86 714v-321h107v321h-107z" />
    <glyph glyph-name="parenleft" unicode="(" horiz-adv-x="296" 
d="M303 731h-119q-33 -48 -57.5 -105t-41 -118t-25 -122.5t-8.5 -117.5q0 -118 34.5 -232t97.5 -217h118q-57 109 -82.5 224t-25.5 235q0 118 26 232.5t83 220.5z" />
    <glyph glyph-name="parenright" unicode=")" horiz-adv-x="296" 
d="M-6 -181h118q33 47 58 104t41.5 117.5t24.5 122t8 117.5q0 118 -34.5 233t-97.5 218h-117q55 -109 81 -225t26 -236q0 -118 -26.5 -231.5t-81.5 -219.5z" />
    <glyph glyph-name="asterisk" unicode="*" horiz-adv-x="407" 
d="M242 589v125h-80v-125l-113 44l-27 -77l116 -39l-74 -98l67 -49l70 103l74 -103l66 49l-74 98l118 39l-27 77z" />
    <glyph glyph-name="plus" unicode="+" horiz-adv-x="600" 
d="M354 306v199h-107v-199h-199v-107h199v-199h107v199h199v107h-199z" />
    <glyph glyph-name="comma" unicode="," horiz-adv-x="278" 
d="M61 154v-154h72q1 -16 -4 -31.5t-15 -28t-23.5 -21.5t-28.5 -12v-72q32 5 60.5 18.5t49.5 34.5t33.5 49.5t12.5 62.5v154h-157z" />
    <glyph glyph-name="hyphen" unicode="-" horiz-adv-x="407" 
d="M53 334v-122h301v122h-301z" />
    <glyph glyph-name="period" unicode="." horiz-adv-x="278" 
d="M60 154v-154h157v154h-157z" />
    <glyph glyph-name="slash" unicode="/" horiz-adv-x="371" 
d="M268 731l-278 -747h113l279 747h-114z" />
    <glyph glyph-name="zero" unicode="0" horiz-adv-x="556" 
d="M163 353q0 18 0.5 43.5t3.5 52.5t10 53.5t19.5 47.5t32 34t48.5 13t49 -13t33 -34t19.5 -47.5t10 -53.5t4 -52.5t0.5 -43.5q0 -30 -2 -72.5t-12.5 -82t-34 -67.5t-67.5 -28q-43 0 -66 28t-33.5 67.5t-12.5 82t-2 72.5zM21 353q0 -105 20.5 -175.5t55.5 -112.5t81.5 -60
t98.5 -18q53 0 99.5 18t82 60t56 112.5t20.5 175.5q0 102 -20.5 171.5t-56 111.5t-82 60t-99.5 18q-52 0 -98.5 -18t-81.5 -60t-55.5 -111.5t-20.5 -171.5z" />
    <glyph glyph-name="one" unicode="1" horiz-adv-x="556" 
d="M392 0v700h-113q-6 -40 -25 -67t-46.5 -43.5t-62 -23t-71.5 -5.5v-107h176v-454h142z" />
    <glyph glyph-name="two" unicode="2" horiz-adv-x="556" 
d="M37 431h136q0 28 5.5 56.5t18.5 52t34.5 38t52.5 14.5q46 0 75.5 -28.5t29.5 -79.5q0 -32 -14.5 -57t-36 -45t-47.5 -36.5t-49 -32.5q-45 -31 -85.5 -61t-70.5 -65.5t-47.5 -80.5t-17.5 -106h514v122h-331q26 36 60 63t70 50.5t71.5 47.5t63.5 53.5t45 67.5t17 91
q0 51 -19.5 92t-52.5 69t-76.5 43t-91.5 15q-63 0 -111.5 -21.5t-80.5 -60t-48 -90t-14 -111.5z" />
    <glyph glyph-name="three" unicode="3" horiz-adv-x="556" 
d="M228 417v-100q26 0 54.5 -1.5t52.5 -11t39.5 -30.5t15.5 -61q0 -51 -33 -80.5t-81 -29.5q-31 0 -53.5 11t-37.5 29.5t-23 44t-9 53.5h-135q-1 -61 17.5 -108t52.5 -79.5t82.5 -49.5t107.5 -17q51 0 98 15t83 44t57.5 72t21.5 98q0 60 -33 103t-91 56v2q49 14 73.5 53
t24.5 90q0 47 -21 83t-54.5 61t-75.5 37.5t-84 12.5q-54 0 -98 -17.5t-75.5 -49.5t-49 -76.5t-19.5 -98.5h135q-1 54 26.5 89.5t81.5 35.5q39 0 69 -24t30 -69q0 -30 -14.5 -48t-37 -27.5t-48.5 -11.5t-49 0z" />
    <glyph glyph-name="four" unicode="4" horiz-adv-x="556" 
d="M312 522v-243h-184l181 243h3zM312 162v-162h135v162h93v117h-93v421h-127l-304 -408v-130h296z" />
    <glyph glyph-name="five" unicode="5" horiz-adv-x="556" 
d="M500 583v117h-391l-69 -387h128q21 29 45 42.5t62 13.5q29 0 51 -10t38 -28t24 -42t8 -51q0 -26 -8.5 -50.5t-24 -43t-38 -30t-50.5 -11.5q-48 0 -79 28.5t-36 76.5h-142q1 -55 22.5 -96.5t57.5 -69.5t82.5 -41.5t97.5 -13.5q53 -1 100 17.5t82.5 52.5t56.5 80.5
t21 100.5q0 49 -14.5 92.5t-42 75.5t-67.5 51t-92 19q-42 0 -75 -12.5t-62 -41.5l-2 2l28 159h289z" />
    <glyph glyph-name="six" unicode="6" horiz-adv-x="556" 
d="M286 363q27 0 47.5 -11.5t33.5 -30t19.5 -42t6.5 -48.5q0 -24 -7 -47t-21 -41t-33.5 -29t-45.5 -11q-27 0 -48 11t-35.5 29.5t-22 42t-7.5 47.5q0 26 7 49.5t21 41.5t35.5 28.5t49.5 10.5zM388 520h135q-6 47 -25 83t-49 60.5t-69 37.5t-84 13q-75 0 -127 -33t-85 -85.5
t-48 -117.5t-15 -130q0 -67 12 -131.5t43 -115.5t83 -82.5t131 -31.5q55 0 100 19.5t77.5 54t50 81t17.5 100.5q0 42 -13 83t-41 73q-30 33 -73 52.5t-88 19.5q-51 0 -90 -18t-68 -60l-2 2q1 29 8 66t22 69.5t40.5 55t63.5 22.5q37 0 62 -26t32 -61z" />
    <glyph glyph-name="seven" unicode="7" horiz-adv-x="556" 
d="M517 578v122h-478v-132h332q-100 -121 -161.5 -266t-73.5 -302h152q1 70 16.5 151t44 160t71 149t97.5 118z" />
    <glyph glyph-name="eight" unicode="8" horiz-adv-x="556" 
d="M172 510q0 24 8.5 42t23.5 30t34.5 18.5t40.5 6.5q33 0 53.5 -10t32 -25t15.5 -31.5t4 -30.5q0 -45 -30 -68.5t-75 -23.5q-43 0 -75 23.5t-32 68.5zM43 523q0 -52 26 -91t77 -53v-2q-63 -15 -97.5 -60t-34.5 -112q0 -57 22.5 -98t60 -68t85 -39.5t98.5 -12.5
q49 0 96 13.5t84 40.5t59.5 68t22.5 97q0 66 -34 111.5t-97 59.5v2q51 17 76.5 56t25.5 91q0 26 -12 58.5t-39.5 61t-72.5 48.5t-110 20q-43 0 -85 -12t-75.5 -36t-54.5 -60t-21 -83zM156 212q0 54 36 82.5t88 28.5q25 0 46.5 -8t38 -23t26 -35.5t9.5 -45.5q0 -26 -9 -48
t-25.5 -37.5t-38 -24t-47.5 -8.5q-25 0 -48 8.5t-39.5 24t-26.5 37.5t-10 49z" />
    <glyph glyph-name="nine" unicode="9" horiz-adv-x="556" 
d="M270 337q-27 0 -47.5 11.5t-33.5 30t-19.5 42t-6.5 48.5q0 24 7 47t21 41t34 29t45 11q27 0 48 -11t35.5 -29.5t22 -42t7.5 -47.5q0 -26 -7 -49.5t-21 -41.5t-35 -28.5t-50 -10.5zM168 180h-135q6 -46 25 -82t49 -61t69 -37.5t84 -12.5q75 0 127 32.5t85 85t48 117.5
t15 130q0 66 -12 131t-43 116.5t-82.5 83t-131.5 31.5q-55 0 -100 -20t-77.5 -54.5t-50 -81t-17.5 -100.5q0 -42 13 -83t41 -73q30 -33 73 -52.5t88 -19.5q51 0 90 18t68 60l2 -2q-2 -29 -8.5 -66t-21.5 -69.5t-40 -55t-64 -22.5q-37 0 -62 26t-32 61z" />
    <glyph glyph-name="colon" unicode=":" horiz-adv-x="278" 
d="M218 354v154h-157v-154h157zM61 154v-154h157v154h-157z" />
    <glyph glyph-name="semicolon" unicode=";" horiz-adv-x="278" 
d="M218 354v154h-157v-154h157zM61 154v-154h72q1 -16 -4 -31.5t-15 -28t-23.5 -21.5t-28.5 -12v-72q32 5 60.5 18.5t49.5 34.5t33.5 49.5t12.5 62.5v154h-157z" />
    <glyph glyph-name="less" unicode="&#x3c;" horiz-adv-x="600" 
d="M554 399v115l-508 -202v-118l508 -201v114l-367 146z" />
    <glyph glyph-name="equal" unicode="=" horiz-adv-x="600" 
d="M553 92v107h-505v-107h505zM553 306v107h-505v-107h505z" />
    <glyph glyph-name="greater" unicode="&#x3e;" horiz-adv-x="600" 
d="M46 107v-114l508 201v118l-508 202v-115l367 -146z" />
    <glyph glyph-name="question" unicode="?" horiz-adv-x="556" 
d="M350 154v-154h-157v154h157zM32 484q1 54 18.5 99t49 78t76 51.5t99.5 18.5q71 0 118.5 -19.5t76.5 -48.5t41.5 -62.5t12.5 -62.5q0 -48 -12.5 -79t-31 -53t-41 -37.5t-42.5 -31t-35.5 -35.5t-19.5 -50v-38h-135v45q3 43 16.5 72t31.5 49.5t38 35.5t37 30t27.5 33t9.5 45
q0 46 -22.5 68t-62.5 22q-27 0 -46.5 -10.5t-32 -28t-18.5 -41t-6 -50.5h-147z" />
    <glyph glyph-name="at" unicode="@" horiz-adv-x="800" 
d="M559 287l63 258h-82l-16 -54q-17 39 -51 54.5t-66 15.5q-49 0 -89.5 -22t-69 -58t-44 -82t-15.5 -93q0 -35 12.5 -66t34 -54.5t50 -37t60.5 -13.5t61 14t47 44h2q2 -25 21.5 -41t51.5 -16q24 0 63.5 16.5t78 51.5t66 90t27.5 132q0 69 -29 125.5t-77 96t-111 61.5
t-131 22q-78 0 -147 -29t-121 -79t-82 -118.5t-30 -147.5q0 -80 30 -148.5t82.5 -118.5t122.5 -78t150 -28q94 0 174 41.5t131 119.5h-84q-39 -39 -95.5 -60.5t-119.5 -21.5q-64 0 -118.5 21t-93.5 59.5t-61 92t-22 119.5q0 63 20 117.5t57 94t89.5 62t116.5 22.5
q57 0 106.5 -16t86 -47.5t57.5 -77t21 -105.5q0 -40 -10.5 -74t-27 -58.5t-38 -38t-42.5 -13.5q-9 0 -13 6.5t-4 16.5t2.5 21.5t5.5 21.5zM291 319q0 25 9 51t25.5 47.5t39.5 35t50 13.5q32 0 54.5 -24t22.5 -61q0 -26 -9 -53t-25.5 -48.5t-39 -35.5t-49.5 -14
q-35 0 -56.5 24.5t-21.5 64.5z" />
    <glyph glyph-name="A" unicode="A" horiz-adv-x="685" 
d="M249 276l93 262h2l90 -262h-185zM264 714l-270 -714h158l56 159h267l54 -159h163l-267 714h-161z" />
    <glyph glyph-name="B" unicode="B" horiz-adv-x="704" 
d="M226 425v167h147q21 0 40.5 -3.5t34.5 -12.5t24 -25t9 -41q0 -45 -27 -65t-69 -20h-159zM69 714v-714h346q48 0 93.5 12t81 37t56.5 64.5t21 93.5q0 67 -32.5 114.5t-98.5 66.5q48 23 72.5 59t24.5 90q0 50 -16.5 84t-46.5 54.5t-72 29.5t-93 9h-336zM226 122v196h171
q51 0 82 -23.5t31 -78.5q0 -28 -9.5 -46t-25.5 -28.5t-37 -15t-44 -4.5h-168z" />
    <glyph glyph-name="C" unicode="C" horiz-adv-x="741" 
d="M545 474h152q-7 62 -34 110t-68.5 80.5t-94 49.5t-111.5 17q-82 0 -147.5 -29t-110.5 -80t-69 -119.5t-24 -148.5q0 -78 24 -145.5t69 -117.5t110.5 -78.5t147.5 -28.5q66 0 121 20t96 58t66 92t31 121h-152q-9 -72 -49.5 -116t-112.5 -44q-53 0 -90 20.5t-60 54.5
t-33.5 76.5t-10.5 87.5q0 47 10.5 91t33.5 78.5t60 55t90 20.5q29 0 55.5 -9.5t47.5 -26.5t35 -39.5t18 -49.5z" />
    <glyph glyph-name="D" unicode="D" horiz-adv-x="741" 
d="M226 132v450h112q58 0 97.5 -16.5t63.5 -47.5t34.5 -74.5t10.5 -97.5q0 -59 -15 -100t-40 -66.5t-57 -36.5t-66 -11h-140zM69 714v-714h308q82 0 142.5 27.5t101 75.5t60.5 114t20 144q0 89 -24.5 155t-68 110t-103 66t-128.5 22h-308z" />
    <glyph glyph-name="E" unicode="E" horiz-adv-x="648" 
d="M69 714v-714h542v132h-385v175h346v122h-346v153h377v132h-534z" />
    <glyph glyph-name="F" unicode="F" horiz-adv-x="593" 
d="M69 714v-714h157v295h299v122h-299v165h345v132h-502z" />
    <glyph glyph-name="G" unicode="G" horiz-adv-x="759" 
d="M585 81l16 -81h100v386h-300v-117h158q-7 -75 -49.5 -114.5t-120.5 -39.5q-53 0 -90 20.5t-60 54.5t-33.5 76.5t-10.5 87.5q0 47 10.5 91t33.5 78.5t60 55t90 20.5q57 0 97 -30t54 -90h150q-6 61 -33 108t-68.5 79t-93 48.5t-106.5 16.5q-82 0 -147.5 -29t-110.5 -80
t-69 -119.5t-24 -148.5q0 -78 24 -145.5t69 -117.5t110.5 -78.5t147.5 -28.5q52 0 103 21.5t93 75.5z" />
    <glyph glyph-name="H" unicode="H" horiz-adv-x="741" 
d="M69 714v-714h157v308h289v-308h157v714h-157v-274h-289v274h-157z" />
    <glyph glyph-name="I" unicode="I" horiz-adv-x="295" 
d="M69 714v-714h157v714h-157z" />
    <glyph glyph-name="J" unicode="J" horiz-adv-x="556" 
d="M487 225v489h-157v-482q0 -19 -1.5 -39.5t-9 -38t-24.5 -28.5t-48 -11q-28 0 -45.5 9t-27.5 24.5t-14 37.5t-4 48v32h-142v-62q0 -59 20 -100.5t53 -68t75 -39t87 -12.5q80 0 127 24.5t72 61t32 78.5t7 77z" />
    <glyph glyph-name="K" unicode="K" horiz-adv-x="722" 
d="M69 714v-714h157v230l90 91l215 -321h197l-306 432l279 282h-196l-279 -296v296h-157z" />
    <glyph glyph-name="L" unicode="L" horiz-adv-x="593" 
d="M69 714v-714h505v132h-348v582h-157z" />
    <glyph glyph-name="M" unicode="M" horiz-adv-x="907" 
d="M69 714v-714h147v501h2l175 -501h121l175 506h2v-506h147v714h-221l-158 -491h-2l-167 491h-221z" />
    <glyph glyph-name="N" unicode="N" horiz-adv-x="741" 
d="M69 714v-714h147v478h2l297 -478h157v714h-147v-479h-2l-298 479h-156z" />
    <glyph glyph-name="O" unicode="O" horiz-adv-x="778" 
d="M195 354q0 47 10.5 91t33.5 78.5t60 55t90 20.5t90 -20.5t60 -55t33.5 -78.5t10.5 -91q0 -45 -10.5 -87.5t-33.5 -76.5t-60 -54.5t-90 -20.5t-90 20.5t-60 54.5t-33.5 76.5t-10.5 87.5zM38 354q0 -78 24 -145.5t69 -117.5t110.5 -78.5t147.5 -28.5q83 0 148 28.5
t110 78.5t69 117.5t24 145.5q0 80 -24 148.5t-69 119.5t-110 80t-148 29q-82 0 -147.5 -29t-110.5 -80t-69 -119.5t-24 -148.5z" />
    <glyph glyph-name="P" unicode="P" horiz-adv-x="667" 
d="M226 378v214h122q27 0 52 -4t44 -15.5t30.5 -32.5t11.5 -55t-11.5 -55t-30.5 -32.5t-44 -15.5t-52 -4h-122zM69 714v-714h157v256h165q67 0 114 19.5t76.5 51.5t43 73.5t13.5 84.5q0 44 -13.5 85t-43 73t-76.5 51.5t-114 19.5h-322z" />
    <glyph glyph-name="Q" unicode="Q" horiz-adv-x="778" 
d="M539 190q20 27 32 67t12 97q0 47 -10.5 91t-33.5 78.5t-60 55t-90 20.5t-90 -20.5t-60 -55t-33.5 -78.5t-10.5 -91q0 -45 10.5 -87.5t33.5 -76.5t60 -54.5t90 -20.5q25 0 38 2t25 8l-67 61l73 78zM562 25q-71 -41 -173 -41q-82 0 -147.5 28.5t-110.5 78.5t-69 117.5
t-24 145.5q0 80 24 148.5t69 119.5t110.5 80t147.5 29q83 0 148 -29t110 -80t69 -119.5t24 -148.5q0 -78 -24 -145t-69 -118l89 -81l-73 -76z" />
    <glyph glyph-name="R" unicode="R" horiz-adv-x="722" 
d="M226 391v201h172q54 0 81 -23.5t27 -75.5q0 -54 -27 -78t-81 -24h-172zM69 714v-714h157v279h157q59 0 85 -26t34 -82q6 -43 9 -90t16 -81h157q-11 15 -16.5 36.5t-8 45.5t-3.5 47t-2 40q-2 27 -7.5 54t-17.5 49.5t-31 39t-48 24.5v2q60 24 86.5 70t26.5 109
q0 41 -14.5 76.5t-42 62.5t-66 42.5t-86.5 15.5h-385z" />
    <glyph glyph-name="S" unicode="S" horiz-adv-x="649" 
d="M176 237h-152q-1 -66 24 -114t67.5 -79t98 -45.5t114.5 -14.5q73 0 128.5 17t93 47.5t56.5 72.5t19 91q0 60 -25.5 98.5t-60.5 61.5t-70.5 33.5t-55.5 14.5q-67 17 -108.5 28t-65 22t-31.5 24t-8 34q0 23 10 38t25.5 25t34.5 14t38 4q29 0 53.5 -5t43.5 -17t30.5 -33
t13.5 -53h152q0 62 -23.5 105.5t-63.5 71.5t-91.5 40.5t-107.5 12.5q-48 0 -96 -13t-86 -40t-61.5 -67.5t-23.5 -95.5q0 -49 18.5 -83.5t48.5 -57.5t68 -37.5t78 -24.5q39 -11 77 -20t68 -21t48.5 -30t18.5 -47q0 -27 -14 -44.5t-35 -27.5t-45 -13.5t-45 -3.5q-31 0 -60 7.5
t-50.5 23t-34.5 40.5t-13 61z" />
    <glyph glyph-name="T" unicode="T" 
d="M227 582v-582h157v582h214v132h-585v-132h214z" />
    <glyph glyph-name="U" unicode="U" horiz-adv-x="741" 
d="M675 270v444h-157v-444q0 -80 -32 -117.5t-116 -37.5q-48 0 -76.5 13.5t-44.5 35t-21 49.5t-5 57v444h-157v-444q0 -146 79.5 -216t224.5 -70q143 0 224 70.5t81 215.5z" />
    <glyph glyph-name="V" unicode="V" horiz-adv-x="630" 
d="M401 0l237 714h-162l-161 -502h-2l-159 502h-161l231 -714h177z" />
    <glyph glyph-name="W" unicode="W" horiz-adv-x="944" 
d="M749 0l192 714h-154l-117 -492h-2l-122 492h-147l-124 -486h-2l-113 486h-157l189 -714h159l119 486h2l121 -486h156z" />
    <glyph glyph-name="X" unicode="X" horiz-adv-x="667" 
d="M244 374l-249 -374h176l159 247l156 -247h187l-249 373l229 341h-172l-145 -228l-140 228h-182z" />
    <glyph glyph-name="Y" unicode="Y" horiz-adv-x="667" 
d="M254 278v-278h157v274l265 440h-175l-166 -282l-167 282h-176z" />
    <glyph glyph-name="Z" unicode="Z" horiz-adv-x="648" 
d="M23 124v-124h602v132h-393l383 458v124h-562v-132h353z" />
    <glyph glyph-name="bracketleft" unicode="[" horiz-adv-x="333" 
d="M68 731v-912h264v112h-122v688h122v112h-264z" />
    <glyph glyph-name="backslash" unicode="\" horiz-adv-x="371" 
d="M382 -16l-279 747h-113l278 -747h114z" />
    <glyph glyph-name="backslash" unicode="&#x29f5;" horiz-adv-x="371" 
d="M382 -16l-279 747h-113l278 -747h114z" />
    <glyph glyph-name="bracketright" unicode="]" horiz-adv-x="333" 
d="M265 -181v912h-264v-112h122v-688h-122v-112h264z" />
    <glyph glyph-name="asciicircum" unicode="^" horiz-adv-x="600" 
d="M233 700l-172 -385h117l122 275l122 -275h117l-172 385h-134z" />
    <glyph glyph-name="underscore" unicode="_" horiz-adv-x="500" 
d="M0 -74v-50h500v50h-500z" />
    <glyph glyph-name="grave" unicode="`" horiz-adv-x="259" 
d="M109 785l106 -177h-99l-163 177h156z" />
    <glyph glyph-name="a" unicode="a" horiz-adv-x="574" 
d="M48 358q3 50 25 83t56 53t76.5 28.5t85.5 8.5q39 0 79 -5.5t73 -21.5t54 -44.5t21 -75.5v-269q0 -35 4 -67t14 -48h-144q-4 12 -6.5 24.5t-3.5 25.5q-34 -35 -80 -49t-94 -14q-37 0 -69 9t-56 28t-37.5 48t-13.5 69q0 44 15.5 72.5t40 45.5t56 25.5t63.5 13.5t63 8t55 9
t38 17.5t13 33.5q0 23 -7.5 36.5t-20 21t-29 10t-35.5 2.5q-42 0 -66 -18t-28 -60h-142zM376 253q-9 -8 -22.5 -12.5t-29 -7.5t-32.5 -5t-34 -5q-16 -3 -31.5 -8t-27 -13.5t-18.5 -21.5t-7 -33q0 -19 7 -32t19 -20.5t28 -10.5t33 -3q42 0 65 14t34 33.5t13.5 39.5t2.5 32v53
z" />
    <glyph glyph-name="b" unicode="b" 
d="M433 258q0 -32 -7 -62t-22 -53t-37.5 -36.5t-54.5 -13.5q-31 0 -54 13.5t-38 36.5t-22 53t-7 62q0 33 7 63t22 53t38 36.5t54 13.5q32 0 54.5 -13.5t37.5 -36.5t22 -53t7 -63zM54 714v-714h135v66h2q23 -43 68 -61t102 -18q39 0 77 16t68.5 49t49.5 84.5t19 122.5
t-19 122.5t-49.5 84.5t-68.5 49t-77 16q-48 0 -92.5 -18.5t-70.5 -58.5h-2v260h-142z" />
    <glyph glyph-name="c" unicode="c" horiz-adv-x="574" 
d="M406 335h139q-3 50 -24 86.5t-54.5 61t-76 36.5t-88.5 12q-63 0 -112 -21t-83 -58.5t-51.5 -89t-17.5 -111.5q0 -58 19 -106.5t53 -83.5t82.5 -54.5t106.5 -19.5q103 0 169 54t80 157h-137q-7 -48 -34.5 -76.5t-78.5 -28.5q-33 0 -56 15t-36.5 38.5t-19.5 52.5t-6 57
q0 29 6 58.5t20.5 54t37.5 40t57 15.5q91 0 105 -89z" />
    <glyph glyph-name="d" unicode="d" 
d="M421 260q0 -32 -6 -62t-20 -53.5t-37.5 -37.5t-58.5 -14q-33 0 -56.5 14.5t-39 38t-22.5 53.5t-7 60q0 32 6.5 61.5t21 52.5t38.5 37t59 14t58 -14t37.5 -36.5t20.5 -52t6 -61.5zM423 66v-66h135v714h-142v-260h-2q-24 38 -65.5 57.5t-87.5 19.5q-57 0 -100 -22.5
t-71.5 -59.5t-43 -85.5t-14.5 -100.5q0 -54 14.5 -104t43 -88.5t72.5 -61t102 -22.5q51 0 91.5 18.5t65.5 60.5h2z" />
    <glyph glyph-name="e" unicode="e" horiz-adv-x="574" 
d="M402 314h-231q1 15 6.5 34t19 36t36 28.5t56.5 11.5q52 0 77.5 -28t35.5 -82zM171 224h373q4 60 -10 115t-45.5 98t-80.5 68.5t-115 25.5q-59 0 -107.5 -21t-83.5 -57.5t-54 -86.5t-19 -108q0 -60 18.5 -110t52.5 -86t83 -55.5t110 -19.5q88 0 150 40t92 133h-125
q-7 -24 -38 -45.5t-74 -21.5q-60 0 -92 31t-35 100z" />
    <glyph glyph-name="f" unicode="f" horiz-adv-x="333" 
d="M85 422v-422h142v422h98v95h-98v31q0 32 12.5 45.5t41.5 13.5q27 0 52 -3v106q-18 1 -37 2.5t-38 1.5q-87 0 -130 -44t-43 -113v-40h-85v-95h85z" />
    <glyph glyph-name="g" unicode="g" 
d="M295 122q-33 0 -55 14t-35.5 36t-19 49.5t-5.5 55.5q0 29 6.5 55.5t21 47t36 32.5t51.5 12q35 0 58 -13t37 -35t20 -50.5t6 -60.5q0 -28 -7.5 -53.5t-22.5 -45.5t-38 -32t-53 -12zM551 33v484h-135v-69h-2q-26 45 -64.5 64t-89.5 19q-54 0 -95.5 -21t-69.5 -56.5
t-42.5 -82t-14.5 -96.5q0 -53 12.5 -100.5t39.5 -83t69 -56t100 -20.5q47 0 89.5 19.5t65.5 60.5h2v-68q1 -55 -26.5 -91t-87.5 -36q-38 0 -67 15.5t-39 55.5h-141q3 -44 24.5 -75.5t54 -51.5t72 -29.5t77.5 -9.5q89 0 142 24t81 58.5t36.5 74.5t8.5 71z" />
    <glyph glyph-name="h" unicode="h" horiz-adv-x="593" 
d="M54 714v-714h142v271q0 79 26 113.5t84 34.5q51 0 71 -31.5t20 -95.5v-292h142v318q0 48 -8.5 87.5t-29.5 67t-57.5 43t-93.5 15.5q-40 0 -82 -20.5t-69 -65.5h-3v269h-142z" />
    <glyph glyph-name="i" unicode="i" horiz-adv-x="258" 
d="M200 597v117h-142v-117h142zM58 517v-517h142v517h-142z" />
    <glyph glyph-name="j" unicode="j" horiz-adv-x="278" 
d="M209 597v117h-142v-117h142zM-18 -60v-117q20 -4 45 -4q54 0 89 9.5t55.5 29t29 48.5t8.5 69v542h-142v-535q0 -29 -16.5 -37.5t-38.5 -8.5q-19 0 -30 4z" />
    <glyph glyph-name="k" unicode="k" horiz-adv-x="574" 
d="M67 714v-714h142v178l55 53l142 -231h172l-217 327l195 190h-168l-179 -186v383h-142z" />
    <glyph glyph-name="l" unicode="l" horiz-adv-x="258" 
d="M58 714v-714h142v714h-142z" />
    <glyph glyph-name="m" unicode="m" horiz-adv-x="906" 
d="M58 517v-517h142v300q0 38 11 61.5t26.5 36t32 17t26.5 4.5q34 0 51.5 -11.5t25 -30.5t8.5 -41.5t1 -45.5v-290h142v288q0 24 3.5 47.5t14 42t29 30t48.5 11.5t47.5 -10t26.5 -27t11 -40t2 -49v-293h142v346q0 50 -14 85.5t-39 57.5t-60 32t-76 10q-54 0 -93.5 -26
t-62.5 -60q-21 48 -61.5 67t-89.5 19q-51 0 -90.5 -22t-67.5 -62h-2v70h-134z" />
    <glyph glyph-name="n" unicode="n" horiz-adv-x="593" 
d="M54 517v-517h142v271q0 79 26 113.5t84 34.5q51 0 71 -31.5t20 -95.5v-292h142v318q0 48 -8.5 87.5t-29.5 67t-57.5 43t-93.5 15.5q-45 0 -88 -20.5t-70 -65.5h-3v72h-135z" />
    <glyph glyph-name="o" unicode="o" 
d="M180 258q0 31 6 61t20.5 53t38.5 37.5t60 14.5t60.5 -14.5t39 -37.5t20.5 -53t6 -61t-6 -60.5t-20.5 -53t-39 -37.5t-60.5 -14t-60 14t-38.5 37.5t-20.5 53t-6 60.5zM38 258q0 -62 19 -112t54 -85.5t84 -54.5t110 -19t110.5 19t84.5 54.5t54 85.5t19 112t-19 112.5
t-54 86t-84.5 55t-110.5 19.5t-110 -19.5t-84 -55t-54 -86t-19 -112.5z" />
    <glyph glyph-name="p" unicode="p" 
d="M315 93q-34 0 -58 14t-38.5 36.5t-21 52.5t-6.5 61q0 32 6 62t20.5 53t38 37.5t58.5 14.5q34 0 57.5 -14.5t38.5 -38t21.5 -53.5t6.5 -61t-6 -61t-20.5 -52.5t-38 -36.5t-58.5 -14zM54 517v-698h142v245h2q26 -38 66.5 -57.5t88.5 -19.5q57 0 99.5 22t71 59t42.5 85
t14 100q0 55 -14 105.5t-43 88.5t-73 61t-105 23q-48 0 -88 -19t-66 -61h-2v66h-135z" />
    <glyph glyph-name="q" unicode="q" 
d="M174 258q0 32 6.5 61.5t21.5 53t39 37.5t59 14q33 0 56.5 -15t37.5 -39t20.5 -54t6.5 -60q0 -32 -6.5 -61.5t-21 -52t-38 -36t-58.5 -13.5t-58.5 14t-38 37.5t-20.5 53t-6 60.5zM558 -181v698h-135v-66h-2q-24 43 -66.5 61.5t-90.5 18.5q-59 0 -102.5 -23t-72.5 -61.5
t-43 -88.5t-14 -103q0 -75 21 -126.5t53 -83t70.5 -45t74.5 -13.5q48 0 93 18t70 60h2v-246h142z" />
    <glyph glyph-name="r" unicode="r" horiz-adv-x="389" 
d="M54 517v-517h142v233q0 35 7 65t23.5 52.5t43.5 35.5t66 13q13 0 27 -1.5t24 -3.5v132q-17 5 -31 5q-27 0 -52 -8t-47 -22.5t-39 -35t-27 -44.5h-2v96h-135z" />
    <glyph glyph-name="s" unicode="s" horiz-adv-x="537" 
d="M164 168h-135q2 -52 23.5 -86.5t55 -55.5t76.5 -30t88 -9q44 0 86.5 8.5t75.5 29.5t53.5 55.5t20.5 85.5q0 36 -14 60.5t-37 41t-52.5 26.5t-60.5 17q-30 7 -59 13t-51.5 13.5t-36.5 19.5t-14 31q0 16 8 25.5t19.5 14.5t25.5 6.5t26 1.5q38 0 66 -14.5t31 -55.5h135
q-4 48 -24.5 79.5t-51.5 50.5t-70.5 27t-81.5 8t-82 -7.5t-72 -26t-51.5 -50.5t-19.5 -82q0 -34 14 -57.5t37 -39t52.5 -25t60.5 -16.5q76 -16 118.5 -32t42.5 -48q0 -19 -9 -31.5t-22.5 -20t-30 -11t-31.5 -3.5q-21 0 -40.5 5t-34.5 15.5t-24.5 27t-9.5 39.5z" />
    <glyph glyph-name="t" unicode="t" horiz-adv-x="352" 
d="M234 517v155h-142v-155h-86v-95h86v-305q0 -39 13 -63t35.5 -37t52 -17.5t62.5 -4.5q21 0 43 1t40 4v110q-10 -2 -21 -3t-23 -1q-36 0 -48 12t-12 48v256h104v95h-104z" />
    <glyph glyph-name="u" unicode="u" horiz-adv-x="593" 
d="M539 0v517h-142v-271q0 -79 -26 -113.5t-84 -34.5q-51 0 -71 31.5t-20 95.5v292h-142v-318q0 -48 8.5 -87.5t29.5 -67t57.5 -42.5t93.5 -15q45 0 88 20t70 65h3v-72h135z" />
    <glyph glyph-name="v" unicode="v" horiz-adv-x="520" 
d="M340 0l175 517h-141l-109 -353h-2l-109 353h-149l177 -517h158z" />
    <glyph glyph-name="w" unicode="w" horiz-adv-x="814" 
d="M645 0l163 517h-146l-95 -350h-2l-88 350h-138l-86 -351h-2l-95 351h-150l164 -517h147l88 347h2l92 -347h146z" />
    <glyph glyph-name="x" unicode="x" horiz-adv-x="537" 
d="M186 272l-186 -272h159l108 163l108 -163h162l-191 275l170 242h-157l-90 -135l-91 135h-162z" />
    <glyph glyph-name="y" unicode="y" horiz-adv-x="519" 
d="M309 -64l216 581h-147l-113 -354h-2l-117 354h-151l181 -485q6 -15 6 -32q0 -23 -13.5 -42t-41.5 -22q-21 -1 -42 1t-41 4v-117q22 -2 43.5 -3.5t43.5 -1.5q73 0 114 27t64 90z" />
    <glyph glyph-name="z" unicode="z" horiz-adv-x="519" 
d="M22 107v-107h475v107h-288l269 303v107h-436v-107h249z" />
    <glyph glyph-name="braceleft" unicode="{" horiz-adv-x="333" 
d="M333 619v112h-127q-17 0 -38.5 -8.5t-40 -25t-31.5 -42t-13 -59.5v-188q0 -25 -10 -42.5t-24 -28t-30 -15t-27 -4.5v-87q11 0 27 -4.5t30 -14t24 -25.5t10 -39v-194q0 -34 13 -59.5t31.5 -42t40 -25t38.5 -8.5h127v112h-54q-18 0 -28.5 7t-16.5 17.5t-7.5 23.5t-1.5 24
v160q0 32 -11.5 52.5t-27 33t-32.5 18t-28 6.5v3q11 1 28 6t32.5 17.5t27 35t11.5 59.5v152q0 12 1.5 25t7.5 23.5t16.5 17.5t28.5 7h54z" />
    <glyph glyph-name="bar" unicode="|" horiz-adv-x="223" 
d="M58 786v-999h107v999h-107z" />
    <glyph glyph-name="braceright" unicode="}" horiz-adv-x="333" 
d="M0 -69v-112h127q17 0 38.5 8.5t40 25t31.5 42t13 59.5v194q0 23 10 39t24 25.5t30 14t28 4.5v87q-12 0 -28 4.5t-30 15t-24 28t-10 42.5v188q0 34 -13 59.5t-31.5 42t-40 25t-38.5 8.5h-127v-112h54q18 0 28.5 -7t16.5 -17.5t7.5 -23.5t1.5 -25v-152q0 -37 11.5 -59.5
t27 -35t32.5 -17.5t28 -6v-3q-11 -1 -28 -6.5t-32.5 -18t-27 -33t-11.5 -52.5v-160q0 -11 -1.5 -24t-7.5 -23.5t-16.5 -17.5t-28.5 -7h-54z" />
    <glyph glyph-name="asciitilde" unicode="~" horiz-adv-x="600" 
d="M550 360q-10 -21 -24 -40t-31.5 -33.5t-39.5 -23t-47 -8.5q-31 0 -56.5 10.5t-50 23.5t-51 23.5t-59.5 10.5q-17 0 -29.5 -6.5t-23 -16.5t-18 -23t-13.5 -26l-57 83q7 21 21 40t32.5 33.5t41 23t47.5 8.5q24 0 52 -10.5t56 -23.5t55 -23.5t50 -10.5q15 0 27.5 6.5
t23 16.5t19.5 23l18 26z" />
    <glyph glyph-name="Adieresis" unicode="&#xc4;" horiz-adv-x="685" 
d="M172 911v-117h135v117h-135zM378 911v-117h135v117h-135zM249 276l93 262h2l90 -262h-185zM264 714l-270 -714h158l56 159h267l54 -159h163l-267 714h-161z" />
    <glyph glyph-name="Aring" horiz-adv-x="685" 
d="M220 853q0 -25 9.5 -47.5t26 -39t39 -26t47.5 -9.5q26 0 48 9.5t39 26t26.5 39t9.5 47.5q0 26 -9.5 48t-26.5 38.5t-39 26t-48 9.5q-25 0 -47.5 -9.5t-39 -26t-26 -38.5t-9.5 -48zM279 853q0 29 17 49.5t46 20.5t46.5 -20.5t17.5 -49.5t-17.5 -49.5t-46.5 -20.5t-46 20.5
t-17 49.5zM249 276l93 262h2l90 -262h-185zM264 714l-270 -714h158l56 159h267l54 -159h163l-267 714h-161z" />
    <glyph glyph-name="Ccedilla" unicode="&#xc7;" horiz-adv-x="741" 
d="M545 474h152q-7 62 -34 110t-68.5 80.5t-94 49.5t-111.5 17q-82 0 -147.5 -29t-110.5 -80t-69 -119.5t-24 -148.5q0 -72 20.5 -135.5t60 -112.5t96.5 -80.5t130 -38.5l-48 -69l21 -24q18 7 40 7q17 0 28.5 -6.5t11.5 -25.5q0 -18 -11 -26t-29 -8q-26 0 -47 5.5t-37 12.5
l-21 -48q14 -5 26.5 -9t26 -7t30.5 -4.5t41 -1.5q22 0 43 4.5t37.5 16t26.5 31t10 48.5q0 18 -8 31.5t-21 22t-29.5 12.5t-33.5 4q-22 0 -34 -5h-2l26 36q65 1 119.5 21.5t95 58t65.5 91t31 120.5h-152q-9 -72 -49.5 -116t-112.5 -44q-53 0 -90 20.5t-60 54.5t-33.5 76.5
t-10.5 87.5q0 47 10.5 91t33.5 78.5t60 55t90 20.5q29 0 55.5 -9.5t47.5 -26.5t35 -39.5t18 -49.5z" />
    <glyph glyph-name="Eacute" unicode="&#xc9;" horiz-adv-x="648" 
d="M69 714v-714h542v132h-385v175h346v122h-346v153h377v132h-534zM511 955l-163 -177h-99l106 177h156z" />
    <glyph glyph-name="Ntilde" unicode="&#xd1;" horiz-adv-x="741" 
d="M554 911h-69q1 -14 -9 -24.5t-33 -10.5q-17 0 -33.5 5.5t-32.5 12.5q-16 6 -31.5 11.5t-32.5 5.5q-33 0 -55 -11t-36 -28.5t-22 -39t-13 -43.5h61q5 19 13.5 30.5t28.5 11.5q17 0 34 -5t36 -12q19 -6 39 -11.5t43 -5.5q30 0 49.5 11.5t32 28.5t19 37t11.5 37zM69 714
v-714h147v478h2l297 -478h157v714h-147v-479h-2l-298 479h-156z" />
    <glyph glyph-name="Odieresis" unicode="&#xd6;" horiz-adv-x="778" 
d="M219 911v-117h135v117h-135zM425 911v-117h135v117h-135zM195 354q0 47 10.5 91t33.5 78.5t60 55t90 20.5t90 -20.5t60 -55t33.5 -78.5t10.5 -91q0 -45 -10.5 -87.5t-33.5 -76.5t-60 -54.5t-90 -20.5t-90 20.5t-60 54.5t-33.5 76.5t-10.5 87.5zM38 354q0 -78 24 -145.5
t69 -117.5t110.5 -78.5t147.5 -28.5q83 0 148 28.5t110 78.5t69 117.5t24 145.5q0 80 -24 148.5t-69 119.5t-110 80t-148 29q-82 0 -147.5 -29t-110.5 -80t-69 -119.5t-24 -148.5z" />
    <glyph glyph-name="Udieresis" unicode="&#xdc;" horiz-adv-x="741" 
d="M200 911v-117h135v117h-135zM406 911v-117h135v117h-135zM675 270v444h-157v-444q0 -80 -32 -117.5t-116 -37.5q-48 0 -76.5 13.5t-44.5 35t-21 49.5t-5 57v444h-157v-444q0 -146 79.5 -216t224.5 -70q143 0 224 70.5t81 215.5z" />
    <glyph glyph-name="aacute" unicode="&#xe1;" horiz-adv-x="574" 
d="M48 358q3 50 25 83t56 53t76.5 28.5t85.5 8.5q39 0 79 -5.5t73 -21.5t54 -44.5t21 -75.5v-269q0 -35 4 -67t14 -48h-144q-4 12 -6.5 24.5t-3.5 25.5q-34 -35 -80 -49t-94 -14q-37 0 -69 9t-56 28t-37.5 48t-13.5 69q0 44 15.5 72.5t40 45.5t56 25.5t63.5 13.5t63 8t55 9
t38 17.5t13 33.5q0 23 -7.5 36.5t-20 21t-29 10t-35.5 2.5q-42 0 -66 -18t-28 -60h-142zM376 253q-9 -8 -22.5 -12.5t-29 -7.5t-32.5 -5t-34 -5q-16 -3 -31.5 -8t-27 -13.5t-18.5 -21.5t-7 -33q0 -19 7 -32t19 -20.5t28 -10.5t33 -3q42 0 65 14t34 33.5t13.5 39.5t2.5 32v53
zM473 785l-163 -177h-99l106 177h156z" />
    <glyph glyph-name="agrave" unicode="&#xe0;" horiz-adv-x="574" 
d="M48 358q3 50 25 83t56 53t76.5 28.5t85.5 8.5q39 0 79 -5.5t73 -21.5t54 -44.5t21 -75.5v-269q0 -35 4 -67t14 -48h-144q-4 12 -6.5 24.5t-3.5 25.5q-34 -35 -80 -49t-94 -14q-37 0 -69 9t-56 28t-37.5 48t-13.5 69q0 44 15.5 72.5t40 45.5t56 25.5t63.5 13.5t63 8t55 9
t38 17.5t13 33.5q0 23 -7.5 36.5t-20 21t-29 10t-35.5 2.5q-42 0 -66 -18t-28 -60h-142zM376 253q-9 -8 -22.5 -12.5t-29 -7.5t-32.5 -5t-34 -5q-16 -3 -31.5 -8t-27 -13.5t-18.5 -21.5t-7 -33q0 -19 7 -32t19 -20.5t28 -10.5t33 -3q42 0 65 14t34 33.5t13.5 39.5t2.5 32v53
zM266 785l106 -177h-99l-163 177h156z" />
    <glyph glyph-name="acircumflex" unicode="&#xe2;" horiz-adv-x="574" 
d="M48 358q3 50 25 83t56 53t76.5 28.5t85.5 8.5q39 0 79 -5.5t73 -21.5t54 -44.5t21 -75.5v-269q0 -35 4 -67t14 -48h-144q-4 12 -6.5 24.5t-3.5 25.5q-34 -35 -80 -49t-94 -14q-37 0 -69 9t-56 28t-37.5 48t-13.5 69q0 44 15.5 72.5t40 45.5t56 25.5t63.5 13.5t63 8t55 9
t38 17.5t13 33.5q0 23 -7.5 36.5t-20 21t-29 10t-35.5 2.5q-42 0 -66 -18t-28 -60h-142zM376 253q-9 -8 -22.5 -12.5t-29 -7.5t-32.5 -5t-34 -5q-16 -3 -31.5 -8t-27 -13.5t-18.5 -21.5t-7 -33q0 -19 7 -32t19 -20.5t28 -10.5t33 -3q42 0 65 14t34 33.5t13.5 39.5t2.5 32v53
zM219 723l-110 -142h107l64 81l62 -81h117l-110 142h-130z" />
    <glyph glyph-name="adieresis" unicode="&#xe4;" horiz-adv-x="574" 
d="M117 714v-117h135v117h-135zM323 714v-117h135v117h-135zM48 358h142q4 42 28 60t66 18q19 0 35.5 -2.5t29 -10t20 -21t7.5 -36.5q1 -22 -13 -33.5t-38 -17.5t-55 -9t-63 -8t-63.5 -13.5t-56 -25.5t-40 -45.5t-15.5 -72.5q0 -40 13.5 -69t37.5 -48t56 -28t69 -9
q48 0 94 14t80 49q1 -13 3.5 -25.5t6.5 -24.5h144q-10 16 -14 48t-4 67v269q0 47 -21 75.5t-54 44.5t-73 21.5t-79 5.5q-43 0 -85.5 -8.5t-76.5 -28.5t-56 -53t-25 -83zM376 253v-53q0 -12 -2.5 -32t-13.5 -39.5t-34 -33.5t-65 -14q-17 0 -33 3t-28 10.5t-19 20.5t-7 32
q0 20 7 33t18.5 21.5t27 13.5t31.5 8q17 3 34 5t32.5 5t29 7.5t22.5 12.5z" />
    <glyph glyph-name="atilde" unicode="&#xe3;" horiz-adv-x="574" 
d="M48 358q3 50 25 83t56 53t76.5 28.5t85.5 8.5q39 0 79 -5.5t73 -21.5t54 -44.5t21 -75.5v-269q0 -35 4 -67t14 -48h-144q-4 12 -6.5 24.5t-3.5 25.5q-34 -35 -80 -49t-94 -14q-37 0 -69 9t-56 28t-37.5 48t-13.5 69q0 44 15.5 72.5t40 45.5t56 25.5t63.5 13.5t63 8t55 9
t38 17.5t13 33.5q0 23 -7.5 36.5t-20 21t-29 10t-35.5 2.5q-42 0 -66 -18t-28 -60h-142zM376 253q-9 -8 -22.5 -12.5t-29 -7.5t-32.5 -5t-34 -5q-16 -3 -31.5 -8t-27 -13.5t-18.5 -21.5t-7 -33q0 -19 7 -32t19 -20.5t28 -10.5t33 -3q42 0 65 14t34 33.5t13.5 39.5t2.5 32v53
zM356 598q-23 0 -42.5 7.5t-37 17t-34.5 17t-33 7.5q-19 0 -29.5 -13.5t-15.5 -35.5h-63q3 23 11.5 46t23.5 41.5t35.5 30t46.5 11.5q20 0 39 -6.5t37 -15t34.5 -15t32.5 -6.5q18 0 28 10t15 33h64q-5 -26 -12.5 -49t-20.5 -41t-32.5 -28.5t-46.5 -10.5z" />
    <glyph glyph-name="aring" unicode="&#xe5;" horiz-adv-x="574" 
d="M165 656q0 -25 9.5 -47.5t26 -39t39 -26t47.5 -9.5q26 0 48 9.5t39 26t26.5 39t9.5 47.5q0 26 -9.5 48t-26.5 38.5t-39 26t-48 9.5q-25 0 -47.5 -9.5t-39 -26t-26 -38.5t-9.5 -48zM224 656q0 29 17 49.5t46 20.5t46.5 -20.5t17.5 -49.5t-17.5 -49.5t-46.5 -20.5t-46 20.5
t-17 49.5zM48 358h142q4 42 28 60t66 18q19 0 35.5 -2.5t29 -10t20 -21t7.5 -36.5q1 -22 -13 -33.5t-38 -17.5t-55 -9t-63 -8t-63.5 -13.5t-56 -25.5t-40 -45.5t-15.5 -72.5q0 -40 13.5 -69t37.5 -48t56 -28t69 -9q48 0 94 14t80 49q1 -13 3.5 -25.5t6.5 -24.5h144
q-10 16 -14 48t-4 67v269q0 47 -21 75.5t-54 44.5t-73 21.5t-79 5.5q-43 0 -85.5 -8.5t-76.5 -28.5t-56 -53t-25 -83zM376 253v-53q0 -12 -2.5 -32t-13.5 -39.5t-34 -33.5t-65 -14q-17 0 -33 3t-28 10.5t-19 20.5t-7 32q0 20 7 33t18.5 21.5t27 13.5t31.5 8q17 3 34 5
t32.5 5t29 7.5t22.5 12.5z" />
    <glyph glyph-name="ccedilla" unicode="&#xe7;" horiz-adv-x="574" 
d="M406 335h139q-3 50 -24 86.5t-54.5 61t-76 36.5t-88.5 12q-63 0 -112 -21t-83 -58.5t-51.5 -89t-17.5 -111.5q0 -54 16 -99.5t46 -80t71.5 -55.5t92.5 -26l-50 -72l21 -24q18 7 40 7q17 0 28.5 -6.5t11.5 -25.5q0 -18 -11 -26t-29 -8q-26 0 -47 5.5t-37 12.5l-21 -48
q14 -5 26.5 -9t26 -7t30.5 -4.5t41 -1.5q22 0 43 4.5t37.5 16t26.5 31t10 48.5q0 18 -8 31.5t-21 22t-29.5 12.5t-33.5 4q-22 0 -34 -5h-2l28 40q99 3 161.5 56.5t75.5 153.5h-137q-7 -48 -34.5 -76.5t-78.5 -28.5q-33 0 -56 15t-36.5 38.5t-19.5 52.5t-6 57q0 29 6 58.5
t20.5 54t37.5 40t57 15.5q91 0 105 -89z" />
    <glyph glyph-name="eacute" unicode="&#xe9;" horiz-adv-x="574" 
d="M402 314h-231q1 15 6.5 34t19 36t36 28.5t56.5 11.5q52 0 77.5 -28t35.5 -82zM171 224h373q4 60 -10 115t-45.5 98t-80.5 68.5t-115 25.5q-59 0 -107.5 -21t-83.5 -57.5t-54 -86.5t-19 -108q0 -60 18.5 -110t52.5 -86t83 -55.5t110 -19.5q88 0 150 40t92 133h-125
q-7 -24 -38 -45.5t-74 -21.5q-60 0 -92 31t-35 100zM474 785l-163 -177h-99l106 177h156z" />
    <glyph glyph-name="egrave" unicode="&#xe8;" horiz-adv-x="574" 
d="M402 314h-231q1 15 6.5 34t19 36t36 28.5t56.5 11.5q52 0 77.5 -28t35.5 -82zM171 224h373q4 60 -10 115t-45.5 98t-80.5 68.5t-115 25.5q-59 0 -107.5 -21t-83.5 -57.5t-54 -86.5t-19 -108q0 -60 18.5 -110t52.5 -86t83 -55.5t110 -19.5q88 0 150 40t92 133h-125
q-7 -24 -38 -45.5t-74 -21.5q-60 0 -92 31t-35 100zM257 785l106 -177h-99l-163 177h156z" />
    <glyph glyph-name="ecircumflex" unicode="&#xea;" horiz-adv-x="574" 
d="M402 314h-231q1 15 6.5 34t19 36t36 28.5t56.5 11.5q52 0 77.5 -28t35.5 -82zM171 224h373q4 60 -10 115t-45.5 98t-80.5 68.5t-115 25.5q-59 0 -107.5 -21t-83.5 -57.5t-54 -86.5t-19 -108q0 -60 18.5 -110t52.5 -86t83 -55.5t110 -19.5q88 0 150 40t92 133h-125
q-7 -24 -38 -45.5t-74 -21.5q-60 0 -92 31t-35 100zM222 723l-110 -142h107l64 81l62 -81h117l-110 142h-130z" />
    <glyph glyph-name="edieresis" unicode="&#xeb;" horiz-adv-x="574" 
d="M117 714v-117h135v117h-135zM323 714v-117h135v117h-135zM402 314h-231q1 15 6.5 34t19 36t36 28.5t56.5 11.5q52 0 77.5 -28t35.5 -82zM171 224h373q4 60 -10 115t-45.5 98t-80.5 68.5t-115 25.5q-59 0 -107.5 -21t-83.5 -57.5t-54 -86.5t-19 -108q0 -60 18.5 -110
t52.5 -86t83 -55.5t110 -19.5q88 0 150 40t92 133h-125q-7 -24 -38 -45.5t-74 -21.5q-60 0 -92 31t-35 100z" />
    <glyph glyph-name="iacute" unicode="&#xed;" horiz-adv-x="258" 
d="M58 517v-517h142v517h-142zM315 785l-163 -177h-99l106 177h156z" />
    <glyph glyph-name="igrave" unicode="&#xec;" horiz-adv-x="258" 
d="M58 517v-517h142v517h-142zM94 785l106 -177h-99l-163 177h156z" />
    <glyph glyph-name="icircumflex" unicode="&#xee;" horiz-adv-x="258" 
d="M65 723l-110 -142h107l64 81l62 -81h117l-110 142h-130zM58 517v-517h142v517h-142z" />
    <glyph glyph-name="idieresis" unicode="&#xef;" horiz-adv-x="258" 
d="M-40 714v-117h134v117h-134zM165 714v-117h135v117h-135zM58 517v-517h142v517h-142z" />
    <glyph glyph-name="ntilde" unicode="&#xf1;" horiz-adv-x="593" 
d="M480 714h-69q1 -14 -9 -24.5t-33 -10.5q-17 0 -33.5 5.5t-32.5 12.5q-16 6 -31.5 11.5t-32.5 5.5q-33 0 -55 -11t-36 -28.5t-22 -39t-13 -43.5h61q5 19 13.5 30.5t28.5 11.5q17 0 34 -5t36 -12q19 -6 39 -11.5t43 -5.5q30 0 49.5 11.5t32 28.5t19 37t11.5 37zM54 517
v-517h142v271q0 79 26 113.5t84 34.5q51 0 71 -31.5t20 -95.5v-292h142v318q0 48 -8.5 87.5t-29.5 67t-57.5 43t-93.5 15.5q-45 0 -88 -20.5t-70 -65.5h-3v72h-135z" />
    <glyph glyph-name="oacute" unicode="&#xf3;" 
d="M180 258q0 31 6 61t20.5 53t38.5 37.5t60 14.5t60.5 -14.5t39 -37.5t20.5 -53t6 -61t-6 -60.5t-20.5 -53t-39 -37.5t-60.5 -14t-60 14t-38.5 37.5t-20.5 53t-6 60.5zM38 258q0 -62 19 -112t54 -85.5t84 -54.5t110 -19t110.5 19t84.5 54.5t54 85.5t19 112t-19 112.5
t-54 86t-84.5 55t-110.5 19.5t-110 -19.5t-84 -55t-54 -86t-19 -112.5zM492 785l-163 -177h-99l106 177h156z" />
    <glyph glyph-name="ograve" unicode="&#xf2;" 
d="M180 258q0 31 6 61t20.5 53t38.5 37.5t60 14.5t60.5 -14.5t39 -37.5t20.5 -53t6 -61t-6 -60.5t-20.5 -53t-39 -37.5t-60.5 -14t-60 14t-38.5 37.5t-20.5 53t-6 60.5zM38 258q0 -62 19 -112t54 -85.5t84 -54.5t110 -19t110.5 19t84.5 54.5t54 85.5t19 112t-19 112.5
t-54 86t-84.5 55t-110.5 19.5t-110 -19.5t-84 -55t-54 -86t-19 -112.5zM275 785l106 -177h-99l-163 177h156z" />
    <glyph glyph-name="ocircumflex" unicode="&#xf4;" 
d="M180 258q0 31 6 61t20.5 53t38.5 37.5t60 14.5t60.5 -14.5t39 -37.5t20.5 -53t6 -61t-6 -60.5t-20.5 -53t-39 -37.5t-60.5 -14t-60 14t-38.5 37.5t-20.5 53t-6 60.5zM38 258q0 -62 19 -112t54 -85.5t84 -54.5t110 -19t110.5 19t84.5 54.5t54 85.5t19 112t-19 112.5
t-54 86t-84.5 55t-110.5 19.5t-110 -19.5t-84 -55t-54 -86t-19 -112.5zM241 723l-110 -142h107l64 81l62 -81h117l-110 142h-130z" />
    <glyph glyph-name="odieresis" unicode="&#xf6;" 
d="M135 714v-117h135v117h-135zM341 714v-117h135v117h-135zM180 258q0 31 6 61t20.5 53t38.5 37.5t60 14.5t60.5 -14.5t39 -37.5t20.5 -53t6 -61t-6 -60.5t-20.5 -53t-39 -37.5t-60.5 -14t-60 14t-38.5 37.5t-20.5 53t-6 60.5zM38 258q0 -62 19 -112t54 -85.5t84 -54.5
t110 -19t110.5 19t84.5 54.5t54 85.5t19 112t-19 112.5t-54 86t-84.5 55t-110.5 19.5t-110 -19.5t-84 -55t-54 -86t-19 -112.5z" />
    <glyph glyph-name="otilde" unicode="&#xf5;" 
d="M180 258q0 31 6 61t20.5 53t38.5 37.5t60 14.5t60.5 -14.5t39 -37.5t20.5 -53t6 -61t-6 -60.5t-20.5 -53t-39 -37.5t-60.5 -14t-60 14t-38.5 37.5t-20.5 53t-6 60.5zM38 258q0 -62 19 -112t54 -85.5t84 -54.5t110 -19t110.5 19t84.5 54.5t54 85.5t19 112t-19 112.5
t-54 86t-84.5 55t-110.5 19.5t-110 -19.5t-84 -55t-54 -86t-19 -112.5zM377 598q-23 0 -42.5 7.5t-37 17t-34.5 17t-33 7.5q-19 0 -29.5 -13.5t-15.5 -35.5h-63q3 23 11.5 46t23.5 41.5t35.5 30t46.5 11.5q20 0 39 -6.5t37 -15t34.5 -15t32.5 -6.5q18 0 28 10t15 33h64
q-5 -26 -12.5 -49t-20.5 -41t-32.5 -28.5t-46.5 -10.5z" />
    <glyph glyph-name="uacute" unicode="&#xfa;" horiz-adv-x="593" 
d="M539 0v517h-142v-271q0 -79 -26 -113.5t-84 -34.5q-51 0 -71 31.5t-20 95.5v292h-142v-318q0 -48 8.5 -87.5t29.5 -67t57.5 -42.5t93.5 -15q45 0 88 20t70 65h3v-72h135zM483 785l-163 -177h-99l106 177h156z" />
    <glyph glyph-name="ugrave" unicode="&#xf9;" horiz-adv-x="593" 
d="M539 0v517h-142v-271q0 -79 -26 -113.5t-84 -34.5q-51 0 -71 31.5t-20 95.5v292h-142v-318q0 -48 8.5 -87.5t29.5 -67t57.5 -42.5t93.5 -15q45 0 88 20t70 65h3v-72h135zM266 785l106 -177h-99l-163 177h156z" />
    <glyph glyph-name="ucircumflex" unicode="&#xfb;" horiz-adv-x="593" 
d="M232 723l-111 -142h108l64 81l62 -81h117l-110 142h-130zM539 0v517h-142v-271q0 -79 -26 -113.5t-84 -34.5q-51 0 -71 31.5t-20 95.5v292h-142v-318q0 -48 8.5 -87.5t29.5 -67t57.5 -42.5t93.5 -15q45 0 88 20t70 65h3v-72h135z" />
    <glyph glyph-name="udieresis" unicode="&#xfc;" horiz-adv-x="593" 
d="M126 714v-117h135v117h-135zM332 714v-117h135v117h-135zM539 0v517h-142v-271q0 -79 -26 -113.5t-84 -34.5q-51 0 -71 31.5t-20 95.5v292h-142v-318q0 -48 8.5 -87.5t29.5 -67t57.5 -42.5t93.5 -15q45 0 88 20t70 65h3v-72h135z" />
    <glyph glyph-name="dagger" unicode="&#x2020;" horiz-adv-x="556" 
d="M210 400v-565h135v565h187v117h-187v197h-135v-197h-186v-117h186z" />
    <glyph glyph-name="degree" unicode="&#xb0;" horiz-adv-x="400" 
d="M117 566q0 18 7 34t18.5 28t26.5 19t31 7t31 -7t26.5 -19t18.5 -28t7 -34t-7 -34t-18.5 -28t-26.5 -19t-31 -7t-31 7t-26.5 19t-18.5 28t-7 34zM52 566q0 -31 11.5 -58t31.5 -47t47 -31.5t58 -11.5t58 11.5t47 31.5t31.5 47t11.5 58t-11.5 58t-31.5 47t-47 31.5t-58 11.5
t-58 -11.5t-47 -31.5t-31.5 -47t-11.5 -58z" />
    <glyph glyph-name="cent" unicode="&#xa2;" horiz-adv-x="556" 
d="M260 -13v-101h59v101q46 4 85.5 20t69.5 43.5t48.5 66t22.5 86.5h-139q0 -19 -7 -37.5t-18.5 -33.5t-27.5 -25.5t-34 -13.5v331q34 -3 58 -28.5t27 -61.5h139q-2 45 -21.5 81.5t-51 62t-71 39.5t-80.5 14v85h-59v-85q-58 -5 -102.5 -28t-75 -60.5t-46 -86.5t-15.5 -106
q0 -53 17 -99.5t48.5 -82t75.5 -57t98 -24.5zM260 423v-330q-28 9 -46.5 26.5t-29.5 41t-16 50t-5 53.5q0 26 5 51.5t16.5 47t30 37.5t45.5 23z" />
    <glyph glyph-name="sterling" unicode="&#xa3;" horiz-adv-x="556" 
d="M26 76l62 -92q29 22 58.5 29.5t56.5 7.5q33 0 55 -6t44 -14q21 -7 46 -12t63 -5t79 14t77 49l-60 101q-27 -29 -47.5 -36t-40.5 -7t-39 3.5t-39 8.5q-20 4 -39.5 7.5t-39.5 3.5q-14 0 -29 -4t-39 -19l-2 2q33 26 57.5 59.5t24.5 80.5q0 17 -1.5 32t-6.5 30h105v85h-133
q-15 27 -23.5 46t-12 33.5t-4.5 25.5t-1 23q0 42 26.5 67t71.5 25q38 0 59.5 -15.5t32 -36.5t13.5 -43.5t4 -37.5h135q0 122 -64 186t-179 64q-63 0 -111 -16t-80 -43.5t-48.5 -63.5t-16.5 -76q0 -45 15 -82t30 -56h-64v-85h99q8 -17 13.5 -33.5t5.5 -33.5q0 -27 -10 -51.5
t-25.5 -45.5t-36 -38.5t-41.5 -30.5z" />
    <glyph glyph-name="section" unicode="&#xa7;" horiz-adv-x="556" 
d="M370 538h124q0 47 -16.5 82.5t-45 60.5t-67 37.5t-82.5 12.5q-38 0 -75.5 -11t-67 -33t-48 -54.5t-18.5 -74.5q0 -32 11 -55t32 -46q-51 -18 -79 -55t-28 -91q0 -49 26 -84t65 -61t84 -45.5t83 -38.5t63 -40t24 -50q0 -33 -21.5 -49.5t-52.5 -16.5q-45 0 -70.5 21.5
t-27.5 64.5h-124q0 -50 17 -86.5t47.5 -60t71.5 -35t89 -11.5q38 0 76 10.5t68.5 31.5t49.5 52.5t19 73.5q0 35 -13 65t-42 52q48 17 76 56t28 90q0 47 -24.5 80.5t-61.5 59t-81 44.5t-81.5 38t-62.5 39.5t-26 48.5q0 30 24.5 47t51.5 17q40 0 62.5 -24.5t22.5 -61.5z
M212 380l165 -93q18 -10 31.5 -25t13.5 -38q0 -8 -3.5 -17.5t-9.5 -18t-14.5 -14t-18.5 -5.5q-9 0 -17 2.5t-13 4.5l-180 98q-17 9 -24.5 22t-7.5 27q0 11 4 22.5t10.5 21t16 16t20.5 7.5q8 1 14.5 -3t12.5 -7z" />
    <glyph glyph-name="bullet" horiz-adv-x="501" 
d="M72 357q0 -37 14 -69.5t38 -57t56.5 -38.5t69.5 -14t69.5 14t57 38.5t38.5 57t14 69.5t-14 69.5t-38.5 56.5t-57 38t-69.5 14t-69.5 -14t-56.5 -38t-38 -56.5t-14 -69.5z" />
    <glyph glyph-name="paragraph" unicode="&#xb6;" horiz-adv-x="620" 
d="M221 357v-522h102v799h110v-799h102v879h-293q-52 0 -96 -9t-76 -30t-50 -56t-18 -87q0 -81 56.5 -128t162.5 -47z" />
    <glyph glyph-name="germandbls" unicode="&#xdf;" 
d="M56 491v-491h142v516q0 45 23 71.5t66 26.5q11 0 27.5 -2t31.5 -11t26 -26.5t11 -49.5q0 -23 -9 -40t-23.5 -28t-33.5 -16t-39 -5q-5 0 -10.5 0.5t-11.5 1.5v-94q9 1 18 1.5t17 0.5q63 0 92.5 -34t29.5 -88q0 -25 -8.5 -47t-24 -38.5t-36.5 -26t-47 -9.5q-11 0 -21 1
t-20 4v-115q41 -6 82 -6q48 0 87.5 18.5t68.5 50.5t45 74t16 89q0 32 -8 61.5t-24.5 53.5t-40.5 40.5t-57 23.5v2q42 13 67.5 52t25.5 87q0 50 -18.5 86t-50 59.5t-72.5 35t-86 11.5q-75 0 -121 -22t-71.5 -56.5t-34 -77t-8.5 -84.5z" />
    <glyph glyph-name="registered" unicode="&#xae;" horiz-adv-x="800" 
d="M334 393v110h70q14 0 29.5 -2t28 -7.5t20.5 -15.5t8 -27q0 -38 -23 -48t-59 -10h-74zM251 568v-419h83v179h52l102 -179h87l-112 183q23 2 43 9t35 20t23.5 33.5t8.5 49.5q0 68 -42.5 96t-121.5 28h-158zM118 358q0 64 22 117.5t60 92.5t89.5 61t110.5 22q58 0 109.5 -22
t89.5 -61t60.5 -92.5t22.5 -117.5t-22.5 -118t-60.5 -93.5t-89.5 -61.5t-109.5 -22q-59 0 -110.5 22t-89.5 61.5t-60 93.5t-22 118zM16 358q0 -86 31.5 -155t84.5 -118t122.5 -75t145.5 -26t145.5 26t122.5 75t84.5 118t31.5 155q0 85 -31.5 154t-84.5 117.5t-122.5 75
t-145.5 26.5t-145.5 -26.5t-122.5 -75t-84.5 -117.5t-31.5 -154z" />
    <glyph glyph-name="copyright" unicode="&#xa9;" horiz-adv-x="800" 
d="M596 295h-81q-5 -36 -32 -57t-69 -21q-27 0 -49 11.5t-37.5 31t-24 46t-8.5 55.5q0 63 30 102.5t87 39.5q39 0 67 -20t36 -55h78q-5 38 -21 67t-40 48.5t-54.5 29.5t-65.5 10q-50 0 -89.5 -17t-67 -47t-42 -71t-14.5 -89q0 -47 15.5 -87.5t43.5 -70.5t67.5 -47t88.5 -17
q33 0 63.5 10.5t55 31t41 50t22.5 66.5zM118 357q0 64 22 118t60 93t89.5 61t110.5 22q58 0 109.5 -22t89.5 -61t60.5 -93t22.5 -118t-22.5 -118t-60.5 -93t-89.5 -61t-109.5 -22q-59 0 -110.5 22t-89.5 61t-60 93t-22 118zM16 357q0 -85 31.5 -154t84.5 -118t122.5 -75
t145.5 -26t145.5 26t122.5 75t84.5 118t31.5 154q0 86 -31.5 155t-84.5 117.5t-122.5 75t-145.5 26.5t-145.5 -26.5t-122.5 -75t-84.5 -117.5t-31.5 -155z" />
    <glyph glyph-name="trademark" unicode="&#x2122;" horiz-adv-x="1000" 
d="M398 634v80h-336v-80h117v-332h102v332h117zM928 302v412h-135l-103 -271l-103 271h-136v-412h96v292h2l106 -292h69l106 292h2v-292h96z" />
    <glyph glyph-name="acute" unicode="&#xb4;" horiz-adv-x="259" 
d="M315 785l-163 -177h-99l106 177h156z" />
    <glyph glyph-name="dieresis" unicode="&#xa8;" horiz-adv-x="259" 
d="M94 714v-117h-134v117h134zM300 714v-117h-135v117h135z" />
    <glyph glyph-name="notequal" unicode="&#x2260;" horiz-adv-x="600" 
d="M106 -7l50 99h-108v107h163l54 107h-217v107h272l81 158l89 -45l-58 -113h121v-107h-175l-55 -107h230v-107h-284l-74 -145z" />
    <glyph glyph-name="AE" unicode="&#xc6;" horiz-adv-x="981" 
d="M330 714l-340 -714h166l72 159h224v-159h492v132h-340v175h312v122h-312v153h332v132h-606zM280 276l138 306h34v-306h-172z" />
    <glyph glyph-name="Oslash" unicode="&#xd8;" horiz-adv-x="778" 
d="M261 164l295 326q14 -31 20.5 -65.5t6.5 -70.5q0 -45 -10.5 -87.5t-33.5 -76.5t-60 -54.5t-90 -20.5q-42 0 -73.5 13t-54.5 36zM519 548l-296 -329q-15 31 -21.5 65.5t-6.5 69.5q0 47 10.5 91t33.5 78.5t60 55t90 20.5q43 0 75 -14t55 -37zM120 105l-86 -95l49 -42l83 91
q42 -35 98 -55t125 -20q83 0 148 28.5t110 78.5t69 117.5t24 145.5q0 75 -20.5 138t-59.5 114l84 93l-50 44l-80 -89q-43 37 -99.5 57t-125.5 20q-82 0 -147.5 -29t-110.5 -80t-69 -119.5t-24 -148.5q0 -72 20 -135t62 -114z" />
    <glyph glyph-name="infinity" unicode="&#x221e;" horiz-adv-x="823" 
d="M220 69q-41 0 -73 14.5t-55 39t-35 58.5t-12 73t11.5 72.5t33.5 58t54 39t72 14.5q33 0 60.5 -10t51 -26.5t44 -38t40.5 -45.5q19 23 39.5 45t44 38.5t51 26.5t59.5 10q40 0 72 -14t54 -38.5t34 -57.5t12 -72t-12 -73t-34 -59.5t-54.5 -40t-72.5 -14.5q-31 0 -58 9.5
t-50.5 25t-44.5 36t-40 42.5q-21 -22 -41 -42.5t-42.5 -36t-49 -25t-59.5 -9.5zM219 170q19 0 38 7.5t36 19t32 26t27 28.5q-12 13 -28 28.5t-33.5 28.5t-36.5 21.5t-38 8.5q-35 0 -55.5 -26.5t-20.5 -59.5q0 -36 21 -59t58 -23zM607 170q37 0 57 24t20 59t-21.5 60
t-58.5 25q-20 0 -38.5 -8.5t-35 -21.5t-31.5 -28.5t-27 -28.5q13 -15 28 -29.5t32 -26t35.5 -18.5t39.5 -7z" />
    <glyph glyph-name="plusminus" unicode="&#xb1;" horiz-adv-x="600" 
d="M48 107v-107h505v107h-505zM354 375v131h-107v-131h-199v-107h199v-131h107v131h199v107h-199z" />
    <glyph glyph-name="lessequal" unicode="&#x2264;" horiz-adv-x="600" 
d="M48 66h505v-101h-505v101zM48 272v103l505 179v-107l-367 -123l367 -117v-107z" />
    <glyph glyph-name="greaterequal" unicode="&#x2265;" horiz-adv-x="600" 
d="M49 -35v101h505v-101h-505zM49 100v107l367 117l-367 123v107l505 -179v-103z" />
    <glyph glyph-name="yen" unicode="&#xa5;" horiz-adv-x="556" 
d="M207 0h152v138h158v95h-158v46l15 29h143v95h-95l155 311h-162l-129 -311l-132 311h-162l153 -311h-95v-95h143l14 -29v-46h-157v-95h157v-138z" />
    <glyph glyph-name="mu" unicode="&#xb5;" horiz-adv-x="593" 
d="M539 0v517h-142v-271q0 -79 -26 -113.5t-84 -34.5q-51 0 -71 31.5t-20 95.5v292h-142v-698h142v191q9 -10 27 -16.5t48 -6.5q12 0 28.5 5t34.5 15.5t35.5 26.5t31.5 38h3v-72h135z" />
    <glyph glyph-name="partialdiff" unicode="&#x2202;" horiz-adv-x="560" 
d="M259 -13q-51 0 -92 17t-70.5 48t-45.5 73t-16 92q0 48 16 88.5t44.5 70.5t69 46.5t88.5 16.5q40 0 73.5 -13t64.5 -38v18q0 34 -6.5 73t-22.5 72t-44 54.5t-71 21.5q-38 0 -65 -13.5t-56 -36.5l-65 74q42 33 83.5 51.5t96.5 18.5q78 0 130.5 -32t84.5 -83t45.5 -116
t13.5 -131q0 -64 -10.5 -130t-38.5 -120t-78 -88t-129 -34zM262 78q35 0 59.5 19t39.5 49t22 68t7 76q-23 28 -52.5 43.5t-66.5 15.5q-30 0 -52 -11.5t-37 -30.5t-22 -44t-7 -52q0 -26 6.5 -49.5t19.5 -42.5t33.5 -30t49.5 -11z" />
    <glyph glyph-name="summation" unicode="&#x2211;" horiz-adv-x="618" 
d="M5 -114l299 406l-286 395v99h584v-115h-420l269 -378l-287 -393h449v-114h-608v100z" />
    <glyph glyph-name="product" unicode="&#x220f;" horiz-adv-x="749" 
d="M69 786h611v-1000h-135v883h-341v-883h-135v1000z" />
    <glyph glyph-name="pi" unicode="&#x3c0;" horiz-adv-x="666" 
d="M532 -7q-33 0 -55 10t-34.5 27.5t-18 41.5t-5.5 51v287h-184v-410h-135v410h-70v107h603v-107h-79v-242q0 -11 0.5 -21.5t4.5 -19t11.5 -13.5t21.5 -5q21 0 44 10v-106q-21 -10 -51 -15t-53 -5z" />
    <glyph glyph-name="integral" unicode="&#x222b;" horiz-adv-x="417" 
d="M117 -213q-18 0 -38.5 5t-38 15t-29 25.5t-11.5 36.5q0 24 16.5 39t40.5 15t34.5 -12.5t16 -27.5t9 -27.5t14.5 -12.5q13 0 16 11.5t3 21.5q0 32 -2.5 63.5t-2.5 63.5v521q0 44 3 90t18 84t47.5 62.5t91.5 24.5q17 0 36.5 -4.5t36.5 -14t28 -24t11 -35.5
q0 -24 -15.5 -41.5t-40.5 -17.5q-24 0 -35 12.5t-16.5 27t-10 27t-14.5 12.5q-12 0 -15 -10.5t-3 -19.5q0 -38 2 -75.5t2 -75.5v-479q0 -44 -2 -93.5t-16 -91t-45.5 -68.5t-90.5 -27z" />
    <glyph glyph-name="ordfeminine" unicode="&#xaa;" horiz-adv-x="344" 
d="M20 605h102q2 23 17 33.5t32 10.5q25 0 42.5 -6.5t17.5 -32.5q0 -12 -8.5 -18.5t-22.5 -10t-33.5 -5t-42.5 -4.5q-21 -3 -41.5 -8t-36.5 -15.5t-26 -28t-10 -45.5q0 -53 32.5 -76.5t79.5 -23.5q27 0 56.5 8.5t51.5 31.5q1 -8 3 -15.5t4 -15.5h101q-12 23 -12 75v166
q0 28 -13.5 45.5t-35 27t-48.5 13t-53 3.5q-28 0 -54 -5t-47 -17t-35.5 -33t-19.5 -54zM230 535v-20q0 -12 -2 -25t-9.5 -24t-22 -18.5t-39.5 -7.5q-14 0 -29.5 7.5t-15.5 29.5q0 19 15 27t36 13q15 3 35.5 5.5t31.5 12.5z" />
    <glyph glyph-name="ordmasculine" unicode="&#xba;" horiz-adv-x="367" 
d="M119 544q0 17 3.5 34t11.5 30.5t20 22t29 8.5t29.5 -8.5t20.5 -22t11.5 -30.5t3.5 -34q0 -16 -3.5 -33t-11.5 -30.5t-20.5 -22t-29.5 -8.5t-29 8.5t-20 22t-11.5 30.5t-3.5 33zM12 544q0 -79 46.5 -124t124.5 -45t125 45t47 124t-47 124.5t-125 45.5t-124.5 -45.5
t-46.5 -124.5z" />
    <glyph glyph-name="Omegagreek" unicode="&#x3a9;" horiz-adv-x="773" 
d="M387 599q-43 0 -78.5 -14t-60.5 -41t-39 -67.5t-14 -92.5q0 -47 9.5 -84.5t28 -69t45.5 -59t63 -53.5v-118h-306v128h137v5q-59 36 -96.5 101t-37.5 159q0 72 26 134t72.5 107t110.5 71t140 26q77 0 141 -24t110.5 -68.5t72 -107t25.5 -138.5q0 -47 -11.5 -86.5
t-30.5 -72t-44.5 -58t-53.5 -43.5v-5h141v-128h-305v118q37 25 64.5 52.5t46 59t27.5 69.5t9 85q0 105 -52 160t-140 55z" />
    <glyph glyph-name="ae" unicode="&#xe6;" horiz-adv-x="907" 
d="M736 314h-227q0 24 8 46t23 39t36.5 27t48.5 10t47.5 -10t35 -27t21.5 -39t7 -46zM509 224h369q0 60 -13 115.5t-41.5 98t-73.5 68t-110 25.5q-63 0 -103 -17.5t-70 -52.5q-14 20 -34 33.5t-43 21.5t-47 11.5t-47 3.5q-45 0 -88.5 -9t-77 -29.5t-55 -54t-23.5 -82.5h142
q2 45 29.5 62.5t69.5 17.5q17 0 33.5 -2.5t29.5 -10t21 -20.5t8 -33t-10 -31t-31.5 -17.5t-54.5 -11.5t-78 -12q-32 -5 -63 -13.5t-55.5 -26t-39.5 -46t-15 -72.5q0 -43 16.5 -72.5t43.5 -47.5t61.5 -25.5t71.5 -7.5q29 0 59 4.5t57.5 15t52 27t42.5 40.5q33 -47 85 -67
t108 -20q42 0 80.5 11.5t69.5 34t54 55t34 74.5h-138q-7 -38 -31 -59.5t-72 -21.5q-30 0 -53 13t-39 33t-24 46t-7 51zM385 252v-64q0 -28 -11 -48.5t-28 -33.5t-37.5 -19t-40.5 -6q-16 0 -32 3t-28.5 11t-20 21t-7.5 32q0 25 11.5 39t30 22t41.5 11.5t45.5 7t43 8.5
t33.5 16z" />
    <glyph glyph-name="oslash" unicode="&#xf8;" 
d="M104 69l-60 -68l37 -31l59 66q67 -49 165 -49q61 0 110.5 19t84.5 54.5t54 85.5t19 112q0 60 -18 109t-51 84l54 61l-37 32l-53 -61q-67 48 -163 48q-61 0 -110 -19.5t-84 -55t-54 -86t-19 -112.5q0 -117 66 -189zM220 127l195 222q8 -20 12 -43.5t4 -47.5
q0 -31 -6 -60.5t-20.5 -53t-39 -37.5t-60.5 -14q-29 0 -50 9t-35 25zM388 392l-193 -220q-8 19 -11.5 41t-3.5 45q0 31 6 61t20.5 53t38.5 37.5t60 14.5q53 0 83 -32z" />
    <glyph glyph-name="questiondown" unicode="&#xbf;" horiz-adv-x="556" 
d="M363 377v154h-157v-154h157zM522 51h-147q0 -26 -6 -49.5t-18.5 -41t-31.5 -28t-45 -10.5q-40 0 -62.5 22t-22.5 67q-1 27 9.5 45t27.5 33t37 30t38 35.5t31.5 49.5t16.5 72v45h-135v-38q-4 -30 -19 -50t-35.5 -36t-42.5 -31t-41 -37t-31.5 -53t-12.5 -78
q0 -29 12.5 -62.5t41.5 -62.5t77 -48.5t118 -19.5q54 0 98 18.5t75.5 51.5t49 78t18.5 98z" />
    <glyph glyph-name="exclamdown" unicode="&#xa1;" horiz-adv-x="278" 
d="M65 9v-191h148v191l-38 308h-71zM218 377v154h-157v-154h157z" />
    <glyph glyph-name="logicalnot" unicode="&#xac;" horiz-adv-x="600" 
d="M552 99v307h-504v-107h397v-200h107z" />
    <glyph glyph-name="radical" unicode="&#x221a;" horiz-adv-x="565" 
d="M92 96l-52 -25l-45 97l160 73l123 -264l165 809h127l-214 -1000h-114z" />
    <glyph glyph-name="florin" unicode="&#x192;" horiz-adv-x="556" 
d="M14 -59l-18 -107q20 -2 37 -2.5t36 -0.5q56 0 92 12t59 36.5t36 61t22 86.5l56 310h100l16 95h-98l25 130q6 32 21.5 47t54.5 15q10 0 19.5 -1t20.5 -6l18 107q-32 7 -75 7q-49 0 -84 -9t-59 -29.5t-39 -53.5t-24 -80l-24 -127h-91l-18 -95h92l-63 -329q-6 -34 -20 -52.5
t-52 -17.5q-20 0 -40 3z" />
    <glyph glyph-name="approxequal" unicode="&#x2248;" horiz-adv-x="600" 
d="M32 65q3 31 12.5 62t27 56t44 40t62.5 15q31 0 63.5 -10.5t65.5 -22.5t65.5 -22.5t62.5 -10.5q28 0 42.5 20.5t19.5 45.5h71q-3 -33 -12.5 -64t-27 -55t-44 -39t-64.5 -15q-30 0 -65 11t-70 23.5t-66 23.5t-52 11q-28 0 -43.5 -22.5t-20.5 -46.5h-71v0zM32 272
q3 31 12.5 62t27 56t44 40t62.5 15q31 0 63.5 -10.5t65.5 -22.5t65.5 -22.5t62.5 -10.5q28 0 42.5 20.5t19.5 45.5h71q-3 -33 -12.5 -64t-27 -55t-44 -39t-64.5 -15q-30 0 -65 11t-70 23.5t-66 23.5t-52 11q-28 0 -43.5 -22.5t-20.5 -46.5h-71v0z" />
    <glyph glyph-name="Delta" unicode="&#x2206;" horiz-adv-x="686" 
d="M264 714h161l267 -714h-698zM499 117l-155 436h-2l-160 -436h317z" />
    <glyph glyph-name="guillemotleft" unicode="&#xab;" horiz-adv-x="444" 
d="M42 205l157 -125v120l-90 72l90 71v120l-157 -123v-135zM245 205l157 -125v120l-90 72l90 71v120l-157 -123v-135z" />
    <glyph glyph-name="guillemotright" unicode="&#xbb;" horiz-adv-x="444" 
d="M199 340l-157 123v-120l90 -71l-90 -72v-120l157 125v135zM402 340l-157 123v-120l90 -71l-90 -72v-120l157 125v135z" />
    <glyph glyph-name="ellipsis" unicode="&#x2026;" horiz-adv-x="1000" 
d="M754 154v-154h157v154h-157zM421 154v-154h157v154h-157zM88 154v-154h157v154h-157z" />
    <glyph glyph-name="nonbreakingspace" unicode="&#xa0;" horiz-adv-x="278" 
 />
    <glyph glyph-name="Agrave" unicode="&#xc0;" horiz-adv-x="685" 
d="M249 276l93 262h2l90 -262h-185zM264 714l-270 -714h158l56 159h267l54 -159h163l-267 714h-161zM321 950l106 -177h-99l-163 177h156z" />
    <glyph glyph-name="Atilde" unicode="&#xc3;" horiz-adv-x="685" 
d="M249 276l93 262h2l90 -262h-185zM264 714l-270 -714h158l56 159h267l54 -159h163l-267 714h-161zM415 799q-23 0 -42.5 7.5t-37 17t-34.5 17t-33 7.5q-19 0 -29.5 -13.5t-15.5 -35.5h-63q3 23 11.5 46t23.5 41.5t35.5 30t46.5 11.5q20 0 39 -6.5t37 -15t34.5 -15
t32.5 -6.5q18 0 28 10t15 33h64q-5 -26 -12.5 -49t-20.5 -41t-32.5 -28.5t-46.5 -10.5z" />
    <glyph glyph-name="Otilde" unicode="&#xd5;" horiz-adv-x="778" 
d="M195 354q0 47 10.5 91t33.5 78.5t60 55t90 20.5t90 -20.5t60 -55t33.5 -78.5t10.5 -91q0 -45 -10.5 -87.5t-33.5 -76.5t-60 -54.5t-90 -20.5t-90 20.5t-60 54.5t-33.5 76.5t-10.5 87.5zM38 354q0 -78 24 -145.5t69 -117.5t110.5 -78.5t147.5 -28.5q83 0 148 28.5
t110 78.5t69 117.5t24 145.5q0 80 -24 148.5t-69 119.5t-110 80t-148 29q-82 0 -147.5 -29t-110.5 -80t-69 -119.5t-24 -148.5zM461 799q-23 0 -42.5 7.5t-37 17t-34.5 17t-33 7.5q-19 0 -29.5 -13.5t-15.5 -35.5h-63q3 23 11.5 46t23.5 41.5t35.5 30t46.5 11.5
q20 0 39 -6.5t37 -15t34.5 -15t32.5 -6.5q18 0 28 10t15 33h64q-5 -26 -12.5 -49t-20.5 -41t-32.5 -28.5t-46.5 -10.5z" />
    <glyph glyph-name="OE" unicode="&#x152;" horiz-adv-x="1093" 
d="M538 448v-170q0 -73 -42.5 -118t-114.5 -45q-50 0 -85.5 21t-58 55t-32.5 77t-10 87q0 45 10 88.5t32.5 78t58.5 56t88 21.5q33 0 61.5 -11t49 -31t32 -47.5t11.5 -61.5zM544 54v-54h507v132h-361v175h324v122h-324v153h354v132h-500v-51h-2q-30 38 -76 53t-93 15
q-79 0 -141.5 -31t-105.5 -83.5t-65.5 -121t-22.5 -142.5t22 -141t64.5 -117.5t104.5 -80.5t141 -30q48 0 94 17.5t78 52.5h2z" />
    <glyph glyph-name="oe" unicode="&#x153;" horiz-adv-x="926" 
d="M528 224h369q0 62 -14 117.5t-44.5 97.5t-78.5 67t-117 25q-23 0 -48 -5.5t-48.5 -16t-43.5 -25.5t-33 -35q-29 45 -78 63.5t-100 18.5q-58 0 -105 -21t-80 -57t-51 -85.5t-18 -106.5q0 -55 15.5 -105t46 -87.5t76 -59.5t105.5 -22q26 0 52.5 4.5t51 15t45 27t34.5 40.5
q30 -48 81.5 -67.5t105.5 -19.5q88 0 152.5 46t89.5 131h-138q-14 -35 -39.5 -53t-64.5 -18q-62 0 -92.5 37.5t-30.5 93.5zM290 93q-32 0 -53 15.5t-34 39.5t-18 52.5t-5 55.5q0 30 5.5 60t18.5 54t34.5 39t54.5 15q36 0 57.5 -16t33.5 -40t16 -53t4 -55q0 -28 -4.5 -57.5
t-17 -54t-34.5 -40t-58 -15.5zM755 314h-227q2 46 30 78t82 32q57 0 85 -29.5t30 -80.5z" />
    <glyph glyph-name="endash" unicode="&#x2013;" horiz-adv-x="500" 
d="M0 334v-122h500v122h-500z" />
    <glyph glyph-name="emdash" unicode="&#x2014;" horiz-adv-x="1000" 
d="M130 334v-122h740v122h-740z" />
    <glyph glyph-name="quotedblleft" unicode="&#x201c;" horiz-adv-x="463" 
d="M196 393v154h-66q0 37 14 62.5t52 38.5v66q-31 -4 -57.5 -18.5t-45.5 -36.5t-29.5 -51t-9.5 -62v-153h142zM409 393v154h-66q0 37 14 62.5t52 38.5v66q-31 -4 -57.5 -18.5t-45.5 -36.5t-29.5 -51t-9.5 -62v-153h142z" />
    <glyph glyph-name="quotedblright" unicode="&#x201d;" horiz-adv-x="463" 
d="M54 714v-154h66q0 -37 -14 -62.5t-52 -38.5v-66q31 4 57.5 18.5t45.5 36.5t29.5 51t9.5 62v153h-142zM267 714v-154h66q0 -37 -14 -62.5t-52 -38.5v-66q31 4 57.5 18.5t45.5 36.5t29.5 51t9.5 62v153h-142z" />
    <glyph glyph-name="quoteleft" unicode="&#x2018;" horiz-adv-x="278" 
d="M210 393v154h-66q0 37 14 62.5t52 38.5v66q-31 -4 -57.5 -18.5t-45.5 -36.5t-29.5 -51t-9.5 -62v-153h142z" />
    <glyph glyph-name="quoteright" unicode="&#x2019;" horiz-adv-x="278" 
d="M68 714v-154h66q0 -37 -14 -62.5t-52 -38.5v-66q31 4 57.5 18.5t45.5 36.5t29.5 51t9.5 62v153h-142z" />
    <glyph glyph-name="divide" unicode="&#xf7;" horiz-adv-x="600" 
d="M216 45q0 -16 7 -31.5t18.5 -27t27 -18.5t33.5 -7q17 0 32 7.5t26 19.5t18 27t7 30q0 18 -7 33t-18.5 26.5t-26.5 18t-32 6.5t-32.5 -6.5t-27 -18t-18.5 -26.5t-7 -33zM216 460q0 -17 7 -32.5t18.5 -27t27 -18t33.5 -6.5q17 0 32 7t26 19t18 27t7 31q0 18 -7 33.5
t-18.5 27t-26.5 18t-32 6.5q-34 0 -59.5 -24.5t-25.5 -60.5zM48 306v-107h505v107h-505z" />
    <glyph glyph-name="lozenge" unicode="&#x25ca;" horiz-adv-x="600" 
d="M65 349l180 384h110l181 -384l-181 -384h-110zM415 349l-115 266l-115 -266l115 -267z" />
    <glyph glyph-name="ydieresis" unicode="&#xff;" horiz-adv-x="519" 
d="M89 714v-117h135v117h-135zM295 714v-117h135v117h-135zM309 -64l216 581h-147l-113 -354h-2l-117 354h-151l181 -485q6 -15 6 -32q0 -23 -13.5 -42t-41.5 -22q-21 -1 -42 1t-41 4v-117q22 -2 43.5 -3.5t43.5 -1.5q73 0 114 27t64 90z" />
    <glyph glyph-name="Ydieresis" unicode="&#x178;" horiz-adv-x="667" 
d="M163 911v-117h135v117h-135zM369 911v-117h135v117h-135zM254 278v-278h157v274l265 440h-175l-166 -282l-167 282h-176z" />
    <glyph glyph-name="fraction" unicode="&#x2044;" horiz-adv-x="167" 
d="M248 722l-413 -743h87l411 743h-85z" />
    <glyph glyph-name="Euro" unicode="&#x20ac;" horiz-adv-x="556" 
d="M515 547l61 125q-98 50 -182 50q-119 0 -198 -76q-75 -70 -99 -191h-51l-31 -72h73q-1 -2 -1 -16v-26h-40l-31 -72h77q21 -131 91 -204q77 -81 203 -81q87 0 154 39l1 151q-79 -63 -154 -63q-116 0 -148 158h174l31 72h-213l1 42h224l31 72h-244q35 137 140 137
q61 0 131 -45z" />
    <glyph glyph-name="guilsinglleft" unicode="&#x2039;" horiz-adv-x="241" 
d="M42 205l157 -125v120l-90 72l90 71v120l-157 -123v-135z" />
    <glyph glyph-name="guilsinglright" unicode="&#x203a;" horiz-adv-x="241" 
d="M199 340l-157 123v-120l90 -71l-90 -72v-120l157 125v135z" />
    <glyph glyph-name="daggerdbl" unicode="&#x2021;" horiz-adv-x="556" 
d="M210 27v-192h135v192h187v117h-187v256h187v117h-187v197h-135v-197h-186v-117h186v-256h-186v-117h186z" />
    <glyph glyph-name="periodcentered" unicode="&#xb7;" horiz-adv-x="278" 
d="M55 287q0 -17 7 -32.5t18.5 -27t27 -18t33.5 -6.5q17 0 32 7t26 19t18 27t7 31q0 18 -7 33.5t-18.5 27t-26.5 18t-32 6.5q-34 0 -59.5 -24.5t-25.5 -60.5z" />
    <glyph glyph-name="quotesinglbase" unicode="&#x201a;" horiz-adv-x="278" 
d="M68 154v-154h66q0 -36 -14 -61.5t-52 -38.5v-66q31 4 57.5 18.5t45.5 37t29.5 51t9.5 60.5v153h-142z" />
    <glyph glyph-name="quotedblbase" unicode="&#x201e;" horiz-adv-x="463" 
d="M54 154v-154h66q0 -36 -14 -61.5t-52 -38.5v-66q31 4 57.5 18.5t45.5 37t29.5 51t9.5 60.5v153h-142zM267 154v-154h66q0 -36 -14 -61.5t-52 -38.5v-66q31 4 57.5 18.5t45.5 37t29.5 51t9.5 60.5v153h-142z" />
    <glyph glyph-name="perthousand" unicode="&#x2030;" horiz-adv-x="1147" 
d="M440 155q0 -75 38 -121.5t108 -46.5q39 0 66.5 12.5t45 35t26 53.5t8.5 68q0 36 -7.5 68t-24.5 55.5t-44.5 37t-68.5 13.5q-39 0 -67 -14t-45.5 -38t-26 -56t-8.5 -67zM564 722l-414 -743h87l412 743h-85zM159 556q0 14 1 30.5t7 30.5t17.5 23t32.5 9q20 0 31 -9.5
t16 -24.5t6 -34t1 -39q0 -18 -0.5 -37t-6 -34.5t-17 -25.5t-32.5 -10q-19 0 -30.5 11t-17 28t-7 39t-1.5 43zM69 539q0 -75 38 -122t108 -47q39 0 66.5 13t45 35.5t26 54t8.5 67.5t-7.5 68t-24.5 55.5t-44.5 37t-68.5 13.5q-39 0 -67 -14t-45.5 -38t-26 -56t-8.5 -67z
M876 172q0 14 1 30.5t7 30.5t17.5 23t32.5 9q20 0 31 -9.5t16 -24.5t6 -34t1 -39q0 -18 -0.5 -37t-6 -34.5t-17 -25.5t-32.5 -10q-19 0 -30.5 11t-17 28t-7 39t-1.5 43zM786 155q0 -75 38 -121.5t108 -46.5q39 0 66.5 12.5t45 35t26 53.5t8.5 68q0 36 -7.5 68t-24.5 55.5
t-44.5 37t-68.5 13.5q-39 0 -67 -14t-45.5 -38t-26 -56t-8.5 -67zM530 172q0 14 1 30.5t7 30.5t17.5 23t32.5 9q20 0 31 -9.5t16 -24.5t6 -34t1 -39q0 -18 -0.5 -37t-6 -34.5t-17 -25.5t-32.5 -10q-19 0 -30.5 11t-17 28t-7 39t-1.5 43z" />
    <glyph glyph-name="Acircumflex" unicode="&#xc2;" horiz-adv-x="685" 
d="M249 276l93 262h2l90 -262h-185zM264 714l-270 -714h158l56 159h267l54 -159h163l-267 714h-161zM278 920l-110 -142h107l64 81l62 -81h117l-110 142h-130z" />
    <glyph glyph-name="Ecircumflex" unicode="&#xca;" horiz-adv-x="648" 
d="M69 714v-714h542v132h-385v175h346v122h-346v153h377v132h-534zM275 920l-110 -142h107l64 81l62 -81h117l-110 142h-130z" />
    <glyph glyph-name="Aacute" unicode="&#xc1;" horiz-adv-x="685" 
d="M249 276l93 262h2l90 -262h-185zM264 714l-270 -714h158l56 159h267l54 -159h163l-267 714h-161zM525 955l-163 -177h-99l106 177h156z" />
    <glyph glyph-name="Edieresis" unicode="&#xcb;" horiz-adv-x="648" 
d="M154 911v-117h135v117h-135zM360 911v-117h135v117h-135zM69 714v-714h542v132h-385v175h346v122h-346v153h377v132h-534z" />
    <glyph glyph-name="Egrave" unicode="&#xc8;" horiz-adv-x="648" 
d="M69 714v-714h542v132h-385v175h346v122h-346v153h377v132h-534zM294 955l106 -177h-99l-163 177h156z" />
    <glyph glyph-name="Iacute" unicode="&#xcd;" horiz-adv-x="295" 
d="M69 714v-714h157v714h-157zM334 955l-163 -177h-99l106 177h156z" />
    <glyph glyph-name="Icircumflex" unicode="&#xce;" horiz-adv-x="295" 
d="M83 920l-110 -142h107l64 81l62 -81h117l-110 142h-130zM69 714v-714h157v714h-157z" />
    <glyph glyph-name="Idieresis" unicode="&#xcf;" horiz-adv-x="295" 
d="M-22 911v-117h134v117h-134zM183 911v-117h135v117h-135zM69 714v-714h157v714h-157z" />
    <glyph glyph-name="Igrave" unicode="&#xcc;" horiz-adv-x="295" 
d="M69 714v-714h157v714h-157zM111 955l106 -177h-99l-163 177h156z" />
    <glyph glyph-name="Oacute" unicode="&#xd3;" horiz-adv-x="778" 
d="M195 354q0 47 10.5 91t33.5 78.5t60 55t90 20.5t90 -20.5t60 -55t33.5 -78.5t10.5 -91q0 -45 -10.5 -87.5t-33.5 -76.5t-60 -54.5t-90 -20.5t-90 20.5t-60 54.5t-33.5 76.5t-10.5 87.5zM38 354q0 -78 24 -145.5t69 -117.5t110.5 -78.5t147.5 -28.5q83 0 148 28.5
t110 78.5t69 117.5t24 145.5q0 80 -24 148.5t-69 119.5t-110 80t-148 29q-82 0 -147.5 -29t-110.5 -80t-69 -119.5t-24 -148.5zM570 955l-163 -177h-99l106 177h156z" />
    <glyph glyph-name="Ocircumflex" unicode="&#xd4;" horiz-adv-x="778" 
d="M195 354q0 47 10.5 91t33.5 78.5t60 55t90 20.5t90 -20.5t60 -55t33.5 -78.5t10.5 -91q0 -45 -10.5 -87.5t-33.5 -76.5t-60 -54.5t-90 -20.5t-90 20.5t-60 54.5t-33.5 76.5t-10.5 87.5zM38 354q0 -78 24 -145.5t69 -117.5t110.5 -78.5t147.5 -28.5q83 0 148 28.5
t110 78.5t69 117.5t24 145.5q0 80 -24 148.5t-69 119.5t-110 80t-148 29q-82 0 -147.5 -29t-110.5 -80t-69 -119.5t-24 -148.5zM324 920l-110 -142h107l64 81l62 -81h117l-110 142h-130z" />
    <glyph glyph-name="apple" unicode="&#xf8ff;" horiz-adv-x="790" 
d="M408 588q-16 0 -69 15q-52 15 -89 15q-86 0 -143 -72q-56 -73 -56 -187q0 -124 74 -252q74 -129 150 -129q24 0 66 17q39 16 72 16q32 0 75 -15q44 -16 71 -16q65 0 129 97q21 32 36 63.5t25 61.5q-45 14 -79 63q-35 50 -35 112q0 57 33 103q18 26 57 60q-13 16 -26 28
t-26 22q-47 32 -107 32q-36 0 -87 -17t-71 -17zM561 790q0 4 -0.5 9t-2.5 12q-88 -20 -125.5 -74.5t-38.5 -128.5q32 3 51 8q26 9 55 36q31 32 46 69t15 69z" />
    <glyph glyph-name="Ograve" unicode="&#xd2;" horiz-adv-x="778" 
d="M195 354q0 47 10.5 91t33.5 78.5t60 55t90 20.5t90 -20.5t60 -55t33.5 -78.5t10.5 -91q0 -45 -10.5 -87.5t-33.5 -76.5t-60 -54.5t-90 -20.5t-90 20.5t-60 54.5t-33.5 76.5t-10.5 87.5zM38 354q0 -78 24 -145.5t69 -117.5t110.5 -78.5t147.5 -28.5q83 0 148 28.5
t110 78.5t69 117.5t24 145.5q0 80 -24 148.5t-69 119.5t-110 80t-148 29q-82 0 -147.5 -29t-110.5 -80t-69 -119.5t-24 -148.5zM357 955l106 -177h-99l-163 177h156z" />
    <glyph glyph-name="Uacute" unicode="&#xda;" horiz-adv-x="741" 
d="M675 270v444h-157v-444q0 -80 -32 -117.5t-116 -37.5q-48 0 -76.5 13.5t-44.5 35t-21 49.5t-5 57v444h-157v-444q0 -146 79.5 -216t224.5 -70q143 0 224 70.5t81 215.5zM557 955l-163 -177h-99l106 177h156z" />
    <glyph glyph-name="Ucircumflex" unicode="&#xdb;" horiz-adv-x="741" 
d="M306 920l-111 -142h108l64 81l62 -81h117l-110 142h-130zM675 270v444h-157v-444q0 -80 -32 -117.5t-116 -37.5q-48 0 -76.5 13.5t-44.5 35t-21 49.5t-5 57v444h-157v-444q0 -146 79.5 -216t224.5 -70q143 0 224 70.5t81 215.5z" />
    <glyph glyph-name="Ugrave" unicode="&#xd9;" horiz-adv-x="741" 
d="M675 270v444h-157v-444q0 -80 -32 -117.5t-116 -37.5q-48 0 -76.5 13.5t-44.5 35t-21 49.5t-5 57v444h-157v-444q0 -146 79.5 -216t224.5 -70q143 0 224 70.5t81 215.5zM345 955l106 -177h-99l-163 177h156z" />
    <glyph glyph-name="dotlessi" unicode="&#x131;" horiz-adv-x="258" 
d="M58 517v-517h142v517h-142z" />
    <glyph glyph-name="circumflex" unicode="&#x2c6;" horiz-adv-x="259" 
d="M65 723l-110 -142h107l64 81l62 -81h117l-110 142h-130z" />
    <glyph glyph-name="tilde" unicode="&#x2dc;" horiz-adv-x="259" 
d="M201 598q-23 0 -42.5 7.5t-37 17t-34.5 17t-33 7.5q-19 0 -29.5 -13.5t-15.5 -35.5h-63q3 23 11.5 46t23.5 41.5t35.5 30t46.5 11.5q20 0 39 -6.5t37 -15t34.5 -15t32.5 -6.5q18 0 28 10t15 33h64q-5 -26 -12.5 -49t-20.5 -41t-32.5 -28.5t-46.5 -10.5z" />
    <glyph glyph-name="macron" unicode="&#xaf;" horiz-adv-x="259" 
d="M316 691v-75h-372v75h372z" />
    <glyph glyph-name="breve" unicode="&#x2d8;" horiz-adv-x="259" 
d="M26 727q3 -20 13 -33.5t24.5 -22t30.5 -12t31 -3.5q45 0 73 16.5t37 54.5h63q-10 -78 -56.5 -112t-121.5 -34q-146 0 -158 146h64v0z" />
    <glyph glyph-name="dotaccent" unicode="&#x2d9;" horiz-adv-x="259" 
d="M197 739v-117h-135v117h135z" />
    <glyph glyph-name="ring" unicode="&#x2da;" horiz-adv-x="259" 
d="M7 656q0 -25 9.5 -47.5t26 -39t39 -26t47.5 -9.5q26 0 48 9.5t39 26t26.5 39t9.5 47.5q0 26 -9.5 48t-26.5 38.5t-39 26t-48 9.5q-25 0 -47.5 -9.5t-39 -26t-26 -38.5t-9.5 -48zM66 656q0 29 17 49.5t46 20.5t46.5 -20.5t17.5 -49.5t-17.5 -49.5t-46.5 -20.5t-46 20.5
t-17 49.5z" />
    <glyph glyph-name="cedilla" unicode="&#xb8;" horiz-adv-x="259" 
d="M33 -147l-21 -48q14 -5 26.5 -9t26 -7t30.5 -4.5t41 -1.5q22 0 43 4.5t37.5 16t26.5 31t10 48.5q0 18 -8 31.5t-21 22t-29.5 12.5t-33.5 4q-22 0 -34 -5h-2l39 54h-49l-59 -84l21 -24q18 7 40 7q17 0 28.5 -6.5t11.5 -25.5q0 -18 -11 -26t-29 -8q-26 0 -47 5.5t-37 12.5z
" />
    <glyph glyph-name="hungarumlaut" unicode="&#x2dd;" horiz-adv-x="259" 
d="M151 581l91 142h157l-149 -142h-99zM-55 581l90 142h157l-149 -142h-98z" />
    <glyph glyph-name="ogonek" unicode="&#x2db;" horiz-adv-x="259" 
d="M206 0q-26 -1 -44 -8.5t-29.5 -19.5t-16.5 -26.5t-5 -28.5q0 -17 6 -27t15 -16t19.5 -8t18.5 -2q14 0 28.5 2t21.5 4v-60q-11 -5 -31 -9t-47 -4q-20 0 -40 4.5t-36.5 15.5t-27 29t-10.5 45q0 33 16.5 57t42 40.5t56 24.5t58.5 9z" />
    <glyph glyph-name="caron" unicode="&#x2c7;" horiz-adv-x="259" 
d="M195 581l110 142h-110l-65 -81l-64 81h-111l110 -142h130z" />
    <glyph glyph-name="Omega" unicode="&#x2126;" horiz-adv-x="773" 
d="M388 599q-43 0 -78.5 -14t-60.5 -41t-39 -67.5t-14 -92.5q0 -47 9.5 -84.5t28 -69t45.5 -59t63 -53.5v-118h-306v128h137v5q-59 36 -96.5 101t-37.5 159q0 72 26 134t72.5 107t110.5 71t140 26q77 0 141 -24t110.5 -68.5t72 -107t25.5 -138.5q0 -47 -11.5 -86.5
t-30.5 -72t-44.5 -58t-53.5 -43.5v-5h141v-128h-305v118q37 25 64.5 52.5t46 59t27.5 69.5t9 85q0 105 -52 160t-140 55z" />
    <glyph glyph-name="currency" unicode="&#xa4;" horiz-adv-x="556" 
d="M280 491q30 0 53 -12t38 -31.5t22.5 -45t7.5 -51.5q0 -27 -7.5 -52.5t-22.5 -45.5t-38 -32t-54 -12t-54.5 11.5t-39.5 31t-24 45t-8 52.5q0 28 8 53.5t24 45t40 31.5t55 12zM77 207l-57 -58l56 -56l56 58q26 -24 64 -36.5t83 -12.5q42 0 80 13t63 37l57 -58l55 55l-55 56
q23 28 34.5 66t11.5 80t-11.5 80.5t-33.5 62.5l56 55l-61 61l-58 -57q-23 20 -60 32.5t-77 12.5q-42 0 -81.5 -12.5t-64.5 -33.5l-57 56l-57 -57l57 -58q-25 -25 -36.5 -63.5t-11.5 -80.5q0 -86 48 -142z" />
    <glyph glyph-name="Lslash" unicode="&#x141;" horiz-adv-x="593" 
d="M69 214v-214h505v132h-348v192l211 148v112l-211 -148v278h-157v-388l-79 -56v-112z" />
    <glyph glyph-name="lslash" unicode="&#x142;" horiz-adv-x="258" 
d="M58 286v-286h142v398l67 53v102l-67 -53v214h-142v-326l-66 -53v-102z" />
    <glyph glyph-name="threequarters" unicode="&#xbe;" horiz-adv-x="889" 
d="M709 313v-144h-116l114 144h2zM709 89v-89h96v89h57v80h-57v251h-100l-188 -238v-93h192zM181 534v-70q17 0 35 -1t33.5 -6t25.5 -17t10 -33q0 -28 -21.5 -45.5t-51.5 -17.5q-38 0 -56.5 24t-20.5 56h-96q-2 -78 46 -119t129 -41q35 0 66.5 9t55 27.5t37.5 45.5t14 63
q0 35 -21.5 61t-59.5 33v2q33 8 49.5 32t16.5 54q0 31 -13.5 54t-36 38.5t-51 23t-58.5 7.5q-75 0 -117.5 -41t-44.5 -111h96q-1 30 17 51t50 21q24 0 43 -14t19 -39q0 -18 -9.5 -27.5t-24 -14t-31 -5t-30.5 -0.5zM653 722l-414 -743h87l412 743h-85z" />
    <glyph glyph-name="onequarter" unicode="&#xbc;" horiz-adv-x="892" 
d="M689 313v-144h-116l114 144h2zM689 89v-89h96v89h57v80h-57v251h-100l-188 -238v-93h192zM236 273v432h-84q-3 -24 -14.5 -40.5t-29 -26t-39 -13.5t-45.5 -3v-75h110v-274h102zM566 722l-414 -743h87l412 743h-85z" />
    <glyph glyph-name="onesuperior" unicode="&#xb9;" horiz-adv-x="392" 
d="M289 273v432h-84q-3 -24 -14.5 -40.5t-29 -26t-39 -13.5t-45.5 -3v-75h110v-274h102z" />
    <glyph glyph-name="multiply" unicode="&#xd7;" horiz-adv-x="600" 
d="M64 93l76 -76l161 161l160 -161l76 76l-161 160l161 160l-76 76l-160 -160l-159 160l-76 -76l159 -160z" />
    <glyph glyph-name="Thorn" unicode="&#xde;" horiz-adv-x="667" 
d="M226 281v214h122q27 0 52 -4t44 -15.5t30.5 -32.5t11.5 -55t-11.5 -55t-30.5 -32.5t-44 -15.5t-52 -4h-122zM69 714v-714h157v159h165q67 0 114 19.5t76.5 51.5t43 73.5t13.5 84.5q0 44 -13.5 85t-43 73t-76.5 51.5t-114 19.5h-165v97h-157z" />
    <glyph glyph-name="brokenbar" unicode="&#xa6;" horiz-adv-x="223" 
d="M165 411v250h-107v-250h107zM58 161v-249h107v249h-107z" />
    <glyph glyph-name="Eth" unicode="&#xd0;" horiz-adv-x="741" 
d="M226 427v155h112q58 0 97.5 -16.5t63.5 -47.5t34.5 -74.5t10.5 -97.5q0 -59 -15 -100t-40 -66.5t-57 -36.5t-66 -11h-140v178h160v117h-160zM69 311v-311h308q82 0 142.5 27.5t101 75.5t60.5 114t20 144q0 89 -24.5 155t-68 110t-103 66t-128.5 22h-308v-287h-66v-116h66
z" />
    <glyph glyph-name="onehalf" unicode="&#xbd;" horiz-adv-x="889" 
d="M509 267h102q-1 15 2.5 31.5t12 30.5t22.5 23t35 9q28 0 44.5 -18t16.5 -44q0 -19 -9.5 -34t-24 -27t-31 -22t-31.5 -20q-29 -18 -54.5 -36t-44.5 -40.5t-30 -51t-11 -68.5h334v80h-209q26 34 62 55.5t70 43.5t57.5 50.5t23.5 76.5q0 33 -12.5 58.5t-34 42.5t-49.5 25.5
t-60 8.5q-92 0 -137 -48.5t-44 -125.5zM236 273v432h-84q-3 -24 -14.5 -40.5t-29 -26t-39 -13.5t-45.5 -3v-75h110v-274h102zM566 722l-414 -743h87l412 743h-85z" />
    <glyph glyph-name="minus" unicode="&#x2212;" horiz-adv-x="600" 
d="M48 306v-107h505v107h-505z" />
    <glyph glyph-name="eth" unicode="&#xf0;" 
d="M240 647l-107 -54l58 -56l112 56q25 -22 54.5 -53.5t47.5 -73.5h-2q-35 24 -70.5 32t-64.5 8q-60 0 -103.5 -23t-71.5 -60t-41.5 -83t-13.5 -93q0 -57 19 -105t54 -82.5t84 -53.5t110 -19t110.5 21.5t84.5 59.5t54 90.5t19 114.5q2 117 -41 206t-124 167l114 57l-52 59
l-123 -62q-45 36 -99 66l-92 -69q20 -10 41 -22t43 -28zM305 93q-36 0 -60 14t-38.5 37.5t-20.5 53t-6 60.5q0 27 6.5 54.5t21 49.5t38.5 35.5t58 13.5q35 0 59 -13.5t39 -35t22 -49t7 -55.5q0 -31 -6 -60.5t-20.5 -53t-39 -37.5t-60.5 -14z" />
    <glyph glyph-name="thorn" unicode="&#xfe;" 
d="M438 257q0 -31 -6 -61t-20.5 -52.5t-38 -36.5t-58.5 -14q-34 0 -58 14t-38.5 36.5t-21 52.5t-6.5 61q0 32 6 62t20.5 53t38 37.5t58.5 14.5q34 0 57.5 -14.5t38.5 -38t21.5 -53.5t6.5 -61zM54 714v-895h142v245h2q26 -38 66.5 -57.5t88.5 -19.5q57 0 99.5 22t71 59
t42.5 85t14 100q0 55 -14 105.5t-43 88.5t-73 61t-105 23q-43 0 -82 -19t-65 -61h-2v263h-142z" />
    <glyph glyph-name="twosuperior" unicode="&#xb2;" horiz-adv-x="392" 
d="M28 540h102q-1 15 2.5 31.5t12 30.5t22.5 23t35 9q28 0 44.5 -18t16.5 -44q0 -19 -9.5 -34t-24 -27t-31 -22t-31.5 -20q-29 -18 -54.5 -36t-44.5 -40.5t-30 -51t-11 -68.5h334v80h-209q26 34 62 55.5t70 43.5t57.5 50.5t23.5 76.5q0 33 -12.5 58.5t-34 42.5t-49.5 25.5
t-60 8.5q-92 0 -137 -48.5t-44 -125.5z" />
    <glyph glyph-name="threesuperior" unicode="&#xb3;" horiz-adv-x="392" 
d="M164 534v-70q17 0 35 -1t33.5 -6t25.5 -17t10 -33q0 -28 -21.5 -45.5t-51.5 -17.5q-38 0 -56.5 24t-20.5 56h-96q-2 -78 46 -119t129 -41q35 0 66.5 9t55 27.5t37.5 45.5t14 63q0 35 -21.5 61t-59.5 33v2q33 8 49.5 32t16.5 54q0 31 -13.5 54t-36 38.5t-51 23t-58.5 7.5
q-75 0 -117.5 -41t-44.5 -111h96q-1 30 17 51t50 21q24 0 43 -14t19 -39q0 -18 -9.5 -27.5t-24 -14t-31 -5t-30.5 -0.5z" />
    <glyph glyph-name="Scaron" unicode="&#x160;" horiz-adv-x="649" 
d="M390 778l110 142h-110l-65 -81l-64 81h-112l111 -142h130zM176 237h-152q-1 -66 24 -114t67.5 -79t98 -45.5t114.5 -14.5q73 0 128.5 17t93 47.5t56.5 72.5t19 91q0 60 -25.5 98.5t-60.5 61.5t-70.5 33.5t-55.5 14.5q-67 17 -108.5 28t-65 22t-31.5 24t-8 34q0 23 10 38
t25.5 25t34.5 14t38 4q29 0 53.5 -5t43.5 -17t30.5 -33t13.5 -53h152q0 62 -23.5 105.5t-63.5 71.5t-91.5 40.5t-107.5 12.5q-48 0 -96 -13t-86 -40t-61.5 -67.5t-23.5 -95.5q0 -49 18.5 -83.5t48.5 -57.5t68 -37.5t78 -24.5q39 -11 77 -20t68 -21t48.5 -30t18.5 -47
q0 -27 -14 -44.5t-35 -27.5t-45 -13.5t-45 -3.5q-31 0 -60 7.5t-50.5 23t-34.5 40.5t-13 61z" />
    <glyph glyph-name="Yacute" unicode="&#xdd;" horiz-adv-x="667" 
d="M254 278v-278h157v274l265 440h-175l-166 -282l-167 282h-176zM515 955l-163 -177h-99l106 177h156z" />
    <glyph glyph-name="Zcaron" unicode="&#x17d;" horiz-adv-x="648" 
d="M390 778l110 142h-110l-65 -81l-64 81h-112l111 -142h130zM23 124v-124h602v132h-393l383 458v124h-562v-132h353z" />
    <glyph glyph-name="scaron" unicode="&#x161;" horiz-adv-x="537" 
d="M334 581l110 142h-110l-65 -81l-64 81h-112l111 -142h130zM164 168h-135q2 -52 23.5 -86.5t55 -55.5t76.5 -30t88 -9q44 0 86.5 8.5t75.5 29.5t53.5 55.5t20.5 85.5q0 36 -14 60.5t-37 41t-52.5 26.5t-60.5 17q-30 7 -59 13t-51.5 13.5t-36.5 19.5t-14 31q0 16 8 25.5
t19.5 14.5t25.5 6.5t26 1.5q38 0 66 -14.5t31 -55.5h135q-4 48 -24.5 79.5t-51.5 50.5t-70.5 27t-81.5 8t-82 -7.5t-72 -26t-51.5 -50.5t-19.5 -82q0 -34 14 -57.5t37 -39t52.5 -25t60.5 -16.5q76 -16 118.5 -32t42.5 -48q0 -19 -9 -31.5t-22.5 -20t-30 -11t-31.5 -3.5
q-21 0 -40.5 5t-34.5 15.5t-24.5 27t-9.5 39.5z" />
    <glyph glyph-name="yacute" unicode="&#xfd;" horiz-adv-x="519" 
d="M309 -64l216 581h-147l-113 -354h-2l-117 354h-151l181 -485q6 -15 6 -32q0 -23 -13.5 -42t-41.5 -22q-21 -1 -42 1t-41 4v-117q22 -2 43.5 -3.5t43.5 -1.5q73 0 114 27t64 90zM448 785l-163 -177h-99l106 177h156z" />
    <glyph glyph-name="zcaron" unicode="&#x17e;" horiz-adv-x="519" 
d="M325 581l110 142h-110l-65 -81l-64 81h-112l111 -142h130zM22 107v-107h475v107h-288l269 303v107h-436v-107h249z" />
    <glyph glyph-name="gravecmb" unicode="&#x300;" horiz-adv-x="0" 
d="M-148 785l106 -177h-99l-163 177h156z" />
    <glyph glyph-name="acutecmb" unicode="&#x301;" horiz-adv-x="0" 
d="M58 785l-163 -177h-99l106 177h156z" />
    <glyph glyph-name="circumflexcmb" unicode="&#x302;" horiz-adv-x="0" 
d="M-192 723l-110 -142h107l64 81l62 -81h117l-110 142h-130z" />
    <glyph glyph-name="tildecmb" unicode="&#x303;" horiz-adv-x="0" 
d="M-56 598q-23 0 -42.5 7.5t-37 17t-34.5 17t-33 7.5q-19 0 -29.5 -13.5t-15.5 -35.5h-63q3 23 11.5 46t23.5 41.5t35.5 30t46.5 11.5q20 0 39 -6.5t37 -15t34.5 -15t32.5 -6.5q18 0 28 10t15 33h64q-5 -26 -12.5 -49t-20.5 -41t-32.5 -28.5t-46.5 -10.5z" />
    <glyph glyph-name="macroncmb" unicode="&#x304;" horiz-adv-x="0" 
d="M59 691v-75h-372v75h372z" />
    <glyph glyph-name="brevecmb" unicode="&#x306;" horiz-adv-x="0" 
d="M-231 727q3 -20 13 -33.5t24.5 -22t30.5 -12t31 -3.5q45 0 73 16.5t37 54.5h63q-10 -78 -56.5 -112t-121.5 -34q-146 0 -158 146h64v0z" />
    <glyph glyph-name="dotaccentcmb" unicode="&#x307;" horiz-adv-x="0" 
d="M-60 739v-117h-135v117h135z" />
    <glyph glyph-name="dieresiscmb" unicode="&#x308;" horiz-adv-x="0" 
d="M-163 714v-117h-134v117h134zM43 714v-117h-135v117h135z" />
    <glyph glyph-name="ringcmb" unicode="&#x30a;" horiz-adv-x="0" 
d="M-250 656q0 -25 9.5 -47.5t26 -39t39 -26t47.5 -9.5q26 0 48 9.5t39 26t26.5 39t9.5 47.5q0 26 -9.5 48t-26.5 38.5t-39 26t-48 9.5q-25 0 -47.5 -9.5t-39 -26t-26 -38.5t-9.5 -48zM-191 656q0 29 17 49.5t46 20.5t46.5 -20.5t17.5 -49.5t-17.5 -49.5t-46.5 -20.5
t-46 20.5t-17 49.5z" />
    <glyph glyph-name="hungarumlautcmb" unicode="&#x30b;" horiz-adv-x="0" 
d="M-106 581l91 142h157l-149 -142h-99zM-312 581l90 142h157l-149 -142h-98z" />
    <glyph glyph-name="caroncmb" unicode="&#x30c;" horiz-adv-x="0" 
d="M-62 581l110 142h-110l-65 -81l-64 81h-111l110 -142h130z" />
    <glyph glyph-name="cedillacmb" unicode="&#x327;" horiz-adv-x="0" 
d="M-224 -147l-21 -48q14 -5 26.5 -9t26 -7t30.5 -4.5t41 -1.5q22 0 43 4.5t37.5 16t26.5 31t10 48.5q0 18 -8 31.5t-21 22t-29.5 12.5t-33.5 4q-22 0 -34 -5h-2l39 54h-49l-59 -84l21 -24q18 7 40 7q17 0 28.5 -6.5t11.5 -25.5q0 -18 -11 -26t-29 -8q-26 0 -47 5.5
t-37 12.5z" />
    <glyph glyph-name="ogonekcmb" unicode="&#x328;" horiz-adv-x="0" 
d="M-51 0q-26 -1 -44 -8.5t-29.5 -19.5t-16.5 -26.5t-5 -28.5q0 -17 6 -27t15 -16t19.5 -8t18.5 -2q14 0 28.5 2t21.5 4v-60q-11 -5 -31 -9t-47 -4q-20 0 -40 4.5t-36.5 15.5t-27 29t-10.5 45q0 33 16.5 57t42 40.5t56 24.5t58.5 9z" />
    <glyph glyph-name="soliduslongoverlaycmb" unicode="&#x338;" horiz-adv-x="0" 
d="M-101 731l-278 -747h113l279 747h-114z" />
    <glyph glyph-name="FL295" horiz-adv-x="0" 
 />
    <glyph glyph-name="cyrbreve" horiz-adv-x="259" 
d="M129 579q-35 0 -64 8t-50 25.5t-33 44.5t-12 66h56q7 -35 34 -50.5t69 -15.5t69 15.5t34 50.5h56q0 -39 -12 -66t-33 -44.5t-50.5 -25.5t-63.5 -8z" />
    <glyph glyph-name="cyrBreve" horiz-adv-x="259" 
d="M129 775q-73 0 -118 38t-45 116h56q7 -35 36 -53t71 -18t71 18t36 53h56q0 -78 -45 -116t-118 -38z" />
    <glyph glyph-name="uni018F" unicode="&#x18f;" horiz-adv-x="748" 
d="M376 -16q-86 0 -149.5 28.5t-105.5 78.5t-62.5 117.5t-20.5 145.5q0 7 0.5 23t1.5 23h513q-11 94 -62.5 147.5t-127.5 53.5q-60 0 -104.5 -28.5t-58.5 -82.5h-149q7 52 33 96t66.5 76.5t94 50.5t115.5 18q82 0 147 -29t110 -79.5t69 -118.5t24 -146q0 -84 -24.5 -153
t-68.5 -118t-105.5 -76t-135.5 -27zM375 114q66 0 111 41t62 123h-346q5 -35 18 -65t34.5 -52t51.5 -34.5t69 -12.5z" />
    <glyph glyph-name="uni01A2" unicode="&#x1a2;" horiz-adv-x="922" 
d="M696 582h-90v-529q-43 -32 -97 -50.5t-120 -18.5q-83 0 -148 28.5t-110 78.5t-69 117.5t-24 145.5q0 79 24 148t69 120t110 80t148 29q61 0 115 -17h349v-895h-157v763zM389 115q31 0 60 8v468q-29 8 -60 8q-53 0 -90 -20.5t-60 -55t-33.5 -78.5t-10.5 -91
q0 -45 10.5 -87.5t33.5 -76.5t60 -54.5t90 -20.5z" />
    <glyph glyph-name="uni01A3" unicode="&#x1a3;" horiz-adv-x="764" 
d="M568 410h-68v-349q-35 -35 -84 -54.5t-111 -19.5q-61 0 -110 19t-84 54.5t-54 85.5t-19 112t19 112.5t54 86t84 55t110 19.5q50 0 94 -14h311v-698h-142v591zM305 93q28 0 53 10v311q-14 5 -25 7.5t-28 2.5q-36 0 -60 -14.5t-38.5 -37.5t-20.5 -53t-6 -61t6 -60.5
t20.5 -53t38.5 -37.5t60 -14z" />
    <glyph glyph-name="uni01B5" unicode="&#x1b5;" horiz-adv-x="648" 
d="M23 124l157 183h-89v122h193l132 153h-363v132h562v-124l-138 -161h91v-122h-196l-150 -175h403v-132h-602v124z" />
    <glyph glyph-name="uni01B6" unicode="&#x1b6;" horiz-adv-x="519" 
d="M22 107l105 114h-51v91h135l90 98h-259v107h436v-107l-90 -98h58v-91h-142l-105 -114h298v-107h-475v107z" />
    <glyph glyph-name="uni0259" unicode="&#x259;" horiz-adv-x="574" 
d="M281 -13q-66 0 -115 25.5t-80.5 68.5t-45.5 98t-10 115h373q-3 69 -35 100t-92 31q-43 0 -74 -21.5t-38 -45.5h-125q30 93 92 133t150 40q61 0 110 -19.5t83 -55.5t52.5 -86t18.5 -110q0 -58 -19 -108t-54 -86.5t-83.5 -57.5t-107.5 -21zM285 94q34 0 56.5 11.5t36 28.5
t19 36t6.5 34h-231q10 -54 35.5 -82t77.5 -28z" />
    <glyph glyph-name="uni0400" unicode="&#x400;" horiz-adv-x="648" 
d="M69 714h534v-132h-377v-153h346v-122h-346v-175h385v-132h-542v714zM304 920l96 -142h-99l-153 142h156z" />
    <glyph glyph-name="afii10023" unicode="&#x401;" horiz-adv-x="648" 
d="M69 714h534v-132h-377v-153h346v-122h-346v-175h385v-132h-542v714zM308 911v-117h-134v117h134zM514 911v-117h-135v117h135z" />
    <glyph glyph-name="afii10051" unicode="&#x402;" horiz-adv-x="804" 
d="M505 -11q-21 0 -46.5 3t-41.5 8v118q4 -2 12 -3.5t16 -2.5t15.5 -1h11.5q28 0 52.5 6t42.5 19.5t28.5 36.5t10.5 57q0 54 -32.5 83t-89.5 29q-58 0 -94 -42t-36 -117v-183h-157v582h-184v132h575v-132h-234v-197q26 35 72 56.5t96 21.5q52 0 96.5 -13t76.5 -41
t50.5 -72.5t18.5 -106.5q0 -67 -21 -113t-56.5 -74.5t-82.5 -41t-99 -12.5z" />
    <glyph glyph-name="afii10052" unicode="&#x403;" horiz-adv-x="574" 
d="M74 714h496v-132h-339v-582h-157v714zM230 778l96 142h157l-154 -142h-99z" />
    <glyph glyph-name="afii10053" unicode="&#x404;" horiz-adv-x="736" 
d="M382 -16q-78 0 -141.5 27t-108.5 76t-69.5 118t-24.5 153q0 78 24 146t69 118.5t110 79.5t147 29q62 0 115 -18t93 -50.5t65.5 -76.5t32.5 -96h-152q-15 52 -56 81t-101 29q-41 0 -72 -13t-53.5 -35.5t-37 -53t-21.5 -65.5h258v-123h-263q11 -91 58 -144t129 -53
q133 0 162 139h153q-9 -60 -33 -109.5t-63.5 -85t-94.5 -54.5t-125 -19z" />
    <glyph glyph-name="afii10054" unicode="&#x405;" horiz-adv-x="649" 
d="M328 -16q-59 0 -114.5 14.5t-98 45.5t-67.5 79t-24 114h152q0 -36 13 -61t34.5 -40.5t50 -23t60.5 -7.5q21 0 45 3.5t45 13.5t35 27.5t14 44.5q0 29 -18.5 47t-48.5 30t-68 21t-77 20q-40 10 -78 24t-68 37.5t-48.5 57.5t-18.5 84q0 55 23.5 95.5t61.5 67.5t86 40t96 13
q56 0 107.5 -12.5t91.5 -40.5t63.5 -71.5t23.5 -105.5h-152q-2 32 -13.5 53t-30.5 33t-44 17t-53 5q-19 0 -38 -4t-34.5 -14t-25.5 -25.5t-10 -37.5q0 -21 8 -34t31.5 -24t65 -22t108.5 -28q20 -4 55.5 -14.5t70.5 -33.5t60.5 -61.5t25.5 -98.5q0 -50 -19 -91.5t-56.5 -72
t-93 -47.5t-128.5 -17z" />
    <glyph glyph-name="afii10055" unicode="&#x406;" horiz-adv-x="295" 
d="M69 714h157v-714h-157v714z" />
    <glyph glyph-name="afii10056" unicode="&#x407;" horiz-adv-x="295" 
d="M69 714h157v-714h-157v714zM111 911v-117h-134v117h134zM317 911v-117h-135v117h135z" />
    <glyph glyph-name="afii10057" unicode="&#x408;" horiz-adv-x="556" 
d="M249 -16q-45 0 -87 12.5t-75 39t-53 68t-20 100.5v62h142v-32q0 -26 4 -48t14 -37.5t27.5 -24.5t45.5 -9q31 0 48 11t24.5 28.5t9 38t1.5 39.5v482h157v-489q0 -35 -7 -77t-32 -78.5t-72 -61t-127 -24.5z" />
    <glyph glyph-name="afii10058" unicode="&#x409;" horiz-adv-x="1125" 
d="M160 714h514v-258h168q54 0 100 -13.5t80 -41.5t53.5 -71t19.5 -101q0 -59 -19 -102t-53.5 -71.5t-82.5 -42t-106 -13.5h-316v582h-209q-3 -124 -8.5 -232t-26.5 -187.5t-66 -125t-128 -45.5q-37 0 -68 12v128q4 -2 11.5 -3t12.5 -1q38 0 62.5 25t38 78t18.5 137t5 202
v144zM822 128q57 0 89 23t32 80q0 28 -9 47.5t-25.5 31.5t-39 17.5t-48.5 5.5h-147v-205h148z" />
    <glyph glyph-name="afii10059" unicode="&#x40a;" horiz-adv-x="1123" 
d="M69 714h157v-268h289v268h157v-268h168q54 0 100 -13.5t80 -41t53.5 -69t19.5 -98.5t-19 -99t-53.5 -70t-82.5 -41.5t-106 -13.5h-317v314h-289v-314h-157v714zM820 128q57 0 89 22t32 76q0 27 -9 45.5t-25.5 30t-39 16.5t-48.5 5h-147v-195h148z" />
    <glyph glyph-name="afii10060" unicode="&#x40b;" horiz-adv-x="804" 
d="M197 582h-184v132h575v-132h-234v-154q13 3 32 6.5t39.5 6.5t41 5t36.5 2q60 0 105 -13t75.5 -42.5t45.5 -77t15 -116.5v-199h-156v201q0 65 -25.5 91t-85.5 26q-16 0 -34 -2t-35 -4.5t-31 -5.5t-23 -4v-302h-157v582z" />
    <glyph glyph-name="afii10061" unicode="&#x40c;" horiz-adv-x="722" 
d="M274 778l96 142h157l-154 -142h-99zM69 714h157v-286l279 286h196l-308 -299l335 -415h-197l-252 317l-53 -57v-260h-157v714z" />
    <glyph glyph-name="uni040D" unicode="&#x40d;" horiz-adv-x="745" 
d="M69 714h156v-495h3l272 495h176v-714h-156v496h-3l-272 -496h-176v714zM342 920l96 -142h-99l-153 142h156z" />
    <glyph glyph-name="afii10062" unicode="&#x40e;" horiz-adv-x="647" 
d="M352 775q-193 0 -193 154h116q1 -31 18 -51t59 -20t60 19.5t17 51.5h116q0 -154 -193 -154zM207 -13q-26 0 -46.5 7t-30.5 13v127q11 -6 26.5 -10.5t38.5 -4.5q71 0 86 59l-286 536h176l194 -372l145 372h164l-223 -524q-24 -55 -48.5 -93.5t-54 -63t-64 -35.5t-77.5 -11
z" />
    <glyph glyph-name="afii10145" unicode="&#x40f;" horiz-adv-x="732" 
d="M290 0h-221v714h157v-582h280v582h157v-714h-222v-163h-151v163z" />
    <glyph glyph-name="afii10017" unicode="&#x410;" horiz-adv-x="685" 
d="M264 714h161l267 -714h-163l-54 159h-267l-56 -159h-158zM434 276l-90 262h-2l-93 -262h185z" />
    <glyph glyph-name="afii10018" unicode="&#x411;" horiz-adv-x="702" 
d="M69 714h530v-129h-373v-135h186q54 0 100 -13t80 -40.5t53.5 -70t19.5 -100.5q0 -59 -19 -101.5t-53.5 -70.5t-82.5 -41t-106 -13h-335v714zM387 128q57 0 89 21.5t32 78.5q0 28 -9 47t-25.5 30.5t-39 16.5t-48.5 5h-160v-199h161z" />
    <glyph glyph-name="afii10019" unicode="&#x412;" horiz-adv-x="704" 
d="M69 714h336q51 0 93 -9t72 -29.5t46.5 -54.5t16.5 -84q0 -54 -24.5 -90t-72.5 -59q66 -19 98.5 -66.5t32.5 -114.5q0 -54 -21 -93.5t-56.5 -64.5t-81 -37t-93.5 -12h-346v714zM394 122q23 0 44 4.5t37 15t25.5 28.5t9.5 46q0 55 -31 78.5t-82 23.5h-171v-196h168z
M385 425q42 0 69 20t27 65q0 25 -9 41t-24 25t-34.5 12.5t-40.5 3.5h-147v-167h159z" />
    <glyph glyph-name="afii10020" unicode="&#x413;" horiz-adv-x="574" 
d="M74 714h496v-132h-339v-582h-157v714z" />
    <glyph glyph-name="afii10021" unicode="&#x414;" horiz-adv-x="772" 
d="M8 132h60q31 42 50.5 91t30 107t14 126t3.5 147v111h518v-582h78v-295h-142v163h-470v-163h-142v295zM527 132v453h-211v-13q0 -73 -3.5 -135t-12 -115.5t-24 -100t-39.5 -89.5h290z" />
    <glyph glyph-name="afii10022" unicode="&#x415;" horiz-adv-x="648" 
d="M69 714h534v-132h-377v-153h346v-122h-346v-175h385v-132h-542v714z" />
    <glyph glyph-name="afii10024" unicode="&#x416;" horiz-adv-x="1061" 
d="M293 400l-273 314h185l250 -294v294h151v-293l250 293h185l-276 -310l302 -404h-194l-227 312l-40 -47v-265h-151v265l-49 46l-219 -311h-193z" />
    <glyph glyph-name="afii10025" unicode="&#x417;" horiz-adv-x="647" 
d="M330 -16q-147 0 -227 67.5t-82 188.5h155q1 -36 13.5 -62t33 -42.5t48 -24t59.5 -7.5q55 0 89 33.5t34 82.5q0 30 -11 49.5t-30 31t-43 15.5t-50 4h-54v106q9 -1 22 -1h20q129 0 129 97q0 42 -29.5 65t-77.5 23q-58 0 -92.5 -28t-39.5 -80h-148q1 60 24 103t61.5 71
t89 41.5t106.5 13.5q54 0 100.5 -14.5t80 -40.5t53 -62.5t19.5 -81.5q0 -54 -30 -93t-78 -50q28 -5 53 -19t43 -35.5t28.5 -50.5t10.5 -63q0 -52 -21.5 -95.5t-59 -75t-88.5 -49t-111 -17.5z" />
    <glyph glyph-name="afii10026" unicode="&#x418;" horiz-adv-x="745" 
d="M69 714h156v-495h3l272 495h176v-714h-156v496h-3l-272 -496h-176v714z" />
    <glyph glyph-name="afii10027" unicode="&#x419;" horiz-adv-x="745" 
d="M69 714h156v-495h3l272 495h176v-714h-156v496h-3l-272 -496h-176v714zM382 775q-193 0 -193 154h116q1 -31 18 -51t59 -20t60 19.5t17 51.5h116q0 -154 -193 -154z" />
    <glyph glyph-name="afii10028" unicode="&#x41a;" horiz-adv-x="722" 
d="M69 714h157v-286l279 286h196l-308 -299l335 -415h-197l-252 317l-53 -57v-260h-157v714z" />
    <glyph glyph-name="afii10029" unicode="&#x41b;" horiz-adv-x="743" 
d="M80 -8q-37 0 -68 12v128q4 -2 11.5 -3t12.5 -1q38 0 62.5 25t38 78t18.5 137t5 202v144h514v-714h-156v582h-209q-3 -124 -8.5 -232t-26.5 -187.5t-66 -125t-128 -45.5z" />
    <glyph glyph-name="afii10030" unicode="&#x41c;" horiz-adv-x="907" 
d="M69 714h221l167 -491h2l158 491h221v-714h-147v506h-2l-175 -506h-121l-175 501h-2v-501h-147v714z" />
    <glyph glyph-name="afii10031" unicode="&#x41d;" horiz-adv-x="741" 
d="M69 714h157v-274h289v274h157v-714h-157v308h-289v-308h-157v714z" />
    <glyph glyph-name="afii10032" unicode="&#x41e;" horiz-adv-x="778" 
d="M389 -16q-83 0 -148 28.5t-110 78.5t-69 117.5t-24 145.5q0 79 24 148t69 120t110 80t148 29q82 0 147.5 -29t110.5 -80t69 -120t24 -148q0 -78 -24 -145.5t-69 -117.5t-110.5 -78.5t-147.5 -28.5zM389 115q53 0 90 20.5t60 54.5t33.5 76.5t10.5 87.5q0 47 -10.5 91
t-33.5 78.5t-60 55t-90 20.5t-90 -20.5t-60 -55t-33.5 -78.5t-10.5 -91q0 -45 10.5 -87.5t33.5 -76.5t60 -54.5t90 -20.5z" />
    <glyph glyph-name="afii10033" unicode="&#x41f;" horiz-adv-x="732" 
d="M69 714h594v-714h-157v582h-280v-582h-157v714z" />
    <glyph glyph-name="afii10034" unicode="&#x420;" horiz-adv-x="667" 
d="M69 714h322q67 0 114 -19.5t76.5 -51.5t43 -73.5t13.5 -84.5q0 -44 -13.5 -85t-43 -73t-76.5 -51.5t-114 -19.5h-165v-256h-157v714zM348 378q27 0 52 4t44 15.5t30.5 32.5t11.5 55t-11.5 55t-30.5 32.5t-44 15.5t-52 4h-122v-214h122z" />
    <glyph glyph-name="afii10035" unicode="&#x421;" horiz-adv-x="741" 
d="M389 -16q-83 0 -148 28.5t-110 78.5t-69 117.5t-24 145.5q0 79 24 148t69 120t110 80t148 29q58 0 111 -17t94.5 -49.5t68.5 -80.5t34 -110h-152q-4 27 -18 49.5t-35 39.5t-47.5 26.5t-55.5 9.5q-53 0 -90 -20.5t-60 -55t-33.5 -78.5t-10.5 -91q0 -45 10.5 -87.5
t33.5 -76.5t60 -54.5t90 -20.5q72 0 112.5 44t49.5 116h152q-6 -68 -31 -121.5t-66 -91.5t-96 -58t-121 -20z" />
    <glyph glyph-name="afii10036" unicode="&#x422;" 
d="M227 582h-214v132h585v-132h-214v-582h-157v582z" />
    <glyph glyph-name="afii10037" unicode="&#x423;" horiz-adv-x="647" 
d="M207 -13q-26 0 -46.5 7t-30.5 13v127q11 -6 26.5 -10.5t38.5 -4.5q71 0 86 59l-286 536h176l194 -372l145 372h164l-223 -524q-24 -55 -48.5 -93.5t-54 -63t-64 -35.5t-77.5 -11z" />
    <glyph glyph-name="afii10038" unicode="&#x424;" horiz-adv-x="923" 
d="M384 62q-168 -1 -258.5 75.5t-90.5 226.5q0 145 89 219t260 78v70h155v-70q174 0 261.5 -76t87.5 -221q0 -150 -90.5 -226t-258.5 -76v-78h-155v78zM384 548q-101 -4 -149.5 -48t-48.5 -136q0 -85 50 -134t148 -51v369zM539 179q105 2 152 51t47 134q0 91 -45.5 135.5
t-153.5 48.5v-369z" />
    <glyph glyph-name="afii10039" unicode="&#x425;" horiz-adv-x="667" 
d="M244 374l-230 340h182l140 -228l145 228h172l-229 -341l249 -373h-187l-156 247l-159 -247h-176z" />
    <glyph glyph-name="afii10040" unicode="&#x426;" horiz-adv-x="752" 
d="M600 0h-531v714h157v-582h280v582h157v-582h79v-295h-142v163z" />
    <glyph glyph-name="afii10041" unicode="&#x427;" horiz-adv-x="680" 
d="M453 271q-26 -6 -63 -13t-77 -7q-65 0 -115 13t-84 42.5t-51.5 77t-17.5 116.5v214h156v-216q0 -65 36.5 -91t94.5 -26q38 0 71 6t50 10v317h157v-714h-157v271z" />
    <glyph glyph-name="afii10042" unicode="&#x428;" horiz-adv-x="1041" 
d="M69 714h157v-582h216v582h157v-582h216v582h157v-714h-903v714z" />
    <glyph glyph-name="afii10043" unicode="&#x429;" horiz-adv-x="1061" 
d="M909 0h-840v714h157v-582h216v582h157v-582h216v582h157v-582h79v-295h-142v163z" />
    <glyph glyph-name="afii10044" unicode="&#x42a;" horiz-adv-x="814" 
d="M206 582h-193v132h350v-258h168q54 0 100 -13.5t80 -41.5t53.5 -71t19.5 -101q0 -59 -19 -102t-53.5 -71.5t-82.5 -42t-106 -13.5h-317v582zM511 128q57 0 89 23t32 80q0 28 -9 47.5t-25.5 31.5t-39 17.5t-48.5 5.5h-147v-205h148z" />
    <glyph glyph-name="afii10045" unicode="&#x42b;" horiz-adv-x="929" 
d="M69 714h157v-258h148q54 0 100 -13.5t80 -41.5t53.5 -71t19.5 -101q0 -59 -19 -102t-53.5 -71.5t-82.5 -42t-106 -13.5h-297v714zM354 128q57 0 89 23t32 80q0 28 -9 47.5t-25.5 31.5t-39 17.5t-48.5 5.5h-127v-205h128zM703 714h157v-714h-157v714z" />
    <glyph glyph-name="afii10046" unicode="&#x42c;" horiz-adv-x="677" 
d="M69 714h157v-258h168q54 0 100 -13.5t80 -41.5t53.5 -71t19.5 -101q0 -59 -19 -102t-53.5 -71.5t-82.5 -42t-106 -13.5h-317v714zM374 128q57 0 89 23t32 80q0 28 -9 47.5t-25.5 31.5t-39 17.5t-48.5 5.5h-147v-205h148z" />
    <glyph glyph-name="afii10047" unicode="&#x42d;" horiz-adv-x="738" 
d="M356 -16q-70 0 -125 19t-95 54.5t-64.5 85t-33.5 109.5h151q29 -138 166 -138q80 0 128.5 52.5t59.5 143.5h-264v123h259q-7 34 -20.5 64.5t-36 53.5t-54.5 36.5t-74 13.5q-60 0 -102.5 -29.5t-57.5 -81.5h-149q7 52 32.5 96t65.5 76.5t93 50.5t115 18q82 0 147 -29
t110 -79.5t69 -118.5t24 -146q0 -84 -24.5 -153t-69.5 -118t-108.5 -76t-141.5 -27z" />
    <glyph glyph-name="afii10048" unicode="&#x42e;" horiz-adv-x="1023" 
d="M663 -16q-68 0 -124.5 23.5t-98.5 66.5t-67.5 103.5t-31.5 135.5h-115v-313h-157v714h157v-274h119q11 67 38 120.5t68 91.5t94.5 58.5t118.5 20.5q72 0 131 -27t101 -76.5t65.5 -118.5t23.5 -153q0 -83 -23.5 -151.5t-65.5 -117.5t-101.5 -76t-131.5 -27zM664 115
q76 0 119.5 64.5t43.5 179.5q0 114 -43.5 177t-121.5 63q-38 0 -68.5 -16.5t-52 -48t-33 -76t-11.5 -99.5q0 -115 44.5 -179t122.5 -65z" />
    <glyph glyph-name="afii10049" unicode="&#x42f;" horiz-adv-x="725" 
d="M219 282q-71 18 -114.5 72.5t-43.5 141.5q0 57 20 98t53.5 68t78 39.5t93.5 12.5h350v-714h-156v269h-111l-190 -269h-196zM500 386v205h-155q-25 0 -48.5 -3.5t-42 -14t-29.5 -29t-11 -49.5q0 -33 11.5 -54t30.5 -33.5t44 -17t52 -4.5h148z" />
    <glyph glyph-name="afii10065" unicode="&#x430;" horiz-adv-x="574" 
d="M208 -13q-37 0 -69 9t-56 28t-37.5 48t-13.5 69q0 44 15.5 72.5t40 45.5t56 25.5t63.5 13.5t63 8t55 9t38 17.5t13 33.5q0 22 -7.5 36t-20 21.5t-29 10t-35.5 2.5q-42 0 -66 -18t-28 -60h-142q3 49 25 82.5t56 53.5t76 28.5t86 8.5q39 0 79 -5.5t73 -21.5t54 -45t21 -75
v-269q0 -35 4 -67t14 -48h-144q-4 12 -6.5 24.5t-3.5 25.5q-34 -35 -80 -49t-94 -14zM261 81q42 0 65 14t34 33.5t13.5 39.5t2.5 32v53q-9 -8 -22 -12.5t-29 -7.5t-33 -5t-34 -5t-32 -8t-26.5 -13.5t-18.5 -21.5t-7 -33t7 -32.5t19 -20t28 -10.5t33 -3z" />
    <glyph glyph-name="afii10066" unicode="&#x431;" horiz-adv-x="607" 
d="M300 -13q-75 0 -124 28t-77.5 73t-39.5 101t-11 113q0 68 6 130.5t28 113.5t63.5 88.5t112.5 56.5q22 6 51.5 8t56.5 5t45.5 8.5t19.5 18.5h125q-4 -48 -20.5 -76t-47.5 -44.5t-76 -24t-106 -13.5q-48 -5 -81 -23t-54 -45.5t-31.5 -62t-14.5 -72.5h3q9 26 25.5 52
t41.5 47t59 34.5t78 13.5q49 0 92.5 -19t75.5 -54t50.5 -83.5t18.5 -108.5q0 -61 -18.5 -110t-53.5 -83.5t-85 -53t-112 -18.5zM310 93q54 0 85.5 41t31.5 119q0 76 -31 118.5t-88 42.5q-54 0 -85 -43t-31 -119q0 -78 31.5 -118.5t86.5 -40.5z" />
    <glyph glyph-name="afii10067" unicode="&#x432;" horiz-adv-x="581" 
d="M58 517h297q34 0 64 -7.5t52.5 -23t35.5 -40.5t13 -59q0 -38 -19 -65.5t-51 -41.5q40 -11 67 -41.5t27 -84.5q0 -38 -13.5 -66.5t-37.5 -48t-56 -29.5t-68 -10h-311v517zM303 92q18 0 35 2.5t30 9.5t21 20.5t8 35.5t-8.5 36t-22.5 21t-32 9.5t-37 2.5h-99v-137h105z
M292 309q16 0 31 2t27 8.5t19 18t7 31.5q0 19 -7 30.5t-18.5 17.5t-27 8t-31.5 2h-94v-118h94z" />
    <glyph glyph-name="afii10068" unicode="&#x433;" horiz-adv-x="453" 
d="M59 517h390v-107h-248v-410h-142v517z" />
    <glyph glyph-name="afii10069" unicode="&#x434;" horiz-adv-x="624" 
d="M7 107h62q11 22 22.5 55t21 74t15.5 89t6 101v91h413v-410h67v-249h-133v142h-341v-142h-133v249zM405 107v304h-139v-13q0 -48 -5.5 -92t-14.5 -81.5t-19 -67.5t-19 -50h197z" />
    <glyph glyph-name="afii10070" unicode="&#x435;" horiz-adv-x="574" 
d="M293 -13q-61 0 -110 19.5t-83 55.5t-52.5 86t-18.5 110q0 58 19 108t54 86.5t83.5 57.5t107.5 21q62 0 109.5 -23t79 -61.5t47.5 -89.5t16 -106v-13.5t-1 -13.5h-373q3 -69 35 -100t92 -31q43 0 74 21.5t38 45.5h125q-30 -93 -92 -133t-150 -40zM402 314q-10 54 -35.5 82
t-77.5 28q-35 0 -57 -11.5t-35.5 -28.5t-19 -36t-6.5 -34h231z" />
    <glyph glyph-name="afii10072" unicode="&#x436;" horiz-adv-x="812" 
d="M197 290l-182 227h157l167 -216v216h134v-216l167 216h157l-189 -222l209 -295h-164l-149 223l-31 -40v-183h-134v175l-37 48l-143 -223h-164z" />
    <glyph glyph-name="afii10073" unicode="&#x437;" horiz-adv-x="542" 
d="M264 -13q-49 0 -92.5 9.5t-76.5 31.5t-52.5 56t-20.5 84h135q4 -42 32.5 -64t77.5 -22q48 0 70 20t22 49q0 32 -20.5 52t-68.5 20h-55v89h37q45 0 71.5 14t26.5 53q0 23 -19.5 40.5t-61.5 17.5q-43 0 -67.5 -14.5t-30.5 -56.5h-132q4 45 24.5 76.5t52 51t72 28.5t84.5 9
q103 0 159.5 -33.5t56.5 -105.5q0 -23 -8.5 -42.5t-21.5 -34.5t-30 -24.5t-33 -12.5v-2q18 -2 37.5 -8.5t35.5 -21t26.5 -37t10.5 -56.5q0 -42 -17.5 -73t-49 -52t-76 -31t-98.5 -10z" />
    <glyph glyph-name="afii10074" unicode="&#x438;" horiz-adv-x="600" 
d="M54 517h136v-350l195 350h161v-517h-136v350l-195 -350h-161v517z" />
    <glyph glyph-name="afii10075" unicode="&#x439;" horiz-adv-x="600" 
d="M54 517h136v-350l195 350h161v-517h-136v350l-195 -350h-161v517zM299 579q-35 0 -65.5 8t-53.5 25.5t-36.5 44.5t-13.5 66h106q2 -34 16 -50t47 -16q32 0 47 15.5t16 50.5h106q0 -39 -13.5 -66t-36.5 -44.5t-54 -25.5t-65 -8z" />
    <glyph glyph-name="afii10076" unicode="&#x43a;" horiz-adv-x="574" 
d="M54 517h142v-211l190 211h167l-216 -228l244 -289h-172l-183 215l-30 -33v-182h-142v517z" />
    <glyph glyph-name="afii10077" unicode="&#x43b;" horiz-adv-x="599" 
d="M76 -8q-9 0 -28 3t-30 7v107q6 -2 14 -2.5t16 -0.5q18 0 32.5 11.5t24 44.5t15 94t5.5 160v101h420v-517h-142v410h-146q-4 -110 -13 -189t-28.5 -130t-53 -75t-86.5 -24z" />
    <glyph glyph-name="afii10078" unicode="&#x43c;" horiz-adv-x="738" 
d="M54 517h206l107 -376h4l107 376h206v-517h-134v393h-3l-111 -393h-134l-111 393h-3v-393h-134v517z" />
    <glyph glyph-name="afii10079" unicode="&#x43d;" horiz-adv-x="593" 
d="M54 517h142v-188h201v188h142v-517h-142v217h-201v-217h-142v517z" />
    <glyph glyph-name="afii10080" unicode="&#x43e;" 
d="M305 -13q-61 0 -110 19t-84 54.5t-54 85.5t-19 112t19 112.5t54 86t84 55t110 19.5t110.5 -19.5t84.5 -55t54 -86t19 -112.5t-19 -112t-54 -85.5t-84.5 -54.5t-110.5 -19zM305 93q36 0 60.5 14t39 37.5t20.5 53t6 60.5t-6 61t-20.5 53t-39 37.5t-60.5 14.5t-60 -14.5
t-38.5 -37.5t-20.5 -53t-6 -61t6 -60.5t20.5 -53t38.5 -37.5t60 -14z" />
    <glyph glyph-name="afii10081" unicode="&#x43f;" horiz-adv-x="583" 
d="M54 517h475v-517h-142v410h-191v-410h-142v517z" />
    <glyph glyph-name="afii10082" unicode="&#x440;" 
d="M54 517h135v-66h2q26 42 66 61t88 19q61 0 105 -23t73 -61t43 -88.5t14 -105.5q0 -52 -14 -100t-42.5 -85t-71 -59t-99.5 -22q-48 0 -88.5 19.5t-66.5 57.5h-2v-245h-142v698zM315 93q35 0 58.5 14t38 36.5t20.5 52t6 61.5q0 31 -6.5 61t-21.5 53.5t-38.5 38t-57.5 14.5
q-35 0 -58.5 -14.5t-38 -37.5t-20.5 -53.5t-6 -61.5q0 -32 6.5 -61.5t21 -52t38 -36.5t58.5 -14z" />
    <glyph glyph-name="afii10083" unicode="&#x441;" horiz-adv-x="574" 
d="M299 -13q-59 0 -107 19.5t-82 54.5t-53 83.5t-19 106.5q0 60 17.5 111.5t51.5 89t83 58.5t112 21q46 0 88.5 -12t76 -36.5t54.5 -61.5t24 -86h-139q-14 89 -105 89q-34 0 -57 -15.5t-37.5 -40t-20.5 -54.5t-6 -58t6 -57t19.5 -52.5t36.5 -38.5t56 -15q51 0 78.5 28.5
t34.5 76.5h137q-14 -103 -80 -157t-169 -54z" />
    <glyph glyph-name="afii10084" unicode="&#x442;" horiz-adv-x="502" 
d="M180 410h-170v107h482v-107h-170v-410h-142v410z" />
    <glyph glyph-name="afii10085" unicode="&#x443;" horiz-adv-x="519" 
d="M131 -181q-22 0 -43.5 1.5t-43.5 3.5v117q17 -2 35.5 -3.5t36.5 -1.5q32 0 49 18t17 46q0 17 -6 32l-181 485h151l117 -354h2l113 354h147l-216 -581q-23 -63 -64 -90t-114 -27z" />
    <glyph glyph-name="afii10086" unicode="&#x444;" horiz-adv-x="856" 
d="M357 35h-3q-15 -19 -45 -33.5t-62 -14.5q-58 0 -98 23.5t-64.5 62t-35.5 89t-11 104.5q0 61 14.5 110t40.5 83.5t63.5 53t83.5 18.5q45 0 74 -16t40 -37h3v236h142v-236h3q11 21 40 37t74 16q46 0 83.5 -18.5t63.5 -53t40.5 -83.5t14.5 -110q0 -54 -11 -104.5t-35.5 -89
t-64.5 -62t-98 -23.5q-32 0 -62 14.5t-45 33.5h-3v-216h-142v216zM280 93q32 0 52.5 15t24.5 35v226q-10 31 -34 43t-47 12q-51 0 -73.5 -43t-22.5 -118q0 -32 4.5 -62.5t16 -54.5t30.5 -38.5t49 -14.5zM576 93q30 0 49 14.5t30.5 38.5t16 54.5t4.5 62.5q0 75 -22.5 118
t-73.5 43q-23 0 -47 -12t-34 -43v-226q4 -20 24.5 -35t52.5 -15z" />
    <glyph glyph-name="afii10087" unicode="&#x445;" horiz-adv-x="537" 
d="M186 272l-170 245h162l91 -135l90 135h157l-170 -242l191 -275h-162l-108 163l-108 -163h-159z" />
    <glyph glyph-name="afii10088" unicode="&#x446;" horiz-adv-x="603" 
d="M460 0h-406v517h142v-410h191v410h142v-410h64v-249h-133v142z" />
    <glyph glyph-name="afii10089" unicode="&#x447;" horiz-adv-x="574" 
d="M378 190q-20 -6 -59 -14.5t-81 -8.5q-106 0 -152 49t-46 133v168h141v-139q0 -57 22 -79t72 -22q31 0 58 5t45 10v225h142v-517h-142v190z" />
    <glyph glyph-name="afii10090" unicode="&#x448;" horiz-adv-x="819" 
d="M54 517h141v-410h144v410h141v-410h144v410h141v-517h-711v517z" />
    <glyph glyph-name="afii10091" unicode="&#x449;" horiz-adv-x="834" 
d="M691 0h-637v517h141v-410h141v410h141v-410h141v410h141v-410h65v-249h-133v142z" />
    <glyph glyph-name="afii10092" unicode="&#x44a;" horiz-adv-x="646" 
d="M152 410h-142v107h284v-178h137q39 0 73.5 -10.5t60 -32t40.5 -53t15 -73.5q0 -43 -14.5 -75t-41 -53t-62 -31.5t-77.5 -10.5h-273v410zM391 98q39 0 62.5 17t23.5 55t-25 55.5t-62 17.5h-96v-145h97z" />
    <glyph glyph-name="afii10093" unicode="&#x44b;" horiz-adv-x="778" 
d="M54 517h142v-178h137q39 0 73.5 -10.5t60 -32t40.5 -53t15 -73.5q0 -43 -14.5 -75t-41 -53t-62 -31.5t-77.5 -10.5h-273v517zM293 98q39 0 62.5 17t23.5 55t-25 55.5t-62 17.5h-96v-145h97zM583 517h141v-517h-141v517z" />
    <glyph glyph-name="afii10094" unicode="&#x44c;" horiz-adv-x="548" 
d="M54 517h142v-178h137q39 0 73.5 -10.5t60 -32t40.5 -53t15 -73.5q0 -43 -14.5 -75t-41 -53t-62 -31.5t-77.5 -10.5h-273v517zM293 98q39 0 62.5 17t23.5 55t-25 55.5t-62 17.5h-96v-145h97z" />
    <glyph glyph-name="afii10095" unicode="&#x44d;" horiz-adv-x="576" 
d="M275 -13q-98 0 -163.5 48t-79.5 143h135q11 -42 38.5 -65.5t69.5 -23.5q55 0 84.5 36t36.5 97h-171v90h168q-10 54 -41.5 85t-79.5 31q-38 0 -66 -20t-38 -60h-136q13 85 77 134t164 49q60 0 109 -20t83.5 -56t53.5 -87t19 -114q0 -60 -18.5 -109.5t-53 -84.5t-83 -54
t-108.5 -19z" />
    <glyph glyph-name="afii10096" unicode="&#x44e;" horiz-adv-x="835" 
d="M546 -13q-111 0 -175.5 62t-74.5 171h-100v-220h-142v517h142v-197h103q16 97 80 154t169 57q58 0 104 -19.5t78 -55.5t49.5 -86.5t17.5 -111.5q0 -62 -17.5 -112t-49.5 -85.5t-79 -54.5t-105 -19zM546 93q54 0 81.5 42.5t27.5 123.5q0 78 -28.5 121.5t-82.5 43.5
q-52 0 -80 -44t-28 -122q0 -81 28 -123t82 -42z" />
    <glyph glyph-name="afii10097" unicode="&#x44f;" horiz-adv-x="578" 
d="M164 194q-55 9 -89.5 53t-34.5 108q0 34 12.5 63.5t35.5 51.5t54 34.5t69 12.5h313v-517h-142v182h-67l-141 -182h-174zM382 414h-113q-49 0 -67 -17.5t-18 -46.5q0 -30 17.5 -48t67.5 -18h113v130z" />
    <glyph glyph-name="uni0450" unicode="&#x450;" horiz-adv-x="574" 
d="M293 -13q-61 0 -110 19.5t-83 55.5t-52.5 86t-18.5 110q0 58 19 108t54 86.5t83.5 57.5t107.5 21q62 0 109.5 -23t79 -61.5t47.5 -89.5t16 -106v-13.5t-1 -13.5h-373q3 -69 35 -100t92 -31q43 0 74 21.5t38 45.5h125q-30 -93 -92 -133t-150 -40zM402 314q-10 54 -35.5 82
t-77.5 28q-35 0 -57 -11.5t-35.5 -28.5t-19 -36t-6.5 -34h231zM267 723l96 -142h-99l-153 142h156z" />
    <glyph glyph-name="afii10071" unicode="&#x451;" horiz-adv-x="574" 
d="M293 -13q-61 0 -110 19.5t-83 55.5t-52.5 86t-18.5 110q0 58 19 108t54 86.5t83.5 57.5t107.5 21q62 0 109.5 -23t79 -61.5t47.5 -89.5t16 -106v-13.5t-1 -13.5h-373q3 -69 35 -100t92 -31q43 0 74 21.5t38 45.5h125q-30 -93 -92 -133t-150 -40zM402 314q-10 54 -35.5 82
t-77.5 28q-35 0 -57 -11.5t-35.5 -28.5t-19 -36t-6.5 -34h231zM256 714v-117h-134v117h134zM462 714v-117h-135v117h135z" />
    <glyph glyph-name="afii10099" unicode="&#x452;" horiz-adv-x="613" 
d="M324 -181q-27 0 -57 3v114q8 -1 20 -1.5t22 -0.5q26 0 46.5 5.5t34 20.5t20.5 40.5t7 64.5v185q0 64 -20 95.5t-71 31.5q-58 0 -84 -34.5t-26 -113.5v-229h-142v535h-82v96h82v83h142v-83h208v-96h-208v-132h3q27 45 69 65.5t82 20.5q57 0 93.5 -15.5t57.5 -43t29.5 -67
t8.5 -87.5v-220q0 -112 -56 -174.5t-179 -62.5z" />
    <glyph glyph-name="afii10100" unicode="&#x453;" horiz-adv-x="453" 
d="M59 517h390v-107h-248v-410h-142v517zM155 581l96 142h157l-154 -142h-99z" />
    <glyph glyph-name="afii10101" unicode="&#x454;" horiz-adv-x="576" 
d="M301 -13q-60 0 -108.5 19t-83 54t-53 84.5t-18.5 109.5q0 63 19 114t53.5 87t83.5 56t109 20q100 0 164 -49t77 -134h-136q-10 40 -38 60t-66 20q-48 0 -79.5 -31t-41.5 -85h168v-90h-171q7 -61 36.5 -97t84.5 -36q42 0 69.5 23.5t38.5 65.5h135q-14 -95 -79.5 -143
t-163.5 -48z" />
    <glyph glyph-name="afii10102" unicode="&#x455;" horiz-adv-x="537" 
d="M272 -13q-45 0 -88 9t-76.5 30t-55 55.5t-23.5 86.5h135q0 -23 9.5 -39.5t24.5 -27t34.5 -15.5t40.5 -5q15 0 31.5 3.5t30 11t22.5 20t9 31.5q0 32 -42.5 48t-118.5 32q-31 7 -60.5 16.5t-52.5 25t-37 38.5t-14 58q0 49 19.5 81.5t51.5 51t72 26t82 7.5t81.5 -8t70.5 -27
t51.5 -50.5t24.5 -79.5h-135q-3 41 -31 55.5t-66 14.5q-12 0 -26 -1.5t-25.5 -6.5t-19.5 -14.5t-8 -25.5q0 -19 14 -31t36.5 -19.5t51.5 -13.5t59 -13q31 -7 60.5 -17t52.5 -26.5t37 -41t14 -60.5q0 -51 -20.5 -85.5t-53.5 -55.5t-75.5 -29.5t-86.5 -8.5z" />
    <glyph glyph-name="afii10103" unicode="&#x456;" horiz-adv-x="258" 
d="M58 517h142v-517h-142v517zM58 714h142v-117h-142v117z" />
    <glyph glyph-name="afii10104" unicode="&#x457;" horiz-adv-x="300" 
d="M124 714v-117h-104v117h104zM280 714v-117h-105v117h105zM221 517v-517h-142v517h142z" />
    <glyph glyph-name="afii10105" unicode="&#x458;" horiz-adv-x="278" 
d="M27 -181q-28 0 -45 4v117q9 -4 30 -4q22 0 38.5 8.5t16.5 37.5v535h142v-542q0 -40 -8.5 -69t-29 -48.5t-55.5 -29t-89 -9.5zM67 714h142v-117h-142v117z" />
    <glyph glyph-name="afii10106" unicode="&#x459;" horiz-adv-x="897" 
d="M125 517h420v-178h137q39 0 73.5 -10.5t60 -32t40.5 -53t15 -73.5q0 -43 -14.5 -75t-41 -53t-62 -31.5t-77.5 -10.5h-273v410h-146q-4 -110 -13 -189t-28.5 -130t-53 -75t-86.5 -24q-9 0 -28 3t-30 7v107q6 -2 14 -2.5t16 -0.5q18 0 32.5 11.5t24 44.5t15 94t5.5 160v101
zM642 98q39 0 62.5 17t23.5 55t-25 55.5t-62 17.5h-96v-145h97z" />
    <glyph glyph-name="afii10107" unicode="&#x45a;" horiz-adv-x="891" 
d="M54 517h142v-188h201v188h142v-188h137q39 0 73.5 -10t60 -30t40.5 -51t15 -73q0 -43 -14.5 -74t-41 -51.5t-62 -30t-77.5 -9.5h-273v217h-201v-217h-142v517zM636 98q39 0 62.5 14.5t23.5 52.5t-25 53t-62 15h-96v-135h97z" />
    <glyph glyph-name="afii10108" unicode="&#x45b;" horiz-adv-x="613" 
d="M74 535h-82v96h82v83h142v-83h208v-96h-208v-132h3q27 45 69 65.5t82 20.5q57 0 93.5 -15.5t57.5 -43t29.5 -67t8.5 -87.5v-276h-142v250q0 64 -20 95.5t-71 31.5q-58 0 -84 -34.5t-26 -113.5v-229h-142v535z" />
    <glyph glyph-name="afii10109" unicode="&#x45c;" horiz-adv-x="574" 
d="M210 581l96 142h157l-154 -142h-99zM54 517h142v-211l190 211h167l-216 -228l244 -289h-172l-183 215l-30 -33v-182h-142v517z" />
    <glyph glyph-name="uni045D" unicode="&#x45d;" horiz-adv-x="600" 
d="M54 517h136v-350l195 350h161v-517h-136v350l-195 -350h-161v517zM290 723l96 -142h-99l-153 142h156z" />
    <glyph glyph-name="afii10110" unicode="&#x45e;" horiz-adv-x="519" 
d="M131 -181q-22 0 -43.5 1.5t-43.5 3.5v117q17 -2 35.5 -3.5t36.5 -1.5q32 0 49 18t17 46q0 17 -6 32l-181 485h151l117 -354h2l113 354h147l-216 -581q-23 -63 -64 -90t-114 -27zM269 579q-35 0 -65.5 8t-53.5 25.5t-36.5 44.5t-13.5 66h106q2 -34 16 -50t47 -16
q32 0 47 15.5t16 50.5h106q0 -39 -13.5 -66t-36.5 -44.5t-54 -25.5t-65 -8z" />
    <glyph glyph-name="afii10193" unicode="&#x45f;" horiz-adv-x="583" 
d="M225 0h-171v517h142v-410h191v410h142v-517h-170v-142h-134v142z" />
    <glyph glyph-name="afii10146" unicode="&#x462;" horiz-adv-x="754" 
d="M146 526h-146v105h146v83h157v-83h211v-105h-211v-91h168q54 0 100 -13t80 -40t53.5 -68t19.5 -96q0 -58 -19 -99.5t-53.5 -67.5t-82.5 -38.5t-106 -12.5h-317v526zM451 128q64 0 92.5 21.5t28.5 70.5q0 48 -31 70t-91 22h-147v-184h148z" />
    <glyph glyph-name="afii10194" unicode="&#x463;" horiz-adv-x="588" 
d="M94 422h-104v95h104v197h142v-197h165v-95h-165v-83h137q39 0 73.5 -10.5t60 -32t40.5 -53t15 -73.5q0 -43 -14.5 -75t-41 -53t-62 -31.5t-77.5 -10.5h-273v422zM333 98q39 0 62.5 17t23.5 55t-25 55.5t-62 17.5h-96v-145h97z" />
    <glyph glyph-name="uni046A" unicode="&#x46a;" horiz-adv-x="997" 
d="M60 169q0 69 15 116.5t45.5 77t75.5 42.5t105 13h70l-190 296h639l-189 -296h65q60 0 105 -13t75.5 -42.5t45.5 -77t15 -116.5v-169h-156v181q0 65 -25.5 91t-85.5 26h-93v-298h-157v298h-93q-60 0 -85.5 -26t-25.5 -91v-181h-156v169zM593 602h-178l88 -156z" />
    <glyph glyph-name="uni046B" unicode="&#x46b;" horiz-adv-x="822" 
d="M46 110q0 84 43 133t130 49h71l-149 225h520l-151 -225h93q87 0 130 -49t43 -133v-110h-141v101q0 56 -16 78.5t-63 22.5h-83v-202h-142v202h-65q-47 0 -63 -22.5t-16 -78.5v-101h-141v110zM463 427h-119l60 -105z" />
    <glyph glyph-name="afii10147" unicode="&#x472;" horiz-adv-x="778" 
d="M389 -16q-83 0 -148 28.5t-110 78.5t-69 117.5t-24 145.5q0 79 24 148t69 120t110 80t148 29q82 0 147.5 -29t110.5 -80t69 -120t24 -148q0 -78 -24 -145.5t-69 -117.5t-110.5 -78.5t-147.5 -28.5zM389 111q50 0 86 18t59.5 48t36 69t15.5 81q-11 -13 -23.5 -26
t-25.5 -23.5t-26.5 -17t-27.5 -6.5q-22 0 -48.5 13.5t-52.5 29t-51 29t-44 13.5q-31 0 -53.5 -11.5t-38.5 -29.5q6 -38 19.5 -71.5t37 -59.5t57.5 -41t80 -15zM484 372q30 0 55.5 13t42.5 32q-6 38 -20 72t-37.5 59.5t-57 40t-78.5 14.5q-49 0 -84.5 -17.5t-59 -46.5
t-36.5 -68t-17 -81q21 24 46.5 45.5t52.5 21.5q24 0 51.5 -13.5t54 -29t49.5 -29t38 -13.5z" />
    <glyph glyph-name="afii10195" unicode="&#x473;" 
d="M305 -13q-61 0 -110 19t-84 54.5t-54 85.5t-19 112t19 112.5t54 86t84 55t110 19.5t110.5 -19.5t84.5 -55t54 -86t19 -112.5t-19 -112t-54 -85.5t-84.5 -54.5t-110.5 -19zM305 89q33 0 56 11.5t38 30.5t23 44t11 52q-14 -17 -32 -30t-38 -13q-18 0 -32.5 8.5t-28.5 19
t-28 19.5t-29 9q-24 0 -39 -11t-26 -25q4 -24 13.5 -44.5t24.5 -36.5t36.5 -25t50.5 -9zM364 281q23 0 39 7.5t28 20.5q-4 24 -13 46t-24 38t-37 25.5t-52 9.5q-33 0 -56 -11.5t-38 -31t-23 -45t-11 -53.5q14 19 32 34.5t40 15.5q19 0 35 -9t29.5 -19.5t26 -19t24.5 -8.5z
" />
    <glyph glyph-name="afii10148" unicode="&#x474;" horiz-adv-x="670" 
d="M-7 714h161l159 -502h2l120 399q17 58 62.5 87.5t104.5 29.5q21 0 49 -3.5t44 -8.5v-120q-8 3 -25 4.5t-25 1.5q-6 0 -16 -1t-20.5 -5.5t-20 -14t-14.5 -25.5l-173 -556h-177z" />
    <glyph glyph-name="afii10196" unicode="&#x475;" horiz-adv-x="540" 
d="M5 517h149l109 -353h2l68 257q6 23 16 42.5t25.5 34t38 22.5t54.5 8q8 0 19.5 -0.5t23.5 -2t22.5 -3t16.5 -3.5v-109q-8 2 -21 3t-24 1q-17 0 -30 -11.5t-18 -28.5l-116 -374h-158z" />
    <glyph glyph-name="uni048C" unicode="&#x48c;" horiz-adv-x="754" 
d="M146 609h-146v105h146v106h157v-106h151v-105h-151v-174h168q54 0 100 -13t80 -40t53.5 -68t19.5 -96q0 -58 -19 -99.5t-53.5 -67.5t-82.5 -38.5t-106 -12.5h-317v609zM451 128q64 0 92.5 21.5t28.5 70.5q0 48 -31 70t-91 22h-147v-184h148z" />
    <glyph glyph-name="uni048D" unicode="&#x48d;" horiz-adv-x="588" 
d="M94 422h-104v95h104v108h142v-108h118v-95h-118v-83h137q39 0 73.5 -10.5t60 -32t40.5 -53t15 -73.5q0 -43 -14.5 -75t-41 -53t-62 -31.5t-77.5 -10.5h-273v422zM333 98q39 0 62.5 17t23.5 55t-25 55.5t-62 17.5h-96v-145h97z" />
    <glyph glyph-name="afii10050" unicode="&#x490;" horiz-adv-x="574" 
d="M69 714h346v157h151v-289h-340v-582h-157v714z" />
    <glyph glyph-name="afii10098" unicode="&#x491;" horiz-adv-x="453" 
d="M59 517h261v141h129v-248h-248v-410h-142v517z" />
    <glyph glyph-name="uni0492" unicode="&#x492;" horiz-adv-x="627" 
d="M127 307h-103v122h103v285h496v-132h-339v-153h187v-122h-187v-307h-157v307z" />
    <glyph glyph-name="uni0493" unicode="&#x493;" horiz-adv-x="495" 
d="M101 213h-83v91h83v213h390v-107h-248v-106h145v-91h-145v-213h-142v213z" />
    <glyph glyph-name="uni0496" unicode="&#x496;" horiz-adv-x="1082" 
d="M926 0h-53l-190 312l-77 -87v-225h-151v225l-77 87l-191 -312h-193l285 423l-259 291h185l250 -294v294h151v-294l250 294h185l-259 -291l196 -291h99v-295h-151v163z" />
    <glyph glyph-name="uni0497" unicode="&#x497;" horiz-adv-x="832" 
d="M696 0h-43l-127 215l-53 -60v-155h-134v155l-53 60l-127 -215h-164l198 318l-178 199h157l167 -206v206h134v-206l167 206h157l-181 -202l133 -208h80v-249h-133v142z" />
    <glyph glyph-name="uni0498" unicode="&#x498;" horiz-adv-x="647" 
d="M326 -217q-24 0 -41 1.5t-30.5 4.5t-26 7t-26.5 9l21 48q16 -7 37 -12.5t47 -5.5q18 0 29 8t11 26q0 19 -11.5 25.5t-28.5 6.5q-22 0 -40 -7l-21 24l47 67q-130 9 -200 75t-72 180h155q1 -36 13.5 -62t33 -42.5t48 -24t59.5 -7.5q55 0 89 33.5t34 82.5q0 30 -11 49.5
t-30 31t-43 15.5t-50 4h-54v106q9 -1 22 -1h20q129 0 129 97q0 42 -29.5 65t-77.5 23q-58 0 -92.5 -28t-39.5 -80h-148q1 60 24 103t61.5 71t89 41.5t106.5 13.5q54 0 100.5 -14.5t80 -40.5t53 -62.5t19.5 -81.5q0 -54 -30 -93t-78 -50q28 -5 53 -19t43 -35.5t28.5 -50.5
t10.5 -63q0 -51 -20.5 -93.5t-56.5 -74t-85.5 -49.5t-106.5 -20l-26 -36h2q12 5 34 5q17 0 33.5 -4t29.5 -12.5t21 -22t8 -31.5q0 -29 -10 -48.5t-26.5 -31t-37.5 -16t-43 -4.5z" />
    <glyph glyph-name="uni0499" unicode="&#x499;" horiz-adv-x="542" 
d="M273 -217q-24 0 -41 1.5t-30.5 4.5t-26 7t-26.5 9l21 48q16 -7 37 -12.5t47 -5.5q18 0 29 8t11 26q0 19 -11.5 25.5t-28.5 6.5q-22 0 -40 -7l-21 24l49 70q-45 2 -84.5 12.5t-69.5 32.5t-47.5 55t-18.5 80h135q4 -42 32.5 -64t77.5 -22q48 0 70 20t22 49q0 32 -20.5 52
t-68.5 20h-55v89h37q45 0 71.5 14t26.5 53q0 23 -19.5 40.5t-61.5 17.5q-43 0 -67.5 -14.5t-30.5 -56.5h-132q4 45 24.5 76.5t52 51t72 28.5t84.5 9q103 0 159.5 -33.5t56.5 -105.5q0 -23 -8.5 -42.5t-21.5 -34.5t-30 -24.5t-33 -12.5v-2q18 -2 37.5 -8.5t35.5 -21t26.5 -37
t10.5 -56.5q0 -39 -15.5 -69t-43.5 -50.5t-68 -31.5t-88 -14l-28 -40h2q12 5 34 5q17 0 33.5 -4t29.5 -12.5t21 -22t8 -31.5q0 -29 -10 -48.5t-26.5 -31t-37.5 -16t-43 -4.5z" />
    <glyph glyph-name="uni049A" unicode="&#x49a;" horiz-adv-x="743" 
d="M587 0h-56l-215 321l-90 -91v-230h-157v714h157v-296l279 296h196l-279 -282l213 -300h103v-295h-151v163z" />
    <glyph glyph-name="uni049B" unicode="&#x49b;" horiz-adv-x="586" 
d="M450 0h-41l-145 215l-68 -72v-143h-142v517h142v-220l190 220h167l-197 -206l149 -204h78v-249h-133v142z" />
    <glyph glyph-name="uni049C" unicode="&#x49c;" horiz-adv-x="752" 
d="M69 714h157v-274h47v133h80v-133h12l200 274h176l-253 -332l270 -382h-197l-203 308h-5v-135h-80v135h-47v-308h-157v714z" />
    <glyph glyph-name="uni049D" unicode="&#x49d;" horiz-adv-x="615" 
d="M54 517h142v-194h38v92h65v-92h5l145 194h156l-188 -234l204 -283h-172l-145 215h-5v-95h-65v95h-38v-215h-142v517z" />
    <glyph glyph-name="uni04A0" unicode="&#x4a0;" horiz-adv-x="859" 
d="M206 582h-193v132h350v-296l279 296h196l-279 -282l306 -432h-197l-215 321l-90 -91v-230h-157v582z" />
    <glyph glyph-name="uni04A1" unicode="&#x4a1;" horiz-adv-x="672" 
d="M152 410h-142v107h284v-220l190 220h167l-197 -206l225 -311h-172l-145 215l-68 -72v-143h-142v410z" />
    <glyph glyph-name="uni04A2" unicode="&#x4a2;" horiz-adv-x="761" 
d="M600 0h-85v308h-289v-308h-157v714h157v-274h289v274h157v-582h79v-295h-151v163z" />
    <glyph glyph-name="uni04A3" unicode="&#x4a3;" horiz-adv-x="610" 
d="M470 0h-73v217h-201v-217h-142v517h142v-188h201v188h142v-410h64v-249h-133v142z" />
    <glyph glyph-name="uni04A4" unicode="&#x4a4;" horiz-adv-x="1015" 
d="M69 714h157v-274h289v274h496v-132h-339v-582h-157v308h-289v-308h-157v714z" />
    <glyph glyph-name="uni04A5" unicode="&#x4a5;" horiz-adv-x="791" 
d="M54 517h142v-188h201v188h390v-107h-248v-410h-142v217h-201v-217h-142v517z" />
    <glyph glyph-name="uni04AA" unicode="&#x4aa;" horiz-adv-x="741" 
d="M386 -217q-24 0 -41 1.5t-30.5 4.5t-26 7t-26.5 9l21 48q16 -7 37 -12.5t47 -5.5q18 0 29 8t11 26q0 19 -11.5 25.5t-28.5 6.5q-22 0 -40 -7l-21 24l47 68q-74 6 -132.5 36.5t-99 79.5t-62 113.5t-21.5 138.5q0 79 24 148t69 120t110 80t148 29q58 0 111 -17t94.5 -49.5
t68.5 -80.5t34 -110h-152q-4 27 -18 49.5t-35 39.5t-47.5 26.5t-55.5 9.5q-53 0 -90 -20.5t-60 -55t-33.5 -78.5t-10.5 -91q0 -45 10.5 -87.5t33.5 -76.5t60 -54.5t90 -20.5q72 0 112.5 44t49.5 116h152q-6 -66 -30 -119t-63.5 -90.5t-92.5 -58.5t-116 -23l-26 -36h2
q12 5 34 5q17 0 33.5 -4t29.5 -12.5t21 -22t8 -31.5q0 -29 -10 -48.5t-26.5 -31t-37.5 -16t-43 -4.5z" />
    <glyph glyph-name="uni04AB" unicode="&#x4ab;" horiz-adv-x="574" 
d="M306 -217q-24 0 -41 1.5t-30.5 4.5t-26 7t-26.5 9l21 48q16 -7 37 -12.5t47 -5.5q18 0 29 8t11 26q0 19 -11.5 25.5t-28.5 6.5q-22 0 -40 -7l-21 24l49 70q-54 4 -97.5 25t-74.5 55.5t-48 81t-17 101.5q0 60 17.5 111.5t51.5 89t83 58.5t112 21q46 0 88.5 -12t76 -36.5
t54.5 -61.5t24 -86h-139q-14 89 -105 89q-34 0 -57 -15.5t-37.5 -40t-20.5 -54.5t-6 -58t6 -57t19.5 -52.5t36.5 -38.5t56 -15q51 0 78.5 28.5t34.5 76.5h137q-14 -97 -72.5 -150.5t-152.5 -59.5l-28 -40h2q12 5 34 5q17 0 33.5 -4t29.5 -12.5t21 -22t8 -31.5
q0 -29 -10 -48.5t-26.5 -31t-37.5 -16t-43 -4.5z" />
    <glyph glyph-name="uni04AE" unicode="&#x4ae;" horiz-adv-x="667" 
d="M254 278l-262 436h176l167 -282l166 282h175l-265 -440v-274h-157v278z" />
    <glyph glyph-name="uni04AF" unicode="&#x4af;" horiz-adv-x="519" 
d="M188 17l-193 500h151l117 -344h2l113 344h147l-195 -507v-191h-142v198z" />
    <glyph glyph-name="uni04B0" unicode="&#x4b0;" horiz-adv-x="667" 
d="M254 134h-154v105h154v39l-262 436h176l167 -282l166 282h175l-265 -440v-35h154v-105h-154v-134h-157v134z" />
    <glyph glyph-name="uni04B1" unicode="&#x4b1;" horiz-adv-x="519" 
d="M188 -103h-122v95h122v25l-193 500h151l117 -344h2l113 344h147l-195 -507v-18h122v-95h-122v-78h-142v78z" />
    <glyph glyph-name="uni04B2" unicode="&#x4b2;" horiz-adv-x="688" 
d="M532 0h-46l-156 247l-159 -247h-176l249 374l-230 340h182l140 -228l145 228h172l-229 -341l161 -241h98v-295h-151v163z" />
    <glyph glyph-name="uni04B3" unicode="&#x4b3;" horiz-adv-x="553" 
d="M375 0l-108 163l-108 -163h-159l186 272l-170 245h162l91 -135l90 135h157l-170 -242l117 -168h87v-249h-133v142h-42z" />
    <glyph glyph-name="uni04B6" unicode="&#x4b6;" horiz-adv-x="699" 
d="M538 0h-85v271q-13 -3 -32.5 -6.5t-41 -6.5t-42.5 -5t-37 -2q-60 0 -107.5 13t-80 42.5t-50 77t-17.5 116.5v214h156v-216q0 -65 25.5 -91t85.5 -26q16 0 37 2t41 4.5t37 5t26 4.5v317h157v-582h79v-295h-151v163z" />
    <glyph glyph-name="uni04B7" unicode="&#x4b7;" horiz-adv-x="591" 
d="M451 0h-73v198q-10 -3 -28 -6.5t-40.5 -7.5t-47.5 -6.5t-49 -2.5q-87 0 -130 49t-43 133v160h141v-131q0 -56 16 -78.5t63 -22.5q13 0 30 1.5t33.5 3.5t31 5t23.5 5v217h142v-410h64v-249h-133v142z" />
    <glyph glyph-name="uni04B8" unicode="&#x4b8;" horiz-adv-x="680" 
d="M453 271q-16 -4 -39.5 -8.5t-49.5 -7.5v-132h-80v128q-57 1 -101 15.5t-75 44t-47 76t-16 113.5v214h156v-216q0 -57 19 -84t64 -32v141h80v-139q27 2 52.5 6t36.5 7v317h157v-714h-157v271z" />
    <glyph glyph-name="uni04B9" unicode="&#x4b9;" horiz-adv-x="574" 
d="M378 198q-11 -3 -28.5 -7t-40.5 -8v-103h-65v96q-8 -1 -15.5 -1h-15.5q-87 0 -130 49t-43 133v160h141v-131q0 -51 12.5 -74t50.5 -26v99h65v-97q20 2 39 5.5t30 6.5v217h142v-517h-142v198z" />
    <glyph glyph-name="uni04BA" unicode="&#x4ba;" horiz-adv-x="675" 
d="M69 714h157v-271q13 3 32.5 6.5t41 6.5t42.5 5t37 2q60 0 107.5 -13t80 -42.5t50 -77t17.5 -116.5v-214h-156v216q0 65 -25.5 91t-85.5 26q-16 0 -37 -2t-41 -4.5t-37 -5t-26 -4.5v-317h-157v714z" />
    <glyph glyph-name="uni04BB" unicode="&#x4bb;" horiz-adv-x="593" 
d="M54 714h142v-269h3q27 45 69 65.5t82 20.5q57 0 93.5 -15.5t57.5 -43t29.5 -67t8.5 -87.5v-318h-142v292q0 64 -20 95.5t-71 31.5q-58 0 -84 -34.5t-26 -113.5v-271h-142v714z" />
    <glyph glyph-name="uni04C0" unicode="&#x4c0;" horiz-adv-x="295" 
d="M69 714h157v-714h-157v714z" />
    <glyph glyph-name="uni04C1" unicode="&#x4c1;" horiz-adv-x="1061" 
d="M279 423l-259 291h185l250 -294v294h151v-294l250 294h185l-259 -291l285 -423h-194l-190 312l-77 -87v-225h-151v225l-77 87l-191 -312h-193zM529 775q-73 0 -118 38t-45 116h56q7 -35 36 -53t71 -18t71 18t36 53h56q0 -78 -45 -116t-118 -38z" />
    <glyph glyph-name="uni04C2" unicode="&#x4c2;" horiz-adv-x="812" 
d="M193 318l-178 199h157l167 -206v206h134v-206l167 206h157l-181 -202l201 -315h-164l-127 215l-53 -60v-155h-134v155l-53 60l-127 -215h-164zM405 579q-35 0 -64 8t-50 25.5t-33 44.5t-12 66h56q7 -35 34 -50.5t69 -15.5t69 15.5t34 50.5h56q0 -39 -12 -66t-33 -44.5
t-50.5 -25.5t-63.5 -8z" />
    <glyph glyph-name="uni04D0" unicode="&#x4d0;" horiz-adv-x="685" 
d="M264 714h161l267 -714h-163l-54 159h-267l-56 -159h-158zM434 276l-90 262h-2l-93 -262h185zM341 775q-73 0 -118 38t-45 116h56q7 -35 36 -53t71 -18t71 18t36 53h56q0 -78 -45 -116t-118 -38z" />
    <glyph glyph-name="uni04D1" unicode="&#x4d1;" horiz-adv-x="574" 
d="M208 -13q-37 0 -69 9t-56 28t-37.5 48t-13.5 69q0 44 15.5 72.5t40 45.5t56 25.5t63.5 13.5t63 8t55 9t38 17.5t13 33.5q0 22 -7.5 36t-20 21.5t-29 10t-35.5 2.5q-42 0 -66 -18t-28 -60h-142q3 49 25 82.5t56 53.5t76 28.5t86 8.5q39 0 79 -5.5t73 -21.5t54 -45t21 -75
v-269q0 -35 4 -67t14 -48h-144q-4 12 -6.5 24.5t-3.5 25.5q-34 -35 -80 -49t-94 -14zM261 81q42 0 65 14t34 33.5t13.5 39.5t2.5 32v53q-9 -8 -22 -12.5t-29 -7.5t-33 -5t-34 -5t-32 -8t-26.5 -13.5t-18.5 -21.5t-7 -33t7 -32.5t19 -20t28 -10.5t33 -3zM286 579q-35 0 -64 8
t-50 25.5t-33 44.5t-12 66h56q7 -35 34 -50.5t69 -15.5t69 15.5t34 50.5h56q0 -39 -12 -66t-33 -44.5t-50.5 -25.5t-63.5 -8z" />
    <glyph glyph-name="uni04D2" unicode="&#x4d2;" horiz-adv-x="685" 
d="M264 714h161l267 -714h-163l-54 159h-267l-56 -159h-158zM434 276l-90 262h-2l-93 -262h185zM306 911v-117h-134v117h134zM512 911v-117h-135v117h135z" />
    <glyph glyph-name="uni04D3" unicode="&#x4d3;" horiz-adv-x="574" 
d="M208 -13q-37 0 -69 9t-56 28t-37.5 48t-13.5 69q0 44 15.5 72.5t40 45.5t56 25.5t63.5 13.5t63 8t55 9t38 17.5t13 33.5q0 22 -7.5 36t-20 21.5t-29 10t-35.5 2.5q-42 0 -66 -18t-28 -60h-142q3 49 25 82.5t56 53.5t76 28.5t86 8.5q39 0 79 -5.5t73 -21.5t54 -45t21 -75
v-269q0 -35 4 -67t14 -48h-144q-4 12 -6.5 24.5t-3.5 25.5q-34 -35 -80 -49t-94 -14zM261 81q42 0 65 14t34 33.5t13.5 39.5t2.5 32v53q-9 -8 -22 -12.5t-29 -7.5t-33 -5t-34 -5t-32 -8t-26.5 -13.5t-18.5 -21.5t-7 -33t7 -32.5t19 -20t28 -10.5t33 -3zM251 714v-117h-134
v117h134zM457 714v-117h-135v117h135z" />
    <glyph glyph-name="uni04D4" unicode="&#x4d4;" horiz-adv-x="981" 
d="M330 714h606v-132h-332v-153h312v-122h-312v-175h340v-132h-492v159h-224l-72 -159h-166zM452 276v306h-34l-138 -306h172z" />
    <glyph glyph-name="uni04D5" unicode="&#x4d5;" horiz-adv-x="907" 
d="M231 -13q-37 0 -71.5 7.5t-61.5 25.5t-43.5 47t-16.5 73t15 72.5t39.5 46t55.5 26t63 13.5q45 7 78 11.5t54.5 11.5t31.5 18t10 31t-8 33t-21 20.5t-29.5 10t-33.5 2.5q-42 0 -69.5 -17.5t-29.5 -62.5h-142q2 49 23.5 82.5t55 54t77 29.5t88.5 9q22 0 46.5 -3.5
t47.5 -11.5t43 -21.5t34 -33.5q30 35 70 52.5t103 17.5q64 0 109.5 -25.5t74 -68t41.5 -98t13 -115.5h-369q-1 -26 7 -51.5t24 -45.5t39 -33t53 -13q48 0 72 21.5t31 59.5h138q-11 -42 -33.5 -74.5t-54 -55t-70 -34t-80.5 -11.5q-56 0 -108 20t-85 67q-18 -24 -42.5 -40.5
t-52 -27t-57.5 -15t-59 -4.5zM268 81q19 0 40 6t38 19t28 33t11 49v64q-20 -17 -54 -21t-68 -10t-58.5 -21t-24.5 -52q0 -20 7.5 -32.5t20 -20.5t28 -11t32.5 -3zM736 314q0 24 -7 46t-21.5 39t-35 27t-47.5 10t-48.5 -10t-36.5 -27t-23 -39t-8 -46h227z" />
    <glyph glyph-name="uni04D6" unicode="&#x4d6;" horiz-adv-x="648" 
d="M69 714h534v-132h-377v-153h346v-122h-346v-175h385v-132h-542v714zM343 775q-73 0 -118 38t-45 116h56q7 -35 36 -53t71 -18t71 18t36 53h56q0 -78 -45 -116t-118 -38z" />
    <glyph glyph-name="uni04D7" unicode="&#x4d7;" horiz-adv-x="574" 
d="M293 -13q-61 0 -110 19.5t-83 55.5t-52.5 86t-18.5 110q0 58 19 108t54 86.5t83.5 57.5t107.5 21q62 0 109.5 -23t79 -61.5t47.5 -89.5t16 -106v-13.5t-1 -13.5h-373q3 -69 35 -100t92 -31q43 0 74 21.5t38 45.5h125q-30 -93 -92 -133t-150 -40zM402 314q-10 54 -35.5 82
t-77.5 28q-35 0 -57 -11.5t-35.5 -28.5t-19 -36t-6.5 -34h231zM286 579q-35 0 -64 8t-50 25.5t-33 44.5t-12 66h56q7 -35 34 -50.5t69 -15.5t69 15.5t34 50.5h56q0 -39 -12 -66t-33 -44.5t-50.5 -25.5t-63.5 -8z" />
    <glyph glyph-name="uni04D8" unicode="&#x4d8;" horiz-adv-x="748" 
d="M376 -16q-86 0 -149.5 28.5t-105.5 78.5t-62.5 117.5t-20.5 145.5q0 7 0.5 23t1.5 23h513q-11 94 -62.5 147.5t-127.5 53.5q-60 0 -104.5 -28.5t-58.5 -82.5h-149q7 52 33 96t66.5 76.5t94 50.5t115.5 18q82 0 147 -29t110 -79.5t69 -118.5t24 -146q0 -84 -24.5 -153
t-68.5 -118t-105.5 -76t-135.5 -27zM375 114q66 0 111 41t62 123h-346q5 -35 18 -65t34.5 -52t51.5 -34.5t69 -12.5z" />
    <glyph glyph-name="afii10846" unicode="&#x4d9;" horiz-adv-x="574" 
d="M281 -13q-66 0 -115 25.5t-80.5 68.5t-45.5 98t-10 115h373q-3 69 -35 100t-92 31q-43 0 -74 -21.5t-38 -45.5h-125q30 93 92 133t150 40q61 0 110 -19.5t83 -55.5t52.5 -86t18.5 -110q0 -58 -19 -108t-54 -86.5t-83.5 -57.5t-107.5 -21zM285 94q34 0 56.5 11.5t36 28.5
t19 36t6.5 34h-231q10 -54 35.5 -82t77.5 -28z" />
    <glyph glyph-name="uni04DC" unicode="&#x4dc;" horiz-adv-x="1061" 
d="M279 423l-259 291h185l250 -294v294h151v-294l250 294h185l-259 -291l285 -423h-194l-190 312l-77 -87v-225h-151v225l-77 87l-191 -312h-193zM494 911v-117h-134v117h134zM700 911v-117h-135v117h135z" />
    <glyph glyph-name="uni04DD" unicode="&#x4dd;" horiz-adv-x="812" 
d="M193 318l-178 199h157l167 -206v206h134v-206l167 206h157l-181 -202l201 -315h-164l-127 215l-53 -60v-155h-134v155l-53 60l-127 -215h-164zM370 714v-117h-134v117h134zM576 714v-117h-135v117h135z" />
    <glyph glyph-name="uni04DE" unicode="&#x4de;" horiz-adv-x="647" 
d="M330 -16q-147 0 -227 67.5t-82 188.5h155q1 -36 13.5 -62t33 -42.5t48 -24t59.5 -7.5q55 0 89 33.5t34 82.5q0 30 -11 49.5t-30 31t-43 15.5t-50 4h-54v106q9 -1 22 -1h20q129 0 129 97q0 42 -29.5 65t-77.5 23q-58 0 -92.5 -28t-39.5 -80h-148q1 60 24 103t61.5 71
t89 41.5t106.5 13.5q54 0 100.5 -14.5t80 -40.5t53 -62.5t19.5 -81.5q0 -54 -30 -93t-78 -50q28 -5 53 -19t43 -35.5t28.5 -50.5t10.5 -63q0 -52 -21.5 -95.5t-59 -75t-88.5 -49t-111 -17.5zM287 911v-117h-134v117h134zM493 911v-117h-135v117h135z" />
    <glyph glyph-name="uni04DF" unicode="&#x4df;" horiz-adv-x="542" 
d="M264 -13q-49 0 -92.5 9.5t-76.5 31.5t-52.5 56t-20.5 84h135q4 -42 32.5 -64t77.5 -22q48 0 70 20t22 49q0 32 -20.5 52t-68.5 20h-55v89h37q45 0 71.5 14t26.5 53q0 23 -19.5 40.5t-61.5 17.5q-43 0 -67.5 -14.5t-30.5 -56.5h-132q4 45 24.5 76.5t52 51t72 28.5t84.5 9
q103 0 159.5 -33.5t56.5 -105.5q0 -23 -8.5 -42.5t-21.5 -34.5t-30 -24.5t-33 -12.5v-2q18 -2 37.5 -8.5t35.5 -21t26.5 -37t10.5 -56.5q0 -42 -17.5 -73t-49 -52t-76 -31t-98.5 -10zM235 714v-117h-134v117h134zM441 714v-117h-135v117h135z" />
    <glyph glyph-name="uni04E2" unicode="&#x4e2;" horiz-adv-x="745" 
d="M69 714h156v-495h3l272 495h176v-714h-156v496h-3l-272 -496h-176v714zM559 888v-75h-372v75h372z" />
    <glyph glyph-name="uni04E3" unicode="&#x4e3;" horiz-adv-x="600" 
d="M54 517h136v-350l195 350h161v-517h-136v350l-195 -350h-161v517zM486 691v-75h-372v75h372z" />
    <glyph glyph-name="uni04E4" unicode="&#x4e4;" horiz-adv-x="745" 
d="M69 714h156v-495h3l272 495h176v-714h-156v496h-3l-272 -496h-176v714zM336 911v-117h-134v117h134zM542 911v-117h-135v117h135z" />
    <glyph glyph-name="uni04E5" unicode="&#x4e5;" horiz-adv-x="600" 
d="M54 517h136v-350l195 350h161v-517h-136v350l-195 -350h-161v517zM264 714v-117h-134v117h134zM470 714v-117h-135v117h135z" />
    <glyph glyph-name="uni04E6" unicode="&#x4e6;" horiz-adv-x="778" 
d="M389 -16q-83 0 -148 28.5t-110 78.5t-69 117.5t-24 145.5q0 79 24 148t69 120t110 80t148 29q82 0 147.5 -29t110.5 -80t69 -120t24 -148q0 -78 -24 -145.5t-69 -117.5t-110.5 -78.5t-147.5 -28.5zM389 115q53 0 90 20.5t60 54.5t33.5 76.5t10.5 87.5q0 47 -10.5 91
t-33.5 78.5t-60 55t-90 20.5t-90 -20.5t-60 -55t-33.5 -78.5t-10.5 -91q0 -45 10.5 -87.5t33.5 -76.5t60 -54.5t90 -20.5zM353 911v-117h-134v117h134zM559 911v-117h-135v117h135z" />
    <glyph glyph-name="uni04E7" unicode="&#x4e7;" 
d="M305 -13q-61 0 -110 19t-84 54.5t-54 85.5t-19 112t19 112.5t54 86t84 55t110 19.5t110.5 -19.5t84.5 -55t54 -86t19 -112.5t-19 -112t-54 -85.5t-84.5 -54.5t-110.5 -19zM305 93q36 0 60.5 14t39 37.5t20.5 53t6 60.5t-6 61t-20.5 53t-39 37.5t-60.5 14.5t-60 -14.5
t-38.5 -37.5t-20.5 -53t-6 -61t6 -60.5t20.5 -53t38.5 -37.5t60 -14zM269 714v-117h-134v117h134zM475 714v-117h-135v117h135z" />
    <glyph glyph-name="uni04E8" unicode="&#x4e8;" horiz-adv-x="778" 
d="M389 -16q-83 0 -148 28.5t-110 78.5t-69 117.5t-24 145.5q0 79 24 148t69 120t110 80t148 29q82 0 147.5 -29t110.5 -80t69 -120t24 -148q0 -78 -24 -145.5t-69 -117.5t-110.5 -78.5t-147.5 -28.5zM389 111q48 0 82.5 16.5t58 44t36.5 64t18 75.5h-391q4 -39 17.5 -75.5
t37.5 -64t58.5 -44t82.5 -16.5zM581 425q-7 37 -21.5 69.5t-38 56.5t-56.5 38t-76 14q-44 0 -77 -14t-56.5 -38t-38 -56.5t-20.5 -69.5h384z" />
    <glyph glyph-name="uni04E9" unicode="&#x4e9;" 
d="M305 -13q-61 0 -110 19t-84 54.5t-54 85.5t-19 112t19 112.5t54 86t84 55t110 19.5t110.5 -19.5t84.5 -55t54 -86t19 -112.5t-19 -112t-54 -85.5t-84.5 -54.5t-110.5 -19zM305 89q32 0 55 10.5t38 28.5t23.5 42t11.5 51h-255q3 -27 11.5 -51t23.5 -42t37.5 -28.5
t54.5 -10.5zM430 316q-5 23 -14.5 43.5t-24.5 35.5t-36 24t-50 9t-50 -9t-36 -24t-24 -35.5t-14 -43.5h249z" />
    <glyph glyph-name="uni04EE" unicode="&#x4ee;" horiz-adv-x="647" 
d="M177 -13q-26 0 -49.5 4.5t-37.5 8.5v127q29 -8 75 -8q36 0 54 18.5t18 42.5q0 23 -11 47.5t-22 46.5l-209 440h173l164 -372l155 372h167l-240 -526q-25 -54 -49 -92.5t-51.5 -62.5t-60.5 -35t-76 -11zM509 888v-75h-372v75h372z" />
    <glyph glyph-name="uni04EF" unicode="&#x4ef;" horiz-adv-x="519" 
d="M131 -181q-22 0 -43.5 1.5t-43.5 3.5v117q17 -2 35.5 -3.5t36.5 -1.5q32 0 49 18t17 46q0 17 -6 32l-181 485h151l117 -354h2l113 354h147l-216 -581q-23 -63 -64 -90t-114 -27zM445 691v-75h-372v75h372z" />
    <glyph glyph-name="uni04F0" unicode="&#x4f0;" horiz-adv-x="647" 
d="M177 -13q-26 0 -49.5 4.5t-37.5 8.5v127q29 -8 75 -8q36 0 54 18.5t18 42.5q0 23 -11 47.5t-22 46.5l-209 440h173l164 -372l155 372h167l-240 -526q-25 -54 -49 -92.5t-51.5 -62.5t-60.5 -35t-76 -11zM287 911v-117h-134v117h134zM493 911v-117h-135v117h135z" />
    <glyph glyph-name="uni04F1" unicode="&#x4f1;" horiz-adv-x="519" 
d="M131 -181q-22 0 -43.5 1.5t-43.5 3.5v117q17 -2 35.5 -3.5t36.5 -1.5q32 0 49 18t17 46q0 17 -6 32l-181 485h151l117 -354h2l113 354h147l-216 -581q-23 -63 -64 -90t-114 -27zM223 714v-117h-134v117h134zM429 714v-117h-135v117h135z" />
    <glyph glyph-name="uni04F2" unicode="&#x4f2;" horiz-adv-x="647" 
d="M177 -13q-26 0 -49.5 4.5t-37.5 8.5v127q29 -8 75 -8q36 0 54 18.5t18 42.5q0 23 -11 47.5t-22 46.5l-209 440h173l164 -372l155 372h167l-240 -526q-25 -54 -49 -92.5t-51.5 -62.5t-60.5 -35t-76 -11zM361 778l91 142h157l-149 -142h-99zM155 778l90 142h157l-149 -142
h-98z" />
    <glyph glyph-name="uni04F3" unicode="&#x4f3;" horiz-adv-x="519" 
d="M131 -181q-22 0 -43.5 1.5t-43.5 3.5v117q17 -2 35.5 -3.5t36.5 -1.5q32 0 49 18t17 46q0 17 -6 32l-181 485h151l117 -354h2l113 354h147l-216 -581q-23 -63 -64 -90t-114 -27zM301 581l91 142h157l-149 -142h-99zM95 581l90 142h157l-149 -142h-98z" />
    <glyph glyph-name="uni04F4" unicode="&#x4f4;" horiz-adv-x="675" 
d="M448 271q-13 -3 -32.5 -6.5t-41 -6.5t-42.5 -5t-37 -2q-60 0 -107.5 13t-80 42.5t-50 77t-17.5 116.5v214h156v-216q0 -65 25.5 -91t85.5 -26q16 0 37 2t41 4.5t37 5t26 4.5v317h157v-714h-157v271zM301 911v-117h-134v117h134zM507 911v-117h-135v117h135z" />
    <glyph glyph-name="uni04F5" unicode="&#x4f5;" horiz-adv-x="574" 
d="M378 198q-10 -3 -28 -6.5t-40.5 -7.5t-47.5 -6.5t-49 -2.5q-87 0 -130 49t-43 133v160h141v-131q0 -56 16 -78.5t63 -22.5q13 0 30 1.5t33.5 3.5t31 5t23.5 5v217h142v-517h-142v198zM251 714v-117h-134v117h134zM457 714v-117h-135v117h135z" />
    <glyph glyph-name="uni04F8" unicode="&#x4f8;" horiz-adv-x="929" 
d="M69 714h157v-258h148q54 0 100 -13.5t80 -41.5t53.5 -71t19.5 -101q0 -59 -19 -102t-53.5 -71.5t-82.5 -42t-106 -13.5h-297v714zM354 128q57 0 89 23t32 80q0 28 -9 47.5t-25.5 31.5t-39 17.5t-48.5 5.5h-127v-205h128zM703 714h157v-714h-157v714zM428 911v-117h-134
v117h134zM634 911v-117h-135v117h135z" />
    <glyph glyph-name="uni04F9" unicode="&#x4f9;" horiz-adv-x="778" 
d="M54 517h142v-178h137q39 0 73.5 -10.5t60 -32t40.5 -53t15 -73.5q0 -43 -14.5 -75t-41 -53t-62 -31.5t-77.5 -10.5h-273v517zM293 98q39 0 62.5 17t23.5 55t-25 55.5t-62 17.5h-96v-145h97zM583 517h141v-517h-141v517zM353 714v-117h-134v117h134zM559 714v-117h-135
v117h135z" />
    <glyph glyph-name="afii61352" unicode="&#x2116;" horiz-adv-x="1066" 
d="M69 700h150l243 -445v445h141v-700h-147l-245 446v-446h-142v700zM698 249h301v-98h-301v98zM843 280q-75 0 -119.5 43.5t-44.5 118.5q0 36 12 66t33.5 51t52 32.5t67.5 11.5q75 0 118.5 -44t43.5 -117q0 -75 -44 -118.5t-119 -43.5zM843 354q29 0 47 21.5t18 66.5
t-18.5 66t-47.5 21t-46.5 -22t-17.5 -65q0 -45 17.5 -66.5t47.5 -21.5z" />
    <glyph glyph-name="Aogonek" unicode="&#x104;" horiz-adv-x="685" 
d="M425 714l267 -714h-68q-24 -2 -41.5 -10t-28 -19.5t-15.5 -26t-5 -27.5q0 -17 6 -27t15 -16t19.5 -8t18.5 -2q14 0 28.5 2t21.5 4v-60q-11 -5 -31 -9t-47 -4q-20 0 -40 4.5t-36.5 15.5t-27 29t-10.5 45q0 39 23 66t55 43l-54 159h-267l-56 -159h-158l270 714h161z
M434 276l-90 262h-2l-93 -262h185z" />
    <glyph glyph-name="aogonek" unicode="&#x105;" horiz-adv-x="574" 
d="M491 0q-26 -1 -44 -8.5t-29.5 -19.5t-16.5 -26.5t-5 -28.5q0 -17 6 -27t15 -16t19.5 -8t18.5 -2q14 0 28.5 2t21.5 4v-60q-11 -5 -31 -9t-47 -4q-20 0 -40 4.5t-36.5 15.5t-27 29t-10.5 45q0 33 16.5 57t41.5 41q10 6 21 11q-4 12 -6.5 24.5t-3.5 25.5q-34 -35 -80 -49
t-94 -14q-37 0 -69 9t-56 28t-37.5 48t-13.5 69q0 44 15.5 72.5t40 45.5t56 25.5t63.5 13.5t63 8t55 9t38 17.5t13 33.5q0 23 -7.5 36.5t-20 21t-29 10t-35.5 2.5q-42 0 -66 -18t-28 -60h-142q3 50 25 83t56 53t76.5 28.5t85.5 8.5q39 0 79 -5.5t73 -21.5t54 -44.5t21 -75.5
v-269q0 -35 4 -67t14 -48h-45zM376 253q-9 -8 -22.5 -12.5t-29 -7.5t-32.5 -5t-34 -5q-16 -3 -31.5 -8t-27 -13.5t-18.5 -21.5t-7 -33q0 -19 7 -32t19 -20.5t28 -10.5t33 -3q42 0 65 14t34 33.5t13.5 39.5t2.5 32v53z" />
    <glyph glyph-name="Cacute" unicode="&#x106;" horiz-adv-x="741" 
d="M545 474h152q-7 62 -34 110t-68.5 80.5t-94 49.5t-111.5 17q-82 0 -147.5 -29t-110.5 -80t-69 -119.5t-24 -148.5q0 -78 24 -145.5t69 -117.5t110.5 -78.5t147.5 -28.5q66 0 121 20t96 58t66 92t31 121h-152q-9 -72 -49.5 -116t-112.5 -44q-53 0 -90 20.5t-60 54.5
t-33.5 76.5t-10.5 87.5q0 47 10.5 91t33.5 78.5t60 55t90 20.5q29 0 55.5 -9.5t47.5 -26.5t35 -39.5t18 -49.5zM566 955l-163 -177h-99l106 177h156z" />
    <glyph glyph-name="cacute" unicode="&#x107;" horiz-adv-x="574" 
d="M406 335h139q-3 50 -24 86.5t-54.5 61t-76 36.5t-88.5 12q-63 0 -112 -21t-83 -58.5t-51.5 -89t-17.5 -111.5q0 -58 19 -106.5t53 -83.5t82.5 -54.5t106.5 -19.5q103 0 169 54t80 157h-137q-7 -48 -34.5 -76.5t-78.5 -28.5q-33 0 -56 15t-36.5 38.5t-19.5 52.5t-6 57
q0 29 6 58.5t20.5 54t37.5 40t57 15.5q91 0 105 -89zM484 785l-163 -177h-99l106 177h156z" />
    <glyph glyph-name="Eogonek" unicode="&#x118;" horiz-adv-x="648" 
d="M603 714v-132h-377v-153h346v-122h-346v-175h385v-132h-24q-26 -1 -44 -8.5t-29.5 -19.5t-16.5 -26.5t-5 -28.5q0 -17 6 -27t15 -16t19.5 -8t18.5 -2q14 0 28.5 2t21.5 4v-60q-11 -5 -31 -9t-47 -4q-20 0 -40 4.5t-36.5 15.5t-27 29t-10.5 45q0 39 23 66t55 43h-418v714
h534z" />
    <glyph glyph-name="eogonek" unicode="&#x119;" horiz-adv-x="574" 
d="M171 224q3 -69 35 -100t92 -31q43 0 74 21.5t38 45.5h125q-20 -62 -57.5 -104t-108.5 -60q-33 -8 -47 -32t-14 -47q0 -17 6 -27t15 -16t19.5 -8t18.5 -2q14 0 28.5 2t21.5 4v-60q-11 -5 -31 -9t-47 -4q-20 0 -40 4.5t-36.5 15.5t-27 29t-10.5 45q0 32 15.5 56t40.5 40
q-59 2 -105.5 22.5t-79 56t-50 84.5t-17.5 108q0 58 19 108t54 86.5t83.5 57.5t107.5 21q66 0 115 -25.5t80.5 -68.5t45.5 -98t10 -115h-373zM402 314q-10 54 -35.5 82t-77.5 28q-35 0 -57 -11.5t-35.5 -28.5t-19 -36t-6.5 -34h231z" />
    <glyph glyph-name="Nacute" unicode="&#x143;" horiz-adv-x="741" 
d="M69 714v-714h147v478h2l297 -478h157v714h-147v-479h-2l-298 479h-156zM561 955l-163 -177h-99l106 177h156z" />
    <glyph glyph-name="nacute" unicode="&#x144;" horiz-adv-x="593" 
d="M54 517v-517h142v271q0 79 26 113.5t84 34.5q51 0 71 -31.5t20 -95.5v-292h142v318q0 48 -8.5 87.5t-29.5 67t-57.5 43t-93.5 15.5q-45 0 -88 -20.5t-70 -65.5h-3v72h-135zM488 785l-163 -177h-99l106 177h156z" />
    <glyph glyph-name="Sacute" unicode="&#x15a;" horiz-adv-x="649" 
d="M176 237h-152q-1 -66 24 -114t67.5 -79t98 -45.5t114.5 -14.5q73 0 128.5 17t93 47.5t56.5 72.5t19 91q0 60 -25.5 98.5t-60.5 61.5t-70.5 33.5t-55.5 14.5q-67 17 -108.5 28t-65 22t-31.5 24t-8 34q0 23 10 38t25.5 25t34.5 14t38 4q29 0 53.5 -5t43.5 -17t30.5 -33
t13.5 -53h152q0 62 -23.5 105.5t-63.5 71.5t-91.5 40.5t-107.5 12.5q-48 0 -96 -13t-86 -40t-61.5 -67.5t-23.5 -95.5q0 -49 18.5 -83.5t48.5 -57.5t68 -37.5t78 -24.5q39 -11 77 -20t68 -21t48.5 -30t18.5 -47q0 -27 -14 -44.5t-35 -27.5t-45 -13.5t-45 -3.5q-31 0 -60 7.5
t-50.5 23t-34.5 40.5t-13 61zM505 955l-163 -177h-99l106 177h156z" />
    <glyph glyph-name="sacute" unicode="&#x15b;" horiz-adv-x="537" 
d="M164 168h-135q2 -52 23.5 -86.5t55 -55.5t76.5 -30t88 -9q44 0 86.5 8.5t75.5 29.5t53.5 55.5t20.5 85.5q0 36 -14 60.5t-37 41t-52.5 26.5t-60.5 17q-30 7 -59 13t-51.5 13.5t-36.5 19.5t-14 31q0 16 8 25.5t19.5 14.5t25.5 6.5t26 1.5q38 0 66 -14.5t31 -55.5h135
q-4 48 -24.5 79.5t-51.5 50.5t-70.5 27t-81.5 8t-82 -7.5t-72 -26t-51.5 -50.5t-19.5 -82q0 -34 14 -57.5t37 -39t52.5 -25t60.5 -16.5q76 -16 118.5 -32t42.5 -48q0 -19 -9 -31.5t-22.5 -20t-30 -11t-31.5 -3.5q-21 0 -40.5 5t-34.5 15.5t-24.5 27t-9.5 39.5zM450 785
l-163 -177h-99l106 177h156z" />
    <glyph glyph-name="Zacute" unicode="&#x179;" horiz-adv-x="648" 
d="M23 124v-124h602v132h-393l383 458v124h-562v-132h353zM505 955l-163 -177h-99l106 177h156z" />
    <glyph glyph-name="zacute" unicode="&#x17a;" horiz-adv-x="519" 
d="M22 107v-107h475v107h-288l269 303v107h-436v-107h249zM440 785l-163 -177h-99l106 177h156z" />
    <glyph glyph-name="Zdotaccent" unicode="&#x17b;" horiz-adv-x="648" 
d="M23 124v-124h602v132h-393l383 458v124h-562v-132h353zM392 923v-117h-135v117h135z" />
    <glyph glyph-name="zdotaccent" unicode="&#x17c;" horiz-adv-x="519" 
d="M22 107v-107h475v107h-288l269 303v107h-436v-107h249zM327 739v-117h-135v117h135z" />
    <glyph glyph-name="uni0100" unicode="&#x100;" horiz-adv-x="685" 
d="M264 714h161l267 -714h-163l-54 159h-267l-56 -159h-159zM434 276l-90 262h-2l-93 -262h185zM167 884h353v-75h-353v75z" />
    <glyph glyph-name="uni0102" unicode="&#x102;" horiz-adv-x="685" 
d="M249 276l93 262h2l90 -262h-185zM264 714l-270 -714h158l56 159h267l54 -159h163l-267 714h-161zM239 939q3 -20 13 -33.5t24.5 -22t30.5 -12t31 -3.5q45 0 73 16.5t37 54.5h63q-10 -78 -56.5 -112t-121.5 -34q-146 0 -158 146h64v0z" />
    <glyph glyph-name="uni01FA" unicode="&#x1fa;" horiz-adv-x="685" 
d="M382 858h-99l77 115h147zM447 739q0 -30 -16 -54l261 -685h-163l-54 159h-267l-56 -159h-159l264 683q-17 23 -17 56q0 42 29 70t75 28q47 0 75 -28t28 -70zM293 739q0 -23 14 -38t37 -15t36.5 15t13.5 38q0 22 -13.5 37.5t-36.5 15.5t-37 -15t-14 -38zM249 276h185
l-90 272h-2z" />
    <glyph glyph-name="uni01FC" unicode="&#x1fc;" horiz-adv-x="981" 
d="M623 779h-99l96 142h157zM330 714h606v-132h-332v-153h312v-122h-312v-175h340v-132h-492v159h-224l-72 -159h-167zM280 276h172v306h-34z" />
    <glyph glyph-name="uni0108" unicode="&#x108;" horiz-adv-x="741" 
d="M38 354q0 79 24 148t69 120t110 80t148 29q58 0 111 -17t94.5 -49.5t68.5 -80.5t34 -110h-152q-4 27 -18 49.5t-35 39.5t-47.5 26.5t-55.5 9.5q-53 0 -90 -20.5t-60 -55t-33.5 -78.5t-10.5 -91q0 -45 10.5 -87.5t33.5 -76.5t60 -54.5t90 -20.5q72 0 112.5 44t49.5 116
h152q-6 -67 -31 -121t-66 -92t-96 -58.5t-121 -20.5q-83 0 -148 29t-110 79t-69 118t-24 145zM321 921h130l110 -142h-115l-62 81l-64 -81h-110z" />
    <glyph glyph-name="uni010C" unicode="&#x10c;" horiz-adv-x="741" 
d="M38 354q0 79 24 148t69 120t110 80t148 29q58 0 111 -17t94.5 -49.5t68.5 -80.5t34 -110h-152q-4 27 -18 49.5t-35 39.5t-47.5 26.5t-55.5 9.5q-53 0 -90 -20.5t-60 -55t-33.5 -78.5t-10.5 -91q0 -45 10.5 -87.5t33.5 -76.5t60 -54.5t90 -20.5q72 0 112.5 44t49.5 116
h152q-6 -67 -31 -121t-66 -92t-96 -58.5t-121 -20.5q-83 0 -148 29t-110 79t-69 118t-24 145zM448 779h-130l-110 142h115l62 -81l64 81h110z" />
    <glyph glyph-name="uni010A" unicode="&#x10a;" horiz-adv-x="741" 
d="M38 354q0 79 24 148t69 120t110 80t148 29q58 0 111 -17t94.5 -49.5t68.5 -80.5t34 -110h-152q-4 27 -18 49.5t-35 39.5t-47.5 26.5t-55.5 9.5q-53 0 -90 -20.5t-60 -55t-33.5 -78.5t-10.5 -91q0 -45 10.5 -87.5t33.5 -76.5t60 -54.5t90 -20.5q72 0 112.5 44t49.5 116
h152q-6 -67 -31 -121t-66 -92t-96 -58.5t-121 -20.5q-83 0 -148 29t-110 79t-69 118t-24 145zM316 905h135v-117h-135v117z" />
    <glyph glyph-name="uni010E" unicode="&#x10e;" horiz-adv-x="741" 
d="M69 714h308q69 0 128.5 -22t103 -66t68 -110.5t24.5 -154.5q0 -78 -20 -144t-60.5 -114t-101 -75.5t-142.5 -27.5h-308v714zM366 132q34 0 66 11t57 36.5t40 66.5t15 100q0 54 -10.5 97.5t-34.5 74.5t-63.5 47.5t-97.5 16.5h-112v-450h140zM397 779h-130l-110 142h115
l62 -81l64 81h110z" />
    <glyph glyph-name="uni0110" unicode="&#x110;" horiz-adv-x="741" 
d="M69 320h-73v98h73v296h308q69 0 128.5 -22t103 -66t68 -110.5t24.5 -154.5q0 -78 -20 -144t-60.5 -114t-101 -75.5t-142.5 -27.5h-308v320zM226 418h160v-99h-160v-187h140q34 0 66 11t57 36.5t40 66.5t15 100q0 54 -10.5 97.5t-34.5 74.5t-63.5 47.5t-97.5 16.5h-112
v-164z" />
    <glyph glyph-name="uni011A" unicode="&#x11a;" horiz-adv-x="648" 
d="M69 714h534v-132h-377v-153h346v-122h-346v-175h385v-132h-542v714zM397 779h-130l-110 142h115l62 -81l64 81h110z" />
    <glyph glyph-name="uni0112" unicode="&#x112;" horiz-adv-x="648" 
d="M69 714h534v-132h-377v-153h346v-122h-346v-175h385v-132h-542v714zM155 884h353v-75h-353v75z" />
    <glyph glyph-name="uni0114" unicode="&#x114;" horiz-adv-x="648" 
d="M69 714h534v-132h-377v-153h346v-122h-346v-175h385v-132h-542v714zM230 921q3 -19 13 -31.5t24.5 -20.5t30.5 -11.5t31 -3.5q45 0 73 16t37 51h63q-10 -75 -56.5 -108.5t-121.5 -33.5q-72 0 -112.5 36.5t-46.5 105.5h65z" />
    <glyph glyph-name="uni0116" unicode="&#x116;" horiz-adv-x="648" 
d="M69 714h534v-132h-377v-153h346v-122h-346v-175h385v-132h-542v714zM263 905h135v-117h-135v117z" />
    <glyph glyph-name="uni011C" unicode="&#x11c;" horiz-adv-x="759" 
d="M38 354q0 79 24 148t69 120t110 80t148 29q55 0 106.5 -16.5t92.5 -48.5t68.5 -79t33.5 -108h-150q-14 60 -54 90t-97 30q-53 0 -90 -20.5t-60 -55t-33.5 -78.5t-10.5 -91q0 -45 10.5 -87.5t33.5 -76.5t60 -54.5t90 -20.5q78 0 120.5 39.5t49.5 114.5h-158v117h300v-386
h-100l-16 81q-42 -54 -93 -76t-103 -22q-83 0 -148 29t-110 79t-69 118t-24 145zM321 921h130l110 -142h-115l-62 81l-64 -81h-110z" />
    <glyph glyph-name="uni011E" unicode="&#x11e;" horiz-adv-x="759" 
d="M38 354q0 79 24 148t69 120t110 80t148 29q55 0 106.5 -16.5t92.5 -48.5t68.5 -79t33.5 -108h-150q-14 60 -54 90t-97 30q-53 0 -90 -20.5t-60 -55t-33.5 -78.5t-10.5 -91q0 -45 10.5 -87.5t33.5 -76.5t60 -54.5t90 -20.5q78 0 120.5 39.5t49.5 114.5h-158v117h300v-386
h-100l-16 81q-42 -54 -93 -76t-103 -22q-83 0 -148 29t-110 79t-69 118t-24 145zM283 921q3 -19 13 -31.5t24.5 -20.5t30.5 -11.5t31 -3.5q45 0 73 16t37 51h63q-10 -75 -56.5 -108.5t-121.5 -33.5q-72 0 -112.5 36.5t-46.5 105.5h65z" />
    <glyph glyph-name="uni0120" unicode="&#x120;" horiz-adv-x="759" 
d="M38 354q0 79 24 148t69 120t110 80t148 29q55 0 106.5 -16.5t92.5 -48.5t68.5 -79t33.5 -108h-150q-14 60 -54 90t-97 30q-53 0 -90 -20.5t-60 -55t-33.5 -78.5t-10.5 -91q0 -45 10.5 -87.5t33.5 -76.5t60 -54.5t90 -20.5q78 0 120.5 39.5t49.5 114.5h-158v117h300v-386
h-100l-16 81q-42 -54 -93 -76t-103 -22q-83 0 -148 29t-110 79t-69 118t-24 145zM316 905h135v-117h-135v117z" />
    <glyph glyph-name="uni0122" unicode="&#x122;" horiz-adv-x="759" 
d="M38 354q0 79 24 148t69 120t110 80t148 29q55 0 106.5 -16.5t92.5 -48.5t68.5 -79t33.5 -108h-150q-14 60 -54 90t-97 30q-53 0 -90 -20.5t-60 -55t-33.5 -78.5t-10.5 -91q0 -45 10.5 -87.5t33.5 -76.5t60 -54.5t90 -20.5q78 0 120.5 39.5t49.5 114.5h-158v117h300v-386
h-100l-16 81q-42 -54 -93 -76t-103 -22q-83 0 -148 29t-110 79t-69 118t-24 145zM307 -50h145v-73q0 -32 -10.5 -50.5t-28.5 -28t-43 -12.5t-53 -3v37q24 2 38 10t19 27h-67v93z" />
    <glyph glyph-name="uni0124" unicode="&#x124;" horiz-adv-x="741" 
d="M69 714h157v-274h289v274h157v-714h-157v308h-289v-308h-157v714zM306 921h130l110 -142h-115l-62 81l-64 -81h-110z" />
    <glyph glyph-name="uni0126" unicode="&#x126;" horiz-adv-x="741" 
d="M69 714h157v-109h289v109h157v-714h-157v281h-289v-281h-157v714zM515 403v113h-289v-113h289z" />
    <glyph glyph-name="uni012C" unicode="&#x12c;" horiz-adv-x="295" 
d="M69 714h157v-714h-157v714zM45 921q3 -19 13 -31.5t24.5 -20.5t30.5 -11.5t31 -3.5q45 0 73 16t37 51h63q-10 -75 -56.5 -108.5t-121.5 -33.5q-72 0 -112.5 36.5t-46.5 105.5h65z" />
    <glyph glyph-name="uni0128" unicode="&#x128;" horiz-adv-x="295" 
d="M69 714v-714h157v714h-157zM219 799q-23 0 -42.5 7.5t-37 17t-34.5 17t-33 7.5q-19 0 -29.5 -13.5t-15.5 -35.5h-63q3 23 11.5 46t23.5 41.5t35.5 30t46.5 11.5q20 0 39 -6.5t37 -15t34.5 -15t32.5 -6.5q18 0 28 10t15 33h64q-5 -26 -12.5 -49t-20.5 -41t-32.5 -28.5
t-46.5 -10.5z" />
    <glyph glyph-name="uni012A" unicode="&#x12a;" horiz-adv-x="295" 
d="M69 714h157v-714h-157v714zM-30 884h353v-75h-353v75z" />
    <glyph glyph-name="uni0130" unicode="&#x130;" horiz-adv-x="295" 
d="M69 714h157v-714h-157v714zM80 905h135v-117h-135v117z" />
    <glyph glyph-name="uni012E" unicode="&#x12e;" horiz-adv-x="295" 
d="M69 714h157v-714q-29 -24 -46 -41.5t-26 -32t-11.5 -26t-2.5 -21.5q0 -18 9 -27t23 -9t25 7.5t21 20.5l41 -26q-23 -32 -47.5 -47t-61.5 -15q-48 0 -75 22.5t-27 60.5q0 35 26.5 67.5t83.5 66.5h-89v714z" />
    <glyph glyph-name="uni0134" unicode="&#x134;" horiz-adv-x="556" 
d="M14 266h142v-32q0 -26 4 -48t14 -37.5t27.5 -24.5t45.5 -9q31 0 48 11t24.5 28.5t9 38t1.5 39.5v482h157v-489q0 -23 -3 -50t-11.5 -54t-24.5 -51.5t-42.5 -44t-65 -31t-91.5 -11.5q-45 0 -87 12.5t-75 39.5t-53 68.5t-20 100.5v62zM339 921h130l110 -142h-115l-62 81
l-64 -81h-110z" />
    <glyph glyph-name="uni0136" unicode="&#x136;" horiz-adv-x="722" 
d="M69 714h157v-296l279 296h196l-279 -282l306 -432h-197l-215 321l-90 -91v-230h-157v714zM298 -50h145v-73q0 -32 -10.5 -50.5t-28.5 -28t-43 -12.5t-53 -3v37q24 2 38 10t19 27h-67v93z" />
    <glyph glyph-name="uni0139" unicode="&#x139;" horiz-adv-x="593" 
d="M69 714h157v-582h348v-132h-505v714zM194 779h-99l96 142h157z" />
    <glyph glyph-name="uni013D" unicode="&#x13d;" horiz-adv-x="593" 
d="M69 714h157v-582h348v-132h-505v714zM402 572h-98l31 142h148z" />
    <glyph glyph-name="uni013B" unicode="&#x13b;" horiz-adv-x="593" 
d="M69 714h157v-582h348v-132h-505v714zM246 -50h145v-73q0 -32 -10.5 -50.5t-28.5 -28t-43 -12.5t-53 -3v37q24 2 38 10t19 27h-67v93z" />
    <glyph glyph-name="uni013F" unicode="&#x13f;" horiz-adv-x="593" 
d="M69 714h157v-582h348v-132h-505v714zM340 450h135v-117h-135v117z" />
    <glyph glyph-name="uni0147" unicode="&#x147;" horiz-adv-x="741" 
d="M69 714h156l298 -479h2v479h147v-714h-157l-297 478h-2v-478h-147v714zM431 779h-130l-110 142h115l62 -81l64 81h110z" />
    <glyph glyph-name="uni0145" unicode="&#x145;" horiz-adv-x="741" 
d="M69 714h156l298 -479h2v479h147v-714h-157l-297 478h-2v-478h-147v714zM300 -50h145v-73q0 -32 -10.5 -50.5t-28.5 -28t-43 -12.5t-53 -3v37q24 2 38 10t19 27h-67v93z" />
    <glyph glyph-name="uni014C" unicode="&#x14c;" horiz-adv-x="778" 
d="M38 354q0 79 24 148t69 120t110 80t148 29q82 0 147.5 -29t110.5 -80t69 -120t24 -148q0 -77 -24 -145t-69 -118t-110.5 -79t-147.5 -29q-83 0 -148 29t-110 79t-69 118t-24 145zM195 354q0 -45 10.5 -87.5t33.5 -76.5t60 -54.5t90 -20.5t90 20.5t60 54.5t33.5 76.5
t10.5 87.5q0 47 -10.5 91t-33.5 78.5t-60 55t-90 20.5t-90 -20.5t-60 -55t-33.5 -78.5t-10.5 -91zM213 884h353v-75h-353v75z" />
    <glyph glyph-name="uni014E" unicode="&#x14e;" horiz-adv-x="778" 
d="M38 354q0 79 24 148t69 120t110 80t148 29q82 0 147.5 -29t110.5 -80t69 -120t24 -148q0 -77 -24 -145t-69 -118t-110.5 -79t-147.5 -29q-83 0 -148 29t-110 79t-69 118t-24 145zM195 354q0 -45 10.5 -87.5t33.5 -76.5t60 -54.5t90 -20.5t90 20.5t60 54.5t33.5 76.5
t10.5 87.5q0 47 -10.5 91t-33.5 78.5t-60 55t-90 20.5t-90 -20.5t-60 -55t-33.5 -78.5t-10.5 -91zM288 921q3 -19 13 -31.5t24.5 -20.5t30.5 -11.5t31 -3.5q45 0 73 16t37 51h63q-10 -75 -56.5 -108.5t-121.5 -33.5q-72 0 -112.5 36.5t-46.5 105.5h65z" />
    <glyph glyph-name="uni0150" unicode="&#x150;" horiz-adv-x="778" 
d="M38 354q0 79 24 148t69 120t110 80t148 29q82 0 147.5 -29t110.5 -80t69 -120t24 -148q0 -77 -24 -145t-69 -118t-110.5 -79t-147.5 -29q-83 0 -148 29t-110 79t-69 118t-24 145zM195 354q0 -45 10.5 -87.5t33.5 -76.5t60 -54.5t90 -20.5t90 20.5t60 54.5t33.5 76.5
t10.5 87.5q0 47 -10.5 91t-33.5 78.5t-60 55t-90 20.5t-90 -20.5t-60 -55t-33.5 -78.5t-10.5 -91zM530 779h-99l91 142h157zM323 779h-99l91 142h157z" />
    <glyph glyph-name="uni01FE" unicode="&#x1fe;" horiz-adv-x="778" 
d="M431 779h-99l96 142h157zM120 105q-42 51 -62 114t-20 135q0 79 24 148t69 120t110 80t148 29q69 0 125.5 -20t99.5 -57l80 89l50 -44l-84 -93q39 -51 59.5 -114t20.5 -138q0 -77 -24 -145t-69 -118t-110.5 -79t-147.5 -29q-69 0 -125 20.5t-98 55.5l-83 -92l-49 43z
M519 548q-23 23 -55 37t-75 14q-53 0 -90 -20.5t-60 -55t-33.5 -78.5t-10.5 -91q0 -35 6.5 -69.5t21.5 -65.5zM261 164q23 -23 54.5 -36t73.5 -13q53 0 90 20.5t60 54.5t33.5 76.5t10.5 87.5q0 36 -6.5 70.5t-20.5 65.5z" />
    <glyph glyph-name="uni0154" unicode="&#x154;" horiz-adv-x="722" 
d="M69 714h385q48 0 86.5 -15.5t66 -42.5t42 -63t14.5 -76q0 -63 -26.5 -109t-86.5 -70v-2q29 -8 48 -25t31 -39.5t17.5 -49t7.5 -53.5q1 -17 2 -40t3.5 -47t8 -45.5t16.5 -36.5h-157q-7 17 -10.5 37.5t-6 43t-4 46t-4.5 44.5q-8 56 -34 82t-85 26h-157v-279h-157v714z
M226 391h172q54 0 81 24t27 78q0 52 -27 75.5t-81 23.5h-172v-201zM378 779h-99l96 142h157z" />
    <glyph glyph-name="uni0158" unicode="&#x158;" horiz-adv-x="722" 
d="M69 714h385q48 0 86.5 -15.5t66 -42.5t42 -63t14.5 -76q0 -63 -26.5 -109t-86.5 -70v-2q29 -8 48 -25t31 -39.5t17.5 -49t7.5 -53.5q1 -17 2 -40t3.5 -47t8 -45.5t16.5 -36.5h-157q-7 17 -10.5 37.5t-6 43t-4 46t-4.5 44.5q-8 56 -34 82t-85 26h-157v-279h-157v714z
M226 391h172q54 0 81 24t27 78q0 52 -27 75.5t-81 23.5h-172v-201zM403 779h-130l-110 142h115l62 -81l64 81h110z" />
    <glyph glyph-name="uni0156" unicode="&#x156;" horiz-adv-x="722" 
d="M69 714h385q48 0 86.5 -15.5t66 -42.5t42 -63t14.5 -76q0 -63 -26.5 -109t-86.5 -70v-2q29 -8 48 -25t31 -39.5t17.5 -49t7.5 -53.5q1 -17 2 -40t3.5 -47t8 -45.5t16.5 -36.5h-157q-7 17 -10.5 37.5t-6 43t-4 46t-4.5 44.5q-8 56 -34 82t-85 26h-157v-279h-157v714z
M226 391h172q54 0 81 24t27 78q0 52 -27 75.5t-81 23.5h-172v-201zM295 -50h145v-73q0 -32 -10.5 -50.5t-28.5 -28t-43 -12.5t-53 -3v37q24 2 38 10t19 27h-67v93z" />
    <glyph glyph-name="uni015C" unicode="&#x15c;" horiz-adv-x="649" 
d="M176 237q0 -36 13 -61t34.5 -40.5t50 -23t60.5 -7.5q21 0 45 3.5t45 13.5t35 27.5t14 44.5q0 29 -18.5 47t-48.5 30t-68 21t-77 20q-40 10 -78 24t-68 37.5t-48.5 57.5t-18.5 84q0 55 23.5 95.5t61.5 67.5t86 40t96 13q56 0 107.5 -12.5t91.5 -40.5t63.5 -71.5
t23.5 -105.5h-152q-2 32 -13.5 53t-30.5 33t-44 17t-53 5q-19 0 -38 -4t-34.5 -14t-25.5 -25.5t-10 -37.5q0 -21 8 -34t31.5 -24t65 -22t108.5 -28q20 -5 55.5 -15t70.5 -33t60.5 -61.5t25.5 -98.5q0 -49 -19 -91t-56.5 -72.5t-93 -48t-128.5 -17.5q-59 0 -114.5 15t-98 46
t-67.5 79t-24 114h152zM264 921h130l110 -142h-115l-62 81l-64 -81h-110z" />
    <glyph glyph-name="uni015E" unicode="&#x15e;" horiz-adv-x="649" 
d="M215 -147q16 -7 37.5 -12.5t41.5 -5.5q45 0 45 34q0 16 -12 24.5t-30 8.5q-11 0 -19.5 -2t-18.5 -6l-21 24l48 67q-53 5 -101 22.5t-84 48t-57 76t-20 105.5h152q0 -36 13 -61t34.5 -40.5t50 -23t60.5 -7.5q21 0 45 3.5t45 13.5t35 27.5t14 44.5q0 29 -18.5 47t-48.5 30
t-68 21t-77 20q-40 10 -78 24t-68 37.5t-48.5 57.5t-18.5 84q0 55 23.5 95.5t61.5 67.5t86 40t96 13q56 0 107.5 -12.5t91.5 -40.5t63.5 -71.5t23.5 -105.5h-152q-2 32 -13.5 53t-30.5 33t-44 17t-53 5q-19 0 -38 -4t-34.5 -14t-25.5 -25.5t-10 -37.5q0 -21 8 -34t31.5 -24
t65 -22t108.5 -28q20 -5 55.5 -15t70.5 -33t60.5 -61.5t25.5 -98.5q0 -49 -19 -90.5t-55.5 -72t-91 -48t-126.5 -18.5l-26 -35l2 -2q9 4 20.5 5.5t19.5 1.5q39 0 62.5 -20t23.5 -57q0 -44 -32.5 -68.5t-92.5 -24.5q-35 0 -61 5.5t-55 16.5z" />
    <glyph glyph-name="uni0218" unicode="&#x218;" horiz-adv-x="649" 
d="M176 237q0 -36 13 -61t34.5 -40.5t50 -23t60.5 -7.5q21 0 45 3.5t45 13.5t35 27.5t14 44.5q0 29 -18.5 47t-48.5 30t-68 21t-77 20q-40 10 -78 24t-68 37.5t-48.5 57.5t-18.5 84q0 55 23.5 95.5t61.5 67.5t86 40t96 13q56 0 107.5 -12.5t91.5 -40.5t63.5 -71.5
t23.5 -105.5h-152q-2 32 -13.5 53t-30.5 33t-44 17t-53 5q-19 0 -38 -4t-34.5 -14t-25.5 -25.5t-10 -37.5q0 -21 8 -34t31.5 -24t65 -22t108.5 -28q20 -5 55.5 -15t70.5 -33t60.5 -61.5t25.5 -98.5q0 -49 -19 -91t-56.5 -72.5t-93 -48t-128.5 -17.5q-59 0 -114.5 15t-98 46
t-67.5 79t-24 114h152zM247 -50h145v-73q0 -32 -10.5 -50.5t-28.5 -28t-43 -12.5t-53 -3v37q24 2 38 10t19 27h-67v93z" />
    <glyph glyph-name="uni0164" unicode="&#x164;" 
d="M227 582h-214v132h585v-132h-214v-582h-157v582zM370 779h-130l-110 142h115l62 -81l64 81h110z" />
    <glyph glyph-name="uni0162" unicode="&#x162;" 
d="M227 582h-214v132h585v-132h-214v-582h-157v582zM233 -50h145v-73q0 -32 -10.5 -50.5t-28.5 -28t-43 -12.5t-53 -3v37q24 2 38 10t19 27h-67v93z" />
    <glyph glyph-name="uni021A" unicode="&#x21a;" 
d="M227 582h-214v132h585v-132h-214v-582h-157v582zM233 -50h145v-73q0 -32 -10.5 -50.5t-28.5 -28t-43 -12.5t-53 -3v37q24 2 38 10t19 27h-67v93z" />
    <glyph glyph-name="uni0166" unicode="&#x166;" 
d="M80 462h147v120h-214v132h585v-132h-214v-120h147v-96h-147v-366h-157v366h-147v96z" />
    <glyph glyph-name="uni0168" unicode="&#x168;" horiz-adv-x="741" 
d="M675 270v444h-157v-444q0 -80 -32 -117.5t-116 -37.5q-48 0 -76.5 13.5t-44.5 35t-21 49.5t-5 57v444h-157v-444q0 -146 79.5 -216t224.5 -70q143 0 224 70.5t81 215.5zM442 799q-23 0 -42.5 7.5t-37 17t-34.5 17t-33 7.5q-19 0 -29.5 -13.5t-15.5 -35.5h-63
q3 23 11.5 46t23.5 41.5t35.5 30t46.5 11.5q20 0 39 -6.5t37 -15t34.5 -15t32.5 -6.5q18 0 28 10t15 33h64q-5 -26 -12.5 -49t-20.5 -41t-32.5 -28.5t-46.5 -10.5z" />
    <glyph glyph-name="uni016A" unicode="&#x16a;" horiz-adv-x="741" 
d="M675 270q0 -145 -81 -216t-224 -71q-145 0 -224.5 70.5t-79.5 216.5v444h157v-444q0 -29 5 -57t21 -50t44.5 -35t76.5 -13q84 0 116 37.5t32 117.5v444h157v-444zM194 884h353v-75h-353v75z" />
    <glyph glyph-name="uni016C" unicode="&#x16c;" horiz-adv-x="741" 
d="M675 270q0 -145 -81 -216t-224 -71q-145 0 -224.5 70.5t-79.5 216.5v444h157v-444q0 -29 5 -57t21 -50t44.5 -35t76.5 -13q84 0 116 37.5t32 117.5v444h157v-444zM269 921q3 -19 13 -31.5t24.5 -20.5t30.5 -11.5t31 -3.5q45 0 73 16t37 51h63q-10 -75 -56.5 -108.5
t-121.5 -33.5q-72 0 -112.5 36.5t-46.5 105.5h65z" />
    <glyph glyph-name="uni016E" horiz-adv-x="741" 
d="M675 270q0 -145 -81 -216t-224 -71q-145 0 -224.5 70.5t-79.5 216.5v444h157v-444q0 -29 5 -57t21 -50t44.5 -35t76.5 -13q84 0 116 37.5t32 117.5v444h157v-444zM487 859q0 -24 -9 -45t-25 -36t-37.5 -24t-45.5 -9q-25 0 -46.5 9t-37 24t-24.5 36t-9 45t9 45t25 36
t37.5 24t45.5 9q25 0 46.5 -9t37 -24t24.5 -36t9 -45zM309 859q0 -27 16.5 -45t44.5 -18t44.5 17.5t16.5 45.5q0 27 -16.5 45t-44.5 18t-44.5 -17.5t-16.5 -45.5z" />
    <glyph glyph-name="uni0170" unicode="&#x170;" horiz-adv-x="741" 
d="M675 270q0 -145 -81 -216t-224 -71q-145 0 -224.5 70.5t-79.5 216.5v444h157v-444q0 -29 5 -57t21 -50t44.5 -35t76.5 -13q84 0 116 37.5t32 117.5v444h157v-444zM511 779h-99l91 142h157zM304 779h-99l91 142h157z" />
    <glyph glyph-name="uni0172" unicode="&#x172;" horiz-adv-x="741" 
d="M487 -151q-24 -37 -54 -51.5t-70 -14.5q-50 0 -79.5 22.5t-29.5 60.5q0 32 20.5 60.5t61.5 57.5q-129 8 -199.5 78t-70.5 208v444h157v-444q0 -29 5 -57t21 -50t44.5 -35t76.5 -13q84 0 116 37.5t32 117.5v444h157v-444q0 -135 -70.5 -206t-196.5 -80q-19 -20 -30.5 -35
t-17.5 -27t-8 -21.5t-2 -19.5q0 -18 11 -28t26 -10q17 0 30 9t25 23z" />
    <glyph glyph-name="uni1E82" unicode="&#x1e82;" horiz-adv-x="944" 
d="M749 0h-156l-121 486h-2l-119 -486h-159l-189 714h157l113 -486h2l124 486h147l122 -492h2l117 492h154zM504 779h-99l96 142h157z" />
    <glyph glyph-name="uni0174" unicode="&#x174;" horiz-adv-x="944" 
d="M749 0h-156l-121 486h-2l-119 -486h-159l-189 714h157l113 -486h2l124 486h147l122 -492h2l117 492h154zM410 921h130l110 -142h-115l-62 81l-64 -81h-110z" />
    <glyph glyph-name="uni1E84" unicode="&#x1e84;" horiz-adv-x="944" 
d="M749 0h-156l-121 486h-2l-119 -486h-159l-189 714h157l113 -486h2l124 486h147l122 -492h2l117 492h154zM509 905h135v-117h-135v117zM303 905h135v-117h-135v117z" />
    <glyph glyph-name="uni1E80" unicode="&#x1e80;" horiz-adv-x="944" 
d="M749 0h-156l-121 486h-2l-119 -486h-159l-189 714h157l113 -486h2l124 486h147l122 -492h2l117 492h154zM288 921h157l96 -142h-99z" />
    <glyph glyph-name="uni0176" unicode="&#x176;" horiz-adv-x="667" 
d="M254 278l-263 436h177l167 -282l166 282h175l-265 -440v-274h-157v278zM273 921h130l110 -142h-115l-62 81l-64 -81h-110z" />
    <glyph glyph-name="uni1EF2" unicode="&#x1ef2;" horiz-adv-x="667" 
d="M254 278v-278h157v274l265 440h-175l-166 -282l-167 282h-176zM299 955l106 -177h-99l-163 177h156z" />
    <glyph glyph-name="uni0101" unicode="&#x101;" horiz-adv-x="574" 
d="M48 358q3 49 25 82.5t56 53.5t76 28.5t86 8.5q39 0 79 -5.5t73 -21.5t54 -45t21 -75v-269q0 -35 4 -67t14 -48h-144q-4 12 -6.5 24.5t-3.5 25.5q-34 -35 -80 -49.5t-94 -14.5q-37 0 -69 9.5t-56 28.5t-37.5 48t-13.5 69q0 50 19.5 80t50 47t68.5 24t74 11q33 4 58 7.5
t41.5 10.5t24.5 17.5t8 27.5q0 22 -7.5 36t-20 21.5t-29 10t-35.5 2.5q-42 0 -66 -18t-28 -60h-142zM376 253q-11 -11 -34 -16t-52 -9q-22 -3 -43 -7t-37 -12.5t-26 -23t-10 -38.5q0 -20 7 -32.5t19 -20t28 -10.5t33 -3q42 0 65 14t34 33.5t13.5 39.5t2.5 32v53zM118 694
h353v-75h-353v75z" />
    <glyph glyph-name="uni0103" unicode="&#x103;" horiz-adv-x="574" 
d="M48 358q3 50 25 83t56 53t76.5 28.5t85.5 8.5q39 0 79 -5.5t73 -21.5t54 -44.5t21 -75.5v-269q0 -35 4 -67t14 -48h-144q-4 12 -6.5 24.5t-3.5 25.5q-34 -35 -80 -49t-94 -14q-37 0 -69 9t-56 28t-37.5 48t-13.5 69q0 44 15.5 72.5t40 45.5t56 25.5t63.5 13.5t63 8t55 9
t38 17.5t13 33.5q0 23 -7.5 36.5t-20 21t-29 10t-35.5 2.5q-42 0 -66 -18t-28 -60h-142zM376 253q-9 -8 -22.5 -12.5t-29 -7.5t-32.5 -5t-34 -5q-16 -3 -31.5 -8t-27 -13.5t-18.5 -21.5t-7 -33q0 -19 7 -32t19 -20.5t28 -10.5t33 -3q42 0 65 14t34 33.5t13.5 39.5t2.5 32v53
zM180 727q3 -20 13 -33.5t24.5 -22t30.5 -12t31 -3.5q45 0 73 16.5t37 54.5h63q-10 -78 -56.5 -112t-121.5 -34q-146 0 -158 146h64v0z" />
    <glyph glyph-name="uni01FB" unicode="&#x1fb;" horiz-adv-x="574" 
d="M335 802h-98l79 119h147zM295 564q-48 0 -78 29.5t-30 75.5t31 75.5t77 29.5q48 0 78 -29.5t30 -75.5t-31 -75.5t-77 -29.5zM239 669q0 -26 15 -42t41 -16t41 16.5t15 41.5q0 26 -15 42t-41 16t-41 -16.5t-15 -41.5zM48 358q3 49 25 82.5t56 53.5t76 28.5t86 8.5
q39 0 79 -5.5t73 -21.5t54 -45t21 -75v-269q0 -35 4 -67t14 -48h-144q-4 12 -6.5 24.5t-3.5 25.5q-34 -35 -80 -49.5t-94 -14.5q-37 0 -69 9.5t-56 28.5t-37.5 48t-13.5 69q0 50 19.5 80t50 47t68.5 24t74 11q33 4 58 7.5t41.5 10.5t24.5 17.5t8 27.5q0 22 -7.5 36t-20 21.5
t-29 10t-35.5 2.5q-42 0 -66 -18t-28 -60h-142zM376 253q-11 -11 -34 -16t-52 -9q-22 -3 -43 -7t-37 -12.5t-26 -23t-10 -38.5q0 -20 7 -32.5t19 -20t28 -10.5t33 -3q42 0 65 14t34 33.5t13.5 39.5t2.5 32v53z" />
    <glyph glyph-name="uni01FD" unicode="&#x1fd;" horiz-adv-x="907" 
d="M509 224q-1 -26 7 -51.5t24 -45.5t39 -33t53 -13q48 0 72 21.5t31 59.5h138q-11 -41 -34 -74t-54 -55.5t-69.5 -34.5t-80.5 -12q-56 0 -108 20.5t-85 67.5q-18 -24 -42.5 -40.5t-52 -27t-57.5 -15.5t-59 -5q-37 0 -71.5 8t-61.5 26t-43.5 47.5t-16.5 72.5q0 44 15 72.5
t39.5 46t55.5 26t63 13.5q45 7 78 11.5t54.5 11.5t31.5 18t10 31t-8 33t-21 20.5t-29.5 10t-33.5 2.5q-42 0 -69.5 -17.5t-29.5 -62.5h-142q2 49 23.5 82.5t55 54t77 29.5t88.5 9q22 0 46.5 -3.5t47.5 -11.5t43 -21.5t34 -33.5q30 35 70 52.5t103 17.5q64 0 109.5 -25.5
t74 -68t41.5 -98t13 -115.5h-369zM736 314q0 24 -7 46t-21.5 39t-35 27t-47.5 10t-48.5 -10t-36.5 -27t-23 -39t-8 -46h227zM385 252q-13 -11 -33.5 -16t-43 -8.5t-45.5 -7t-41.5 -11.5t-30 -22.5t-11.5 -38.5q0 -20 7.5 -32.5t20 -20.5t28 -11t32.5 -3q19 0 40 6t38 19
t28 33t11 49v64zM506 589h-99l96 142h157z" />
    <glyph glyph-name="uni0109" unicode="&#x109;" horiz-adv-x="574" 
d="M406 335q-14 89 -105 89q-34 0 -57 -15.5t-37.5 -40t-20.5 -54.5t-6 -58t6 -57t19.5 -52.5t36.5 -38.5t56 -15q51 0 78.5 28.5t34.5 76.5h137q-14 -103 -80 -157.5t-169 -54.5q-59 0 -107 19.5t-82 55t-53 84t-19 106.5q0 60 17.5 111.5t51.5 89t83 58.5t112 21
q46 0 88.5 -12t76 -36.5t54.5 -61.5t24 -86h-139zM241 731h130l110 -142h-115l-62 81l-64 -81h-110z" />
    <glyph glyph-name="uni010D" unicode="&#x10d;" horiz-adv-x="574" 
d="M406 335q-14 89 -105 89q-34 0 -57 -15.5t-37.5 -40t-20.5 -54.5t-6 -58t6 -57t19.5 -52.5t36.5 -38.5t56 -15q51 0 78.5 28.5t34.5 76.5h137q-14 -103 -80 -157.5t-169 -54.5q-59 0 -107 19.5t-82 55t-53 84t-19 106.5q0 60 17.5 111.5t51.5 89t83 58.5t112 21
q46 0 88.5 -12t76 -36.5t54.5 -61.5t24 -86h-139zM370 589h-130l-110 142h115l62 -81l64 81h110z" />
    <glyph glyph-name="uni010B" unicode="&#x10b;" horiz-adv-x="574" 
d="M406 335q-14 89 -105 89q-34 0 -57 -15.5t-37.5 -40t-20.5 -54.5t-6 -58t6 -57t19.5 -52.5t36.5 -38.5t56 -15q51 0 78.5 28.5t34.5 76.5h137q-14 -103 -80 -157.5t-169 -54.5q-59 0 -107 19.5t-82 55t-53 84t-19 106.5q0 60 17.5 111.5t51.5 89t83 58.5t112 21
q46 0 88.5 -12t76 -36.5t54.5 -61.5t24 -86h-139zM237 715h135v-117h-135v117z" />
    <glyph glyph-name="uni010F" unicode="&#x10f;" 
d="M423 66h-2q-25 -42 -65.5 -61t-91.5 -19q-59 0 -102.5 23t-72 61.5t-43 88.5t-14.5 104q0 52 14.5 100.5t43 85.5t71.5 59.5t100 22.5q46 0 87.5 -19.5t65.5 -57.5h2v260h142v-714h-135v66zM421 260q0 31 -6 61t-20.5 52.5t-38 36.5t-57.5 14q-35 0 -59 -14t-38.5 -37
t-21 -53t-6.5 -61q0 -30 7 -60t22.5 -53.5t39 -38t56.5 -14.5q35 0 58.5 14t37.5 37.5t20 53.5t6 62zM703 572h-98l31 142h148z" />
    <glyph glyph-name="uni0111" unicode="&#x111;" horiz-adv-x="621" 
d="M258 644h158v70h142v-70h81v-76h-81v-568h-135v66h-2q-25 -42 -65.5 -61t-91.5 -19q-59 0 -102.5 23t-72 61.5t-43 88.5t-14.5 104q0 52 14.5 100.5t43 85.5t71.5 59.5t100 22.5q46 0 87.5 -19.5t65.5 -57.5h2v114h-158v76zM421 260q0 31 -6 61t-20.5 52.5t-38 36.5
t-57.5 14q-35 0 -59 -14t-38.5 -37t-21 -53t-6.5 -61q0 -30 7 -60t22.5 -53.5t39 -38t56.5 -14.5q35 0 58.5 14t37.5 37.5t20 53.5t6 62z" />
    <glyph glyph-name="uni011B" unicode="&#x11b;" horiz-adv-x="574" 
d="M171 224q3 -69 35 -100t92 -31q43 0 74 21.5t38 45.5h125q-30 -93 -92 -133.5t-150 -40.5q-61 0 -110 20t-83 56t-52.5 86t-18.5 110q0 58 19 108t54 86.5t83.5 57.5t107.5 21q66 0 115 -25.5t80.5 -68.5t45.5 -98t10 -115h-373zM402 314q-10 54 -35.5 82t-77.5 28
q-35 0 -57 -11.5t-35.5 -28.5t-19 -36t-6.5 -34h231zM359 589h-130l-110 142h115l62 -81l64 81h110z" />
    <glyph glyph-name="uni0113" unicode="&#x113;" horiz-adv-x="574" 
d="M171 224q3 -69 35 -100t92 -31q43 0 74 21.5t38 45.5h125q-30 -93 -92 -133.5t-150 -40.5q-61 0 -110 20t-83 56t-52.5 86t-18.5 110q0 58 19 108t54 86.5t83.5 57.5t107.5 21q66 0 115 -25.5t80.5 -68.5t45.5 -98t10 -115h-373zM402 314q-10 54 -35.5 82t-77.5 28
q-35 0 -57 -11.5t-35.5 -28.5t-19 -36t-6.5 -34h231zM117 694h353v-75h-353v75z" />
    <glyph glyph-name="uni0115" unicode="&#x115;" horiz-adv-x="574" 
d="M171 224q3 -69 35 -100t92 -31q43 0 74 21.5t38 45.5h125q-30 -93 -92 -133.5t-150 -40.5q-61 0 -110 20t-83 56t-52.5 86t-18.5 110q0 58 19 108t54 86.5t83.5 57.5t107.5 21q66 0 115 -25.5t80.5 -68.5t45.5 -98t10 -115h-373zM402 314q-10 54 -35.5 82t-77.5 28
q-35 0 -57 -11.5t-35.5 -28.5t-19 -36t-6.5 -34h231zM192 731q3 -19 13 -31.5t24.5 -20.5t30.5 -11.5t31 -3.5q45 0 73 16t37 51h63q-10 -75 -56.5 -108.5t-121.5 -33.5q-72 0 -112.5 36.5t-46.5 105.5h65z" />
    <glyph glyph-name="uni0117" unicode="&#x117;" horiz-adv-x="574" 
d="M171 224q3 -69 35 -100t92 -31q43 0 74 21.5t38 45.5h125q-30 -93 -92 -133.5t-150 -40.5q-61 0 -110 20t-83 56t-52.5 86t-18.5 110q0 58 19 108t54 86.5t83.5 57.5t107.5 21q66 0 115 -25.5t80.5 -68.5t45.5 -98t10 -115h-373zM402 314q-10 54 -35.5 82t-77.5 28
q-35 0 -57 -11.5t-35.5 -28.5t-19 -36t-6.5 -34h231zM225 715h135v-117h-135v117z" />
    <glyph glyph-name="uni011D" unicode="&#x11d;" 
d="M551 33q0 -32 -8.5 -71.5t-36.5 -74.5t-81 -59t-142 -24q-38 0 -77.5 9.5t-72 29.5t-54 51.5t-24.5 75.5h141q10 -40 39 -55.5t67 -15.5q60 0 87.5 35.5t26.5 92.5v68h-2q-23 -41 -65.5 -60.5t-89.5 -19.5q-59 0 -100.5 20.5t-68.5 56t-39.5 83t-12.5 100.5
q0 50 14.5 96.5t42.5 82t69.5 56.5t95.5 21q51 0 89.5 -19t64.5 -64h2v69h135v-484zM295 122q30 0 53 12t38 32t22.5 45.5t7.5 53.5q0 31 -6 60t-20 51t-37.5 35t-57.5 13q-30 0 -51.5 -12t-36 -32.5t-21 -47t-6.5 -55.5q0 -28 5.5 -55.5t19 -49.5t35.5 -36t55 -14zM246 731
h130l110 -142h-115l-62 81l-64 -81h-110z" />
    <glyph glyph-name="uni011F" unicode="&#x11f;" 
d="M551 33q0 -32 -8.5 -71.5t-36.5 -74.5t-81 -59t-142 -24q-38 0 -77.5 9.5t-72 29.5t-54 51.5t-24.5 75.5h141q10 -40 39 -55.5t67 -15.5q60 0 87.5 35.5t26.5 92.5v68h-2q-23 -41 -65.5 -60.5t-89.5 -19.5q-59 0 -100.5 20.5t-68.5 56t-39.5 83t-12.5 100.5
q0 50 14.5 96.5t42.5 82t69.5 56.5t95.5 21q51 0 89.5 -19t64.5 -64h2v69h135v-484zM295 122q30 0 53 12t38 32t22.5 45.5t7.5 53.5q0 31 -6 60t-20 51t-37.5 35t-57.5 13q-30 0 -51.5 -12t-36 -32.5t-21 -47t-6.5 -55.5q0 -28 5.5 -55.5t19 -49.5t35.5 -36t55 -14zM208 731
q3 -19 13 -31.5t24.5 -20.5t30.5 -11.5t31 -3.5q45 0 73 16t37 51h63q-10 -75 -56.5 -108.5t-121.5 -33.5q-72 0 -112.5 36.5t-46.5 105.5h65z" />
    <glyph glyph-name="uni0121" unicode="&#x121;" 
d="M551 33q0 -32 -8.5 -71.5t-36.5 -74.5t-81 -59t-142 -24q-38 0 -77.5 9.5t-72 29.5t-54 51.5t-24.5 75.5h141q10 -40 39 -55.5t67 -15.5q60 0 87.5 35.5t26.5 92.5v68h-2q-23 -41 -65.5 -60.5t-89.5 -19.5q-59 0 -100.5 20.5t-68.5 56t-39.5 83t-12.5 100.5
q0 50 14.5 96.5t42.5 82t69.5 56.5t95.5 21q51 0 89.5 -19t64.5 -64h2v69h135v-484zM295 122q30 0 53 12t38 32t22.5 45.5t7.5 53.5q0 31 -6 60t-20 51t-37.5 35t-57.5 13q-30 0 -51.5 -12t-36 -32.5t-21 -47t-6.5 -55.5q0 -28 5.5 -55.5t19 -49.5t35.5 -36t55 -14zM241 715
h135v-117h-135v117z" />
    <glyph glyph-name="uni0123" unicode="&#x123;" 
d="M551 33q0 -32 -8.5 -71.5t-36.5 -74.5t-81 -59t-142 -24q-38 0 -77.5 9.5t-72 29.5t-54 51.5t-24.5 75.5h141q10 -40 39 -55.5t67 -15.5q60 0 87.5 35.5t26.5 92.5v68h-2q-23 -41 -65.5 -60.5t-89.5 -19.5q-59 0 -100.5 20.5t-68.5 56t-39.5 83t-12.5 100.5
q0 50 14.5 96.5t42.5 82t69.5 56.5t95.5 21q51 0 89.5 -19t64.5 -64h2v69h135v-484zM295 122q30 0 53 12t38 32t22.5 45.5t7.5 53.5q0 31 -6 60t-20 51t-37.5 35t-57.5 13q-30 0 -51.5 -12t-36 -32.5t-21 -47t-6.5 -55.5q0 -28 5.5 -55.5t19 -49.5t35.5 -36t55 -14zM380 621
h-145v73q0 31 10.5 50t28.5 28.5t42.5 12.5t53.5 3v-37q-24 -2 -38 -10t-19 -27h67v-93z" />
    <glyph glyph-name="uni0125" unicode="&#x125;" horiz-adv-x="593" 
d="M54 714h142v-269h3q27 45 69 65.5t82 20.5q57 0 93.5 -15.5t57.5 -43t29.5 -67t8.5 -87.5v-318h-142v292q0 64 -20 95.5t-71 31.5q-58 0 -84 -34.5t-26 -113.5v-271h-142v714zM221 921h130l110 -142h-115l-62 81l-64 -81h-110z" />
    <glyph glyph-name="uni0127" unicode="&#x127;" horiz-adv-x="603" 
d="M64 568h-81v76h81v70h142v-70h158v-76h-158v-123h3q27 45 69 65.5t82 20.5q57 0 93.5 -15.5t57.5 -43t29.5 -67t8.5 -87.5v-318h-142v292q0 64 -20 95.5t-71 31.5q-58 0 -84 -34.5t-26 -113.5v-271h-142v568z" />
    <glyph glyph-name="uni012D" unicode="&#x12d;" horiz-adv-x="258" 
d="M58 517h142v-517h-142v517zM28 731q3 -19 13 -31.5t24.5 -20.5t30.5 -11.5t31 -3.5q45 0 73 16t37 51h63q-10 -75 -56.5 -108.5t-121.5 -33.5q-72 0 -112.5 36.5t-46.5 105.5h65z" />
    <glyph glyph-name="uni0129" unicode="&#x129;" horiz-adv-x="258" 
d="M58 517v-517h142v517h-142zM200 598q-23 0 -42.5 7.5t-37 17t-34.5 17t-33 7.5q-19 0 -29.5 -13.5t-15.5 -35.5h-63q3 23 11.5 46t23.5 41.5t35.5 30t46.5 11.5q20 0 39 -6.5t37 -15t34.5 -15t32.5 -6.5q18 0 28 10t15 33h64q-5 -26 -12.5 -49t-20.5 -41t-32.5 -28.5
t-46.5 -10.5z" />
    <glyph glyph-name="uni012B" unicode="&#x12b;" horiz-adv-x="258" 
d="M58 517h142v-517h-142v517zM-47 694h353v-75h-353v75z" />
    <glyph glyph-name="uni012F" unicode="&#x12f;" horiz-adv-x="258" 
d="M200 597h-142v117h142v-117zM58 517h142v-517q-25 -24 -40 -41.5t-23.5 -32t-11 -26t-2.5 -21.5q0 -18 9 -27t23 -9t25 7.5t21 20.5l41 -26q-23 -32 -47.5 -47t-61.5 -15q-48 0 -75 22.5t-27 60.5q0 35 26.5 67.5t80.5 66.5h-80v517z" />
    <glyph glyph-name="uni0237" unicode="&#x237;" horiz-adv-x="278" 
d="M-19 -61q11 -4 31 -4q22 0 38.5 8.5t16.5 37.5v536h142v-543q0 -40 -8.5 -69t-29 -48.5t-55.5 -29t-89 -9.5q-11 0 -23 1t-23 3v117z" />
    <glyph glyph-name="uni0135" unicode="&#x135;" horiz-adv-x="278" 
d="M-19 -61q11 -4 31 -4q22 0 38.5 8.5t16.5 37.5v536h142v-543q0 -40 -8.5 -69t-29 -48.5t-55.5 -29t-89 -9.5q-11 0 -23 1t-23 3v117zM71 731h130l110 -142h-115l-62 81l-64 -81h-110z" />
    <glyph glyph-name="uni0137" unicode="&#x137;" horiz-adv-x="574" 
d="M67 714h142v-383l179 186h168l-195 -190l217 -327h-172l-142 231l-55 -53v-178h-142v714zM235 -50h145v-73q0 -32 -10.5 -50.5t-28.5 -28t-43 -12.5t-53 -3v37q24 2 38 10t19 27h-67v93z" />
    <glyph glyph-name="uni0138" unicode="&#x138;" horiz-adv-x="565" 
d="M54 517h142v-204l179 204h168l-194 -202l217 -315h-172l-140 216l-58 -56v-160h-142v517z" />
    <glyph glyph-name="uni013A" unicode="&#x13a;" horiz-adv-x="258" 
d="M58 714h142v-714h-142v714zM159 779h-99l96 142h157z" />
    <glyph glyph-name="uni013E" unicode="&#x13e;" horiz-adv-x="388" 
d="M58 714h142v-714h-142v714zM384 402h-109v312h109v-312z" />
    <glyph glyph-name="uni013C" unicode="&#x13c;" horiz-adv-x="258" 
d="M58 714h142v-714h-142v714zM56 -50h145v-73q0 -32 -10.5 -50.5t-28.5 -28t-43 -12.5t-53 -3v37q24 2 38 10t19 27h-67v93z" />
    <glyph glyph-name="uni0140" unicode="&#x140;" horiz-adv-x="410" 
d="M58 714h142v-714h-142v714zM261 450h135v-117h-135v117z" />
    <glyph glyph-name="uni0148" unicode="&#x148;" horiz-adv-x="593" 
d="M54 517h135v-72h3q27 45 70 65.5t88 20.5q57 0 93.5 -15.5t57.5 -43t29.5 -67t8.5 -87.5v-318h-142v292q0 64 -20 95.5t-71 31.5q-58 0 -84 -34.5t-26 -113.5v-271h-142v517zM361 589h-130l-110 142h115l62 -81l64 81h110z" />
    <glyph glyph-name="uni0146" unicode="&#x146;" horiz-adv-x="593" 
d="M54 517h135v-72h3q27 45 70 65.5t88 20.5q57 0 93.5 -15.5t57.5 -43t29.5 -67t8.5 -87.5v-318h-142v292q0 64 -20 95.5t-71 31.5q-58 0 -84 -34.5t-26 -113.5v-271h-142v517zM221 -50h145v-73q0 -32 -10.5 -50.5t-28.5 -28t-43 -12.5t-53 -3v37q24 2 38 10t19 27h-67v93z
" />
    <glyph glyph-name="uni0149" unicode="&#x149;" horiz-adv-x="737" 
d="M198 517h135v-72h3q27 45 70 65.5t88 20.5q57 0 93.5 -15.5t57.5 -43t29.5 -67t8.5 -87.5v-318h-142v292q0 64 -20 95.5t-71 31.5q-58 0 -84 -34.5t-26 -113.5v-271h-142v517zM20 714h142v-153q1 -33 -9.5 -62t-29.5 -51t-45.5 -36.5t-57.5 -18.5v66q38 13 52 38.5
t14 62.5h-66v154z" />
    <glyph glyph-name="uni014D" unicode="&#x14d;" 
d="M38 258q0 62 19 112.5t54 86t84 55t110 19.5t110.5 -19.5t84.5 -55t54 -86t19 -112.5t-19 -112t-54 -85.5t-84.5 -55t-110.5 -19.5t-110 19.5t-84 55t-54 85.5t-19 112zM180 258q0 -31 6 -60.5t20.5 -53t38.5 -37.5t60 -14t60.5 14t39 37.5t20.5 53t6 60.5t-6 61
t-20.5 53t-39 37.5t-60.5 14.5t-60 -14.5t-38.5 -37.5t-20.5 -53t-6 -61zM130 694h353v-75h-353v75z" />
    <glyph glyph-name="uni014F" unicode="&#x14f;" 
d="M38 258q0 62 19 112.5t54 86t84 55t110 19.5t110.5 -19.5t84.5 -55t54 -86t19 -112.5t-19 -112t-54 -85.5t-84.5 -55t-110.5 -19.5t-110 19.5t-84 55t-54 85.5t-19 112zM180 258q0 -31 6 -60.5t20.5 -53t38.5 -37.5t60 -14t60.5 14t39 37.5t20.5 53t6 60.5t-6 61
t-20.5 53t-39 37.5t-60.5 14.5t-60 -14.5t-38.5 -37.5t-20.5 -53t-6 -61zM205 731q3 -19 13 -31.5t24.5 -20.5t30.5 -11.5t31 -3.5q45 0 73 16t37 51h63q-10 -75 -56.5 -108.5t-121.5 -33.5q-72 0 -112.5 36.5t-46.5 105.5h65z" />
    <glyph glyph-name="uni0151" unicode="&#x151;" 
d="M38 258q0 62 19 112.5t54 86t84 55t110 19.5t110.5 -19.5t84.5 -55t54 -86t19 -112.5t-19 -112t-54 -85.5t-84.5 -55t-110.5 -19.5t-110 19.5t-84 55t-54 85.5t-19 112zM180 258q0 -31 6 -60.5t20.5 -53t38.5 -37.5t60 -14t60.5 14t39 37.5t20.5 53t6 60.5t-6 61
t-20.5 53t-39 37.5t-60.5 14.5t-60 -14.5t-38.5 -37.5t-20.5 -53t-6 -61zM447 589h-99l91 142h157zM240 589h-99l91 142h157z" />
    <glyph glyph-name="uni01FF" unicode="&#x1ff;" 
d="M343 589h-99l96 142h157zM104 69q-66 72 -66 189q0 62 19 112.5t54 86t84 55t110 19.5q95 0 163 -48l53 61l37 -32l-54 -61q33 -35 51 -84t18 -109q0 -62 -19 -112t-54 -85.5t-84.5 -55t-110.5 -19.5q-97 0 -165 50l-59 -67l-37 32zM388 392q-30 32 -83 32
q-36 0 -60 -14.5t-38.5 -37.5t-20.5 -53t-6 -61q0 -23 3.5 -45t11.5 -41zM220 127q14 -16 35 -25t50 -9q36 0 60.5 14t39 37.5t20.5 53t6 60.5q0 24 -4 47.5t-12 43.5z" />
    <glyph glyph-name="uni0155" unicode="&#x155;" horiz-adv-x="389" 
d="M54 517h135v-96h2q10 24 27 44.5t39 35t47 22.5t52 8q14 0 31 -5v-132q-10 2 -24 3.5t-27 1.5q-39 0 -66 -13t-43.5 -35.5t-23.5 -53t-7 -64.5v-233h-142v517zM256 589h-99l96 142h157z" />
    <glyph glyph-name="uni0159" unicode="&#x159;" horiz-adv-x="389" 
d="M54 517h135v-96h2q10 24 27 44.5t39 35t47 22.5t52 8q14 0 31 -5v-132q-10 2 -24 3.5t-27 1.5q-39 0 -66 -13t-43.5 -35.5t-23.5 -53t-7 -64.5v-233h-142v517zM285 589h-130l-110 142h115l62 -81l64 81h110z" />
    <glyph glyph-name="uni0157" unicode="&#x157;" horiz-adv-x="389" 
d="M54 517h135v-96h2q10 24 27 44.5t39 35t47 22.5t52 8q14 0 31 -5v-132q-10 2 -24 3.5t-27 1.5q-39 0 -66 -13t-43.5 -35.5t-23.5 -53t-7 -64.5v-233h-142v517zM53 -50h145v-73q0 -32 -10.5 -50.5t-28.5 -28t-43 -12.5t-53 -3v37q24 2 38 10t19 27h-67v93z" />
    <glyph glyph-name="uni015D" unicode="&#x15d;" horiz-adv-x="537" 
d="M164 168q0 -23 9.5 -39.5t24.5 -27t34.5 -15.5t40.5 -5q15 0 31.5 3.5t30 11t22.5 20t9 31.5q0 32 -42.5 48t-118.5 32q-31 7 -60.5 16.5t-52.5 25t-37 38.5t-14 58q0 49 19.5 81.5t51.5 51t72 26t82 7.5t81.5 -8t70.5 -27t51.5 -50.5t24.5 -79.5h-135q-3 41 -31 55.5
t-66 14.5q-12 0 -26 -1.5t-25.5 -6.5t-19.5 -14.5t-8 -25.5q0 -19 14 -31t36.5 -19.5t51.5 -13.5t59 -13q31 -7 60.5 -17t52.5 -26.5t37 -41t14 -60.5q0 -51 -20.5 -85.5t-53.5 -55.5t-75.5 -30t-86.5 -9q-45 0 -88 9t-76.5 30.5t-55 56.5t-23.5 86h135zM207 731h130
l110 -142h-115l-62 81l-64 -81h-110z" />
    <glyph glyph-name="uni015F" unicode="&#x15f;" horiz-adv-x="537" 
d="M159 -147q16 -7 37.5 -12.5t41.5 -5.5q45 0 45 34q0 16 -12 24.5t-30 8.5q-11 0 -19.5 -2t-18.5 -6l-21 24l50 70q-39 3 -75.5 14.5t-64 33t-45 54t-18.5 78.5h135q0 -23 9.5 -39.5t24.5 -27t34.5 -15.5t40.5 -5q15 0 31.5 3.5t30 11t22.5 20t9 31.5q0 32 -42.5 48
t-118.5 32q-31 7 -60.5 16.5t-52.5 25t-37 38.5t-14 58q0 49 19.5 81.5t51.5 51t72 26t82 7.5t81.5 -8t70.5 -27t51.5 -50.5t24.5 -79.5h-135q-3 41 -31 55.5t-66 14.5q-12 0 -26 -1.5t-25.5 -6.5t-19.5 -14.5t-8 -25.5q0 -19 14 -31t36.5 -19.5t51.5 -13.5t59 -13
q31 -7 60.5 -17t52.5 -26.5t37 -41t14 -60.5q0 -50 -19.5 -84t-52 -55t-73.5 -30.5t-84 -10.5l-28 -38l2 -2q9 4 20.5 5.5t19.5 1.5q39 0 62.5 -20t23.5 -57q0 -44 -32.5 -68.5t-92.5 -24.5q-35 0 -61 5.5t-55 16.5z" />
    <glyph glyph-name="uni0219" unicode="&#x219;" horiz-adv-x="537" 
d="M164 168q0 -23 9.5 -39.5t24.5 -27t34.5 -15.5t40.5 -5q15 0 31.5 3.5t30 11t22.5 20t9 31.5q0 32 -42.5 48t-118.5 32q-31 7 -60.5 16.5t-52.5 25t-37 38.5t-14 58q0 49 19.5 81.5t51.5 51t72 26t82 7.5t81.5 -8t70.5 -27t51.5 -50.5t24.5 -79.5h-135q-3 41 -31 55.5
t-66 14.5q-12 0 -26 -1.5t-25.5 -6.5t-19.5 -14.5t-8 -25.5q0 -19 14 -31t36.5 -19.5t51.5 -13.5t59 -13q31 -7 60.5 -17t52.5 -26.5t37 -41t14 -60.5q0 -51 -20.5 -85.5t-53.5 -55.5t-75.5 -30t-86.5 -9q-45 0 -88 9t-76.5 30.5t-55 56.5t-23.5 86h135zM192 -50h145v-73
q0 -32 -10.5 -50.5t-28.5 -28t-43 -12.5t-53 -3v37q24 2 38 10t19 27h-67v93z" />
    <glyph glyph-name="uni0165" unicode="&#x165;" horiz-adv-x="352" 
d="M385 572h-98l31 142h148zM234 517h104v-95h-104v-256q0 -36 12 -48t48 -12q12 0 23 1t21 3v-111q-18 -3 -40 -4t-43 -1q-33 0 -62.5 4.5t-52 18t-35.5 37.5t-13 63v305h-86v95h86v155h142v-155z" />
    <glyph glyph-name="uni0163" unicode="&#x163;" horiz-adv-x="352" 
d="M234 517h104v-95h-104v-256q0 -36 12 -48t48 -12q12 0 23 1t21 3v-111q-18 -3 -40 -4t-43 -1q-33 0 -62.5 4.5t-52 18t-35.5 37.5t-13 63v305h-86v95h86v155h142v-155zM125 -147q16 -7 37 -12.5t47 -5.5q18 0 29 8t11 26q0 19 -11.5 25.5t-28.5 6.5q-22 0 -40 -7l-21 24
l59 84h49l-39 -54h2q12 5 34 5q17 0 33.5 -4t29.5 -12.5t21 -22t8 -31.5q0 -29 -10 -48.5t-26.5 -31t-37.5 -16t-43 -4.5q-24 0 -41 1.5t-30.5 4.5t-26 7t-26.5 9z" />
    <glyph glyph-name="uni021B" unicode="&#x21b;" horiz-adv-x="352" 
d="M234 517h104v-95h-104v-256q0 -36 12 -48t48 -12q12 0 23 1t21 3v-111q-18 -3 -40 -4t-43 -1q-33 0 -62.5 4.5t-52 18t-35.5 37.5t-13 63v305h-86v95h86v155h142v-155zM141 -50h145v-73q0 -32 -10.5 -50.5t-28.5 -28t-43 -12.5t-53 -3v37q24 2 38 10t19 27h-67v93z" />
    <glyph glyph-name="uni0167" unicode="&#x167;" horiz-adv-x="352" 
d="M234 517h104v-95h-104v-81h92v-76h-92v-99q0 -36 12 -48t48 -12q12 0 23 1t21 3v-111q-18 -3 -40 -4t-43 -1q-33 0 -62.5 4.5t-52 18t-35.5 37.5t-13 63v148h-78v76h78v81h-86v95h86v155h142v-155z" />
    <glyph glyph-name="uni0169" unicode="&#x169;" horiz-adv-x="593" 
d="M539 0v517h-142v-271q0 -79 -26 -113.5t-84 -34.5q-51 0 -71 31.5t-20 95.5v292h-142v-318q0 -48 8.5 -87.5t29.5 -67t57.5 -42.5t93.5 -15q45 0 88 20t70 65h3v-72h135zM368 598q-23 0 -42.5 7.5t-37 17t-34.5 17t-33 7.5q-19 0 -29.5 -13.5t-15.5 -35.5h-63
q3 23 11.5 46t23.5 41.5t35.5 30t46.5 11.5q20 0 39 -6.5t37 -15t34.5 -15t32.5 -6.5q18 0 28 10t15 33h64q-5 -26 -12.5 -49t-20.5 -41t-32.5 -28.5t-46.5 -10.5z" />
    <glyph glyph-name="uni016B" unicode="&#x16b;" horiz-adv-x="593" 
d="M539 0h-135v72h-3q-27 -45 -70 -65.5t-88 -20.5q-57 0 -93.5 15.5t-57.5 43t-29.5 67t-8.5 87.5v318h142v-292q0 -64 20 -95.5t71 -31.5q58 0 84 34.5t26 113.5v271h142v-517zM123 694h353v-75h-353v75z" />
    <glyph glyph-name="uni016D" unicode="&#x16d;" horiz-adv-x="593" 
d="M539 0h-135v72h-3q-27 -45 -70 -65.5t-88 -20.5q-57 0 -93.5 15.5t-57.5 43t-29.5 67t-8.5 87.5v318h142v-292q0 -64 20 -95.5t71 -31.5q58 0 84 34.5t26 113.5v271h142v-517zM197 731q3 -19 13 -31.5t24.5 -20.5t30.5 -11.5t31 -3.5q45 0 73 16t37 51h63
q-10 -75 -56.5 -108.5t-121.5 -33.5q-72 0 -112.5 36.5t-46.5 105.5h65z" />
    <glyph glyph-name="uni016F" unicode="&#x16f;" horiz-adv-x="593" 
d="M539 0h-135v72h-3q-27 -45 -70 -65.5t-88 -20.5q-57 0 -93.5 15.5t-57.5 43t-29.5 67t-8.5 87.5v318h142v-292q0 -64 20 -95.5t71 -31.5q58 0 84 34.5t26 113.5v271h142v-517zM176 684q0 26 9.5 48t26 38t39 25t48.5 9q27 0 49 -9t38.5 -25t25.5 -38t9 -48t-9.5 -48
t-26 -38t-39 -25t-48.5 -9q-27 0 -49 9t-38.5 25t-25.5 38t-9 48zM362 684q0 29 -17 48t-46 19t-46.5 -19t-17.5 -48t17 -48t46 -19t46.5 19t17.5 48z" />
    <glyph glyph-name="uni0171" unicode="&#x171;" horiz-adv-x="593" 
d="M539 0h-135v72h-3q-27 -45 -70 -65.5t-88 -20.5q-57 0 -93.5 15.5t-57.5 43t-29.5 67t-8.5 87.5v318h142v-292q0 -64 20 -95.5t71 -31.5q58 0 84 34.5t26 113.5v271h142v-517zM439 589h-99l91 142h157zM232 589h-99l91 142h157z" />
    <glyph glyph-name="uni0173" unicode="&#x173;" horiz-adv-x="593" 
d="M539 0h-65q-22 -22 -35 -39t-20 -31t-9 -26t-2 -22q0 -19 11 -29t27 -10q17 0 30 9t25 23l45 -26q-24 -37 -54 -51.5t-70 -14.5q-50 0 -79.5 23t-29.5 61q0 36 23 67t68 66v72h-3q-27 -45 -70 -65.5t-88 -20.5q-57 0 -93.5 15.5t-57.5 43t-29.5 67t-8.5 87.5v318h142
v-292q0 -64 20 -95.5t71 -31.5q58 0 84 34.5t26 113.5v271h142v-517z" />
    <glyph glyph-name="uni1E83" unicode="&#x1e83;" horiz-adv-x="814" 
d="M645 0h-146l-92 347h-2l-88 -347h-147l-164 517h150l95 -351h2l86 351h138l88 -350h2l95 350h146zM440 589h-99l96 142h157z" />
    <glyph glyph-name="uni0175" unicode="&#x175;" horiz-adv-x="814" 
d="M645 0h-146l-92 347h-2l-88 -347h-147l-164 517h150l95 -351h2l86 351h138l88 -350h2l95 350h146zM345 731h130l110 -142h-115l-62 81l-64 -81h-110z" />
    <glyph glyph-name="uni1E85" unicode="&#x1e85;" horiz-adv-x="814" 
d="M645 0h-146l-92 347h-2l-88 -347h-147l-164 517h150l95 -351h2l86 351h138l88 -350h2l95 350h146zM444 715h135v-117h-135v117zM238 715h135v-117h-135v117z" />
    <glyph glyph-name="uni1E81" unicode="&#x1e81;" horiz-adv-x="814" 
d="M645 0h-146l-92 347h-2l-88 -347h-147l-164 517h150l95 -351h2l86 351h138l88 -350h2l95 350h146zM222 731h157l96 -142h-99z" />
    <glyph glyph-name="uni0177" unicode="&#x177;" horiz-adv-x="519" 
d="M309 -65q-23 -63 -64 -90t-114 -27q-22 0 -43.5 1.5t-43.5 3.5v117q17 -2 36 -3.5t40 -1.5q28 0 45 18t17 47q0 17 -6 32l-182 485h152l117 -354h2l113 354h147zM202 731h130l110 -142h-115l-62 81l-64 -81h-110z" />
    <glyph glyph-name="uni1EF3" unicode="&#x1ef3;" horiz-adv-x="519" 
d="M309 -64l216 581h-147l-113 -354h-2l-117 354h-151l181 -485q6 -15 6 -32q0 -23 -13.5 -42t-41.5 -22q-21 -1 -42 1t-41 4v-117q22 -2 43.5 -3.5t43.5 -1.5q73 0 114 27t64 90zM222 785l106 -177h-99l-163 177h156z" />
    <glyph glyph-name="uni0132" unicode="&#x132;" horiz-adv-x="845" 
d="M69 714h157v-714h-157v714zM303 266h142v-32q0 -26 4 -48t14 -37.5t27.5 -24.5t45.5 -9q31 0 48 11t24.5 28.5t9 38t1.5 39.5v482h157v-489q0 -23 -3 -50t-11.5 -54t-24.5 -51.5t-42.5 -44t-65 -31t-91.5 -11.5q-45 0 -87 12.5t-75 39.5t-53 68.5t-20 100.5v62z" />
    <glyph glyph-name="uni0133" unicode="&#x133;" horiz-adv-x="524" 
d="M200 597h-142v117h142v-117zM58 517h142v-517h-142v517zM455 597h-142v117h142v-117zM227 -61q11 -4 31 -4q22 0 38.5 8.5t16.5 37.5v536h142v-543q0 -40 -8.5 -69t-29 -48.5t-55.5 -29t-89 -9.5q-11 0 -23 1t-23 3v117z" />
    <glyph glyph-name="uniE000" horiz-adv-x="259" 
d="M-48 921h157l96 -142h-99z" />
    <glyph glyph-name="uniE002" horiz-adv-x="259" 
d="M154 779h-99l96 142h157z" />
    <glyph glyph-name="uniE004" horiz-adv-x="259" 
d="M65 921h130l110 -142h-115l-62 81l-64 -81h-110z" />
    <glyph glyph-name="uniE006" horiz-adv-x="259" 
d="M194 779h-130l-110 142h115l62 -81l64 81h110z" />
    <glyph glyph-name="uniE008" horiz-adv-x="259" 
d="M185 572h-98l31 142h148z" />
    <glyph glyph-name="uniE009" horiz-adv-x="259" 
d="M201 797q-23 0 -42.5 5.5t-37 11.5t-34.5 11.5t-33 5.5q-19 0 -29.5 -11.5t-15.5 -30.5h-63q3 22 11.5 44t23.5 39t35.5 28t46.5 11q20 0 39 -5.5t37 -12t34.5 -12t32.5 -5.5q18 0 28 8t15 27h64q-5 -23 -12.5 -43.5t-20.5 -36t-32.5 -25t-46.5 -9.5z" />
    <glyph glyph-name="uniE00B" horiz-adv-x="259" 
d="M165 905h135v-117h-135v117zM-41 905h135v-117h-135v117z" />
    <glyph glyph-name="uniE00D" horiz-adv-x="259" 
d="M-47 884h353v-75h-353v75z" />
    <glyph glyph-name="uni02C9" unicode="&#x2c9;" horiz-adv-x="259" 
d="M-47 694h353v-75h-353v75z" />
    <glyph glyph-name="uniE00F" horiz-adv-x="259" 
d="M26 921q3 -19 13 -31.5t24.5 -20.5t30.5 -11.5t31 -3.5q45 0 73 16t37 51h63q-10 -75 -56.5 -108.5t-121.5 -33.5q-72 0 -112.5 36.5t-46.5 105.5h65z" />
    <glyph glyph-name="uniE011" horiz-adv-x="259" 
d="M247 859q0 -24 -9 -45t-25 -36t-37.5 -24t-45.5 -9q-25 0 -46.5 9t-37 24t-24.5 36t-9 45t9 45t25 36t37.5 24t45.5 9q25 0 46.5 -9t37 -24t24.5 -36t9 -45zM69 859q0 -27 16.5 -45t44.5 -18t44.5 17.5t16.5 45.5q0 27 -16.5 45t-44.5 18t-44.5 -17.5t-16.5 -45.5z" />
    <glyph glyph-name="uniE013" horiz-adv-x="259" 
d="M250 779h-99l91 142h157zM43 779h-99l91 142h157z" />
    <glyph glyph-name="uniE015" horiz-adv-x="259" 
d="M62 905h135v-117h-135v117z" />
    <glyph glyph-name="uniE017" horiz-adv-x="278" 
d="M75 -50h145v-73q0 -32 -10.5 -50.5t-28.5 -28t-43 -12.5t-53 -3v37q24 2 38 10t19 27h-67v93z" />
    <glyph glyph-name="uniE01A" horiz-adv-x="278" 
d="M214 621h-145v73q0 31 10.5 50t28.5 28.5t42.5 12.5t53.5 3v-37q-24 -2 -38 -10t-19 -27h67v-93z" />
    <glyph glyph-name="uni00AD" unicode="&#xad;" horiz-adv-x="407" 
d="M53 334h301v-122h-301v122z" />
    <glyph glyph-name="uni2219" unicode="&#x2219;" horiz-adv-x="278" 
d="M55 287q0 36 25.5 60.5t59.5 24.5q17 0 32 -6.5t26.5 -18t18.5 -27t7 -33.5q0 -16 -7 -31t-18 -27t-26.5 -19t-31.5 -7q-18 0 -33.5 6.5t-27 18t-18.5 27t-7 32.5z" />
    <glyph glyph-name="uni2215" unicode="&#x2215;" horiz-adv-x="167" 
d="M248 722h85l-412 -744h-87z" />
    <glyph glyph-name="uni2153" unicode="&#x2153;" horiz-adv-x="834" 
d="M544 722h85l-412 -744h-87zM247 280h-102v268h-110v72h22q45 0 72.5 19t33.5 64h84v-423zM610 258h26q31 0 47.5 13.5t16.5 35.5t-14.5 35.5t-43.5 13.5q-62 0 -62 -66h-95q3 67 45 104.5t116 37.5q66 0 106 -30t40 -83q0 -29 -16.5 -52.5t-49.5 -35.5q43 -8 63 -36
t20 -70q0 -30 -13 -55t-36 -42.5t-54 -27t-67 -9.5q-82 0 -123 39.5t-41 99.5h96q4 -27 20 -43.5t51 -16.5q34 0 53.5 16.5t19.5 42.5q0 32 -18.5 46t-58.5 14h-28v69z" />
    <glyph glyph-name="uni215B" unicode="&#x215b;" horiz-adv-x="834" 
d="M544 722h85l-412 -744h-87zM247 280h-102v268h-110v72h22q45 0 72.5 19t33.5 64h84v-423zM493 315q0 52 41.5 84.5t107.5 32.5q76 0 112.5 -32.5t36.5 -80.5q0 -32 -18.5 -56t-51.5 -34q43 -11 65.5 -38t22.5 -68q0 -32 -13.5 -56.5t-36.5 -41.5t-53 -25.5t-63 -8.5
q-37 0 -67.5 8t-53 24.5t-35 41t-12.5 57.5q0 41 24.5 68t63.5 36q-35 11 -52.5 34t-17.5 55zM583 309q0 -23 16.5 -37t42.5 -14q28 0 43 14t15 37q0 25 -15.5 39t-42.5 14q-29 0 -44 -14.5t-15 -38.5zM570 127q0 -32 20.5 -47.5t52.5 -15.5q70 0 70 63q0 29 -19.5 46.5
t-51.5 17.5q-34 0 -53 -17t-19 -47z" />
    <glyph glyph-name="uni2154" unicode="&#x2154;" horiz-adv-x="834" 
d="M594 722h85l-412 -744h-87zM333 280h-314q0 37 6 65t18 50t31 39t46 34l72 45q29 17 39.5 33.5t10.5 38.5q0 20 -13.5 35t-38.5 15q-35 0 -48.5 -21t-15.5 -55h-100q0 67 42.5 110t122.5 43q74 0 113 -34.5t39 -92.5q0 -45 -24.5 -74.5t-70.5 -57.5l-68 -42
q-20 -12 -32 -26t-14 -25h199v-80zM624 258h26q31 0 47.5 13.5t16.5 35.5t-14.5 35.5t-43.5 13.5q-62 0 -62 -66h-95q3 67 45 104.5t116 37.5q66 0 106 -30t40 -83q0 -29 -16.5 -52.5t-49.5 -35.5q43 -8 63 -36t20 -70q0 -30 -13 -55t-36 -42.5t-54 -27t-67 -9.5
q-82 0 -123 39.5t-41 99.5h96q4 -27 20 -43.5t51 -16.5q34 0 53.5 16.5t19.5 42.5q0 32 -18.5 46t-58.5 14h-28v69z" />
    <glyph glyph-name="uni215C" unicode="&#x215c;" horiz-adv-x="834" 
d="M585 722h85l-412 -744h-87zM157 538h26q31 0 47.5 13.5t16.5 35.5t-14.5 35.5t-43.5 13.5q-62 0 -62 -66h-95q3 67 45 104.5t116 37.5q66 0 106 -30t40 -83q0 -29 -16.5 -52.5t-49.5 -35.5q43 -8 63 -36t20 -70q0 -30 -13 -55t-36 -42.5t-54 -27t-67 -9.5
q-82 0 -123 39.5t-41 99.5h96q4 -27 20 -43.5t51 -16.5q34 0 53.5 16.5t19.5 42.5q0 32 -18.5 46t-58.5 14h-28v69zM498 315q0 52 41.5 84.5t107.5 32.5q76 0 112.5 -32.5t36.5 -80.5q0 -32 -18.5 -56t-51.5 -34q43 -11 65.5 -38t22.5 -68q0 -32 -13.5 -56.5t-36.5 -41.5
t-53 -25.5t-63 -8.5q-37 0 -67.5 8t-53 24.5t-35 41t-12.5 57.5q0 41 24.5 68t63.5 36q-35 11 -52.5 34t-17.5 55zM588 309q0 -23 16.5 -37t42.5 -14q28 0 43 14t15 37q0 25 -15.5 39t-42.5 14q-29 0 -44 -14.5t-15 -38.5zM575 127q0 -32 20.5 -47.5t52.5 -15.5q70 0 70 63
q0 29 -19.5 46.5t-51.5 17.5q-34 0 -53 -17t-19 -47z" />
    <glyph glyph-name="uni215D" unicode="&#x215d;" horiz-adv-x="834" 
d="M583 722h85l-412 -744h-87zM335 626h-181l-16 -86q14 14 35 20.5t47 6.5q64 0 99.5 -39t35.5 -100q0 -36 -12 -65t-34 -49.5t-53 -31.5t-68 -11q-67 0 -110 33.5t-46 91.5h94q5 -21 21.5 -33.5t43.5 -12.5q29 0 49 19t20 57q0 34 -16 53.5t-50 19.5q-20 0 -35.5 -9
t-23.5 -22h-93l37 235h256v-77zM498 315q0 52 41.5 84.5t107.5 32.5q76 0 112.5 -32.5t36.5 -80.5q0 -32 -18.5 -56t-51.5 -34q43 -11 65.5 -38t22.5 -68q0 -32 -13.5 -56.5t-36.5 -41.5t-53 -25.5t-63 -8.5q-37 0 -67.5 8t-53 24.5t-35 41t-12.5 57.5q0 41 24.5 68t63.5 36
q-35 11 -52.5 34t-17.5 55zM588 309q0 -23 16.5 -37t42.5 -14q28 0 43 14t15 37q0 25 -15.5 39t-42.5 14q-29 0 -44 -14.5t-15 -38.5zM575 127q0 -32 20.5 -47.5t52.5 -15.5q70 0 70 63q0 29 -19.5 46.5t-51.5 17.5q-34 0 -53 -17t-19 -47z" />
    <glyph glyph-name="uni215E" unicode="&#x215e;" horiz-adv-x="834" 
d="M534 722h85l-412 -744h-87zM353 626q-34 -30 -58.5 -71.5t-40.5 -88t-24 -95t-9 -91.5h-110q8 104 43.5 185.5t97.5 156.5h-199v81h300v-77zM483 315q0 52 41.5 84.5t107.5 32.5q76 0 112.5 -32.5t36.5 -80.5q0 -32 -18.5 -56t-51.5 -34q43 -11 65.5 -38t22.5 -68
q0 -32 -13.5 -56.5t-36.5 -41.5t-53 -25.5t-63 -8.5q-37 0 -67.5 8t-53 24.5t-35 41t-12.5 57.5q0 41 24.5 68t63.5 36q-35 11 -52.5 34t-17.5 55zM573 309q0 -23 16.5 -37t42.5 -14q28 0 43 14t15 37q0 25 -15.5 39t-42.5 14q-29 0 -44 -14.5t-15 -38.5zM560 127
q0 -32 20.5 -47.5t52.5 -15.5q70 0 70 63q0 29 -19.5 46.5t-51.5 17.5q-34 0 -53 -17t-19 -47z" />
    <glyph glyph-name="uni0394" unicode="&#x394;" horiz-adv-x="681" 
d="M262 714h161l265 -714h-695zM198 132h282l-138 406h-2z" />
    <glyph glyph-name="uni03BC" unicode="&#x3bc;" horiz-adv-x="593" 
d="M539 0h-135v72h-3q-33 -50 -65.5 -68t-64.5 -18q-26 0 -43.5 6.5t-31.5 17.5v-192h-142v699h142v-292q0 -64 20 -95.5t71 -31.5q58 0 84 34.5t26 113.5v271h142v-517z" />
    <glyph glyph-name="uni2113" unicode="&#x2113;" horiz-adv-x="500" 
d="M456 53q-80 -67 -172 -67q-79 0 -121.5 41.5t-42.5 105.5v41l-55 -48h-2l-49 75l105 86v238q0 42 13.5 78t37.5 62t57 41t72 15q69 0 110 -41t41 -109q0 -77 -47.5 -150.5t-144.5 -155.5v-110q0 -38 19 -53t42 -15q38 0 88 38h2zM337 563q0 28 -11 47t-28 19t-28.5 -21.5
t-11.5 -56.5v-169q42 45 60.5 90.5t18.5 90.5z" />
    <glyph glyph-name="uni212E" unicode="&#x212e;" horiz-adv-x="770" 
d="M193 349v-238q39 -38 86.5 -58t104.5 -20q82 0 143.5 37.5t111.5 121.5l46 -28q-30 -47 -61.5 -80.5t-67.5 -55.5t-78 -32t-94 -10q-78 0 -140.5 28.5t-107 77.5t-68.5 115t-24 142q0 77 24 143.5t68.5 116t107 77.5t140.5 28q76 0 139 -27t108 -75t70 -115t25 -148h-533
zM577 398v191q-84 79 -194 79q-57 0 -104 -20.5t-86 -58.5v-191h384z" />
    <glyph glyph-name="uni014B" unicode="&#x14b;" horiz-adv-x="593" 
d="M289 -61q23 -4 45 -4q26 0 44.5 15t18.5 49v293q0 64 -20 95.5t-71 31.5q-58 0 -84 -34.5t-26 -113.5v-271h-142v517h135v-72h3q27 45 70 65.5t88 20.5q57 0 93.5 -15.5t57.5 -43t29.5 -67t8.5 -87.5v-324q0 -42 -9 -75t-31 -55.5t-59 -34t-93 -11.5q-11 0 -26 1t-32 3
v117z" />
    <glyph glyph-name="uni014A" unicode="&#x14a;" horiz-adv-x="741" 
d="M69 714h156l298 -471h2v471h147v-715q0 -45 -10 -79t-33.5 -56.5t-61.5 -34t-94 -11.5q-33 0 -76 6v121q36 -6 58 -6q30 0 50.5 14.5t21.5 46.5l-309 478h-2v-478h-147v714z" />
    <glyph glyph-name="uniF001" horiz-adv-x="591" 
d="M533 597h-142v117h142v-117zM85 422h-85v95h85v40q0 69 43 113t130 44q19 0 38 -1.5t37 -2.5v-106q-26 3 -52 3q-29 0 -41.5 -13.5t-12.5 -45.5v-31h98v-95h-98v-422h-142v422zM391 517h142v-517h-142v517z" />
    <glyph glyph-name="uniF002" horiz-adv-x="591" 
d="M391 714h142v-714h-142v714zM85 422h-85v95h85v40q0 69 43 113t130 44q19 0 38 -1.5t37 -2.5v-106q-26 3 -52 3q-29 0 -41.5 -13.5t-12.5 -45.5v-31h98v-95h-98v-422h-142v422z" />
    <glyph glyph-name="uni2010" unicode="&#x2010;" horiz-adv-x="407" 
d="M53 334h301v-122h-301v122z" />
    <glyph glyph-name="uni2015" unicode="&#x2015;" horiz-adv-x="1000" 
d="M70 334h860v-122h-860v122z" />
    <glyph glyph-name="uni203D" unicode="&#x203d;" horiz-adv-x="556" 
d="M336 655q96 -11 142 -56.5t46 -113.5q0 -37 -12 -64t-30.5 -48t-40 -38.5t-40.5 -35.5t-32 -38.5t-15 -46.5h-124l-23 308v24q-26 -11 -36 -31.5t-11 -47.5h-127q1 68 42.5 118t131.5 66v63h129v-59zM383 477q0 25 -10.5 43.5t-36.5 28.5v-27l-24 -163l23 21q20 18 34 41
t14 56zM216 154h157v-154h-157v154z" />
    <glyph glyph-name="uni2070" unicode="&#x2070;" horiz-adv-x="390" 
d="M195 388q-36 0 -66.5 11.5t-52.5 37t-34.5 67.5t-12.5 103q0 62 13 104.5t35.5 68.5t52.5 37.5t65 11.5q36 0 66.5 -11t52.5 -36.5t34.5 -67.5t12.5 -103q0 -62 -13 -105t-35.5 -69t-52.5 -37.5t-65 -11.5zM195 752q-17 0 -29 -7t-20.5 -23.5t-12.5 -44.5t-4 -70
q0 -41 4 -68t12 -43.5t20.5 -23.5t29.5 -7q16 0 28.5 7t21 23.5t12.5 45t4 70.5q0 41 -4 68t-12 43.5t-20.5 23t-29.5 6.5z" />
    <glyph glyph-name="uni2074" unicode="&#x2074;" horiz-adv-x="390" 
d="M211 480h-188v84l193 256h91v-264h57v-76h-57v-83h-96v83zM211 710l-113 -154h113v154z" />
    <glyph glyph-name="uni2075" unicode="&#x2075;" horiz-adv-x="390" 
d="M335 743h-181l-16 -86q14 14 35 20.5t47 6.5q64 0 99.5 -39t35.5 -100q0 -36 -12 -65t-34 -49.5t-53 -31.5t-68 -11q-67 0 -110 33.5t-46 91.5h94q5 -21 21.5 -33.5t43.5 -12.5q29 0 49 19t20 57q0 34 -16 53.5t-50 19.5q-20 0 -35.5 -9t-23.5 -22h-93l37 235h256v-77z
" />
    <glyph glyph-name="uni2076" unicode="&#x2076;" horiz-adv-x="390" 
d="M254 722q-9 34 -49 34q-41 0 -58.5 -34t-18.5 -83q19 22 43.5 31.5t56.5 9.5q57 0 94 -36.5t37 -102.5q0 -34 -11.5 -62t-32.5 -48.5t-49.5 -31.5t-62.5 -11q-90 0 -130.5 56.5t-40.5 152.5q0 49 10 91.5t31 74t54 49t80 17.5q60 0 97 -25.5t45 -81.5h-95zM199 611
q-35 0 -52 -20.5t-17 -54.5q0 -32 18 -52t50 -20q29 0 48 17.5t19 53.5q0 32 -15.5 54t-50.5 22z" />
    <glyph glyph-name="uni2077" unicode="&#x2077;" horiz-adv-x="390" 
d="M344 743q-34 -30 -58.5 -71.5t-40.5 -88t-24 -95t-9 -91.5h-110q8 104 43.5 185.5t97.5 156.5h-199v81h300v-77z" />
    <glyph glyph-name="uni2078" unicode="&#x2078;" horiz-adv-x="390" 
d="M46 712q0 52 41.5 84.5t107.5 32.5q76 0 112.5 -32.5t36.5 -80.5q0 -32 -18.5 -56t-51.5 -34q43 -11 65.5 -38t22.5 -68q0 -32 -13.5 -56.5t-36.5 -41.5t-53 -25.5t-63 -8.5q-37 0 -67.5 8t-53 24.5t-35 41t-12.5 57.5q0 41 24.5 68t63.5 36q-35 11 -52.5 34t-17.5 55z
M136 706q0 -23 16.5 -37t42.5 -14q28 0 43 14t15 37q0 25 -15.5 39t-42.5 14q-29 0 -44 -14.5t-15 -38.5zM123 524q0 -32 20.5 -47.5t52.5 -15.5q70 0 70 63q0 29 -19.5 46.5t-51.5 17.5q-34 0 -53 -17t-19 -47z" />
    <glyph glyph-name="uni2079" unicode="&#x2079;" horiz-adv-x="390" 
d="M136 495q9 -34 51 -34t58.5 32.5t16.5 85.5q-35 -39 -98 -39q-57 0 -95 35.5t-38 101.5q0 34 11.5 62t32.5 48t49.5 31t62.5 11q90 0 130.5 -56.5t40.5 -152.5q0 -51 -9.5 -94t-30.5 -73.5t-54 -47.5t-79 -17q-60 0 -98 25.5t-46 81.5h95zM191 608q35 0 52 21t17 53
t-18 52t-50 20q-29 0 -48 -18t-19 -53q0 -31 15.5 -53t50.5 -22z" />
    <glyph glyph-name="uni207A" unicode="&#x207a;" horiz-adv-x="400" 
d="M243 592h116v-77h-116v-118h-86v118h-116v77h116v117h86v-117z" />
    <glyph glyph-name="uni207B" unicode="&#x207b;" horiz-adv-x="270" 
d="M39 604h192v-84h-192v84z" />
    <glyph glyph-name="uni207C" unicode="&#x207c;" horiz-adv-x="400" 
d="M359 580h-318v77h318v-77zM359 447h-318v77h318v-77z" />
    <glyph glyph-name="uni207D" unicode="&#x207d;" horiz-adv-x="225" 
d="M205 876q-35 -65 -49.5 -135t-14.5 -142q0 -150 64 -281h-83q-44 63 -64.5 132.5t-20.5 142.5q0 34 5 71.5t15.5 74t26.5 72t38 65.5h83z" />
    <glyph glyph-name="uni207E" unicode="&#x207e;" horiz-adv-x="225" 
d="M20 318q35 65 49.5 135t14.5 142q0 150 -64 281h83q44 -63 64.5 -132.5t20.5 -142.5q0 -35 -5 -72t-15.5 -73.5t-26.5 -72t-38 -65.5h-83z" />
    <glyph glyph-name="uni207F" unicode="&#x207f;" horiz-adv-x="390" 
d="M40 716h97v-47q19 31 46 43.5t59 12.5q56 0 82 -33.5t26 -93.5v-201h-102v181q0 32 -10.5 50.5t-36.5 18.5q-27 0 -43 -20t-16 -56v-174h-102v319z" />
    <glyph glyph-name="uni2080" unicode="&#x2080;" horiz-adv-x="390" 
d="M195 -178q-36 0 -66.5 11.5t-52.5 37t-34.5 67.5t-12.5 103q0 62 13 104.5t35.5 68.5t52.5 37.5t65 11.5q36 0 66.5 -11t52.5 -36.5t34.5 -67.5t12.5 -103q0 -62 -13 -105t-35.5 -69t-52.5 -37.5t-65 -11.5zM195 186q-17 0 -29 -7t-20.5 -23.5t-12.5 -44.5t-4 -70
q0 -41 4 -68t12 -43.5t20.5 -23.5t29.5 -7q16 0 28.5 7t21 23.5t12.5 45t4 70.5q0 41 -4 68t-12 43.5t-20.5 23t-29.5 6.5z" />
    <glyph glyph-name="uni2081" unicode="&#x2081;" horiz-adv-x="390" 
d="M269 -169h-102v268h-110v72h22q45 0 72.5 19t33.5 64h84v-423z" />
    <glyph glyph-name="uni2082" unicode="&#x2082;" horiz-adv-x="390" 
d="M354 -169h-321q0 37 6 65t18 50t31 39t46 34l72 45q29 17 39.5 33.5t10.5 38.5q0 20 -13.5 35t-38.5 15q-35 0 -48.5 -21t-15.5 -55h-100q0 67 42.5 110t122.5 43q74 0 113 -34.5t39 -92.5q0 -45 -24.5 -74.5t-70.5 -57.5l-68 -42q-20 -12 -32 -26t-14 -25h206v-80z" />
    <glyph glyph-name="uni2083" unicode="&#x2083;" horiz-adv-x="390" 
d="M162 89h26q31 0 47.5 13.5t16.5 35.5t-14.5 35.5t-43.5 13.5q-62 0 -62 -66h-95q3 67 45 104.5t116 37.5q66 0 106 -30t40 -83q0 -29 -16.5 -52.5t-49.5 -35.5q43 -8 63 -36t20 -70q0 -30 -13 -55t-36 -42.5t-54 -27t-67 -9.5q-82 0 -123 39.5t-41 99.5h96
q4 -27 20 -43.5t51 -16.5q34 0 53.5 16.5t19.5 42.5q0 32 -18.5 46t-58.5 14h-28v69z" />
    <glyph glyph-name="uni2084" unicode="&#x2084;" horiz-adv-x="390" 
d="M211 -86h-188v84l193 256h91v-264h57v-76h-57v-83h-96v83zM211 144l-113 -154h113v154z" />
    <glyph glyph-name="uni2085" unicode="&#x2085;" horiz-adv-x="390" 
d="M335 177h-181l-16 -86q14 14 35 20.5t47 6.5q64 0 99.5 -39t35.5 -100q0 -36 -12 -65t-34 -49.5t-53 -31.5t-68 -11q-67 0 -110 33.5t-46 91.5h94q5 -21 21.5 -33.5t43.5 -12.5q29 0 49 19t20 57q0 34 -16 53.5t-50 19.5q-20 0 -35.5 -9t-23.5 -22h-93l37 235h256v-77z
" />
    <glyph glyph-name="uni2086" unicode="&#x2086;" horiz-adv-x="390" 
d="M254 156q-9 34 -49 34q-41 0 -58.5 -34t-18.5 -83q19 22 43.5 31.5t56.5 9.5q57 0 94 -36.5t37 -102.5q0 -34 -11.5 -62t-32.5 -48.5t-49.5 -31.5t-62.5 -11q-90 0 -130.5 56.5t-40.5 152.5q0 49 10 91.5t31 74t54 49t80 17.5q60 0 97 -25.5t45 -81.5h-95zM199 45
q-35 0 -52 -20.5t-17 -54.5q0 -32 18 -52t50 -20q29 0 48 17.5t19 53.5q0 32 -15.5 54t-50.5 22z" />
    <glyph glyph-name="uni2087" unicode="&#x2087;" horiz-adv-x="390" 
d="M344 177q-34 -30 -58.5 -71.5t-40.5 -88t-24 -95t-9 -91.5h-110q8 104 43.5 185.5t97.5 156.5h-199v81h300v-77z" />
    <glyph glyph-name="uni2088" unicode="&#x2088;" horiz-adv-x="390" 
d="M46 146q0 52 41.5 84.5t107.5 32.5q76 0 112.5 -32.5t36.5 -80.5q0 -32 -18.5 -56t-51.5 -34q43 -11 65.5 -38t22.5 -68q0 -32 -13.5 -56.5t-36.5 -41.5t-53 -25.5t-63 -8.5q-37 0 -67.5 8t-53 24.5t-35 41t-12.5 57.5q0 41 24.5 68t63.5 36q-35 11 -52.5 34t-17.5 55z
M136 140q0 -23 16.5 -37t42.5 -14q28 0 43 14t15 37q0 25 -15.5 39t-42.5 14q-29 0 -44 -14.5t-15 -38.5zM123 -42q0 -32 20.5 -47.5t52.5 -15.5q70 0 70 63q0 29 -19.5 46.5t-51.5 17.5q-34 0 -53 -17t-19 -47z" />
    <glyph glyph-name="uni2089" unicode="&#x2089;" horiz-adv-x="390" 
d="M136 -71q9 -34 51 -34t58.5 32.5t16.5 85.5q-35 -39 -98 -39q-57 0 -95 35.5t-38 101.5q0 34 11.5 62t32.5 48t49.5 31t62.5 11q90 0 130.5 -56.5t40.5 -152.5q0 -51 -9.5 -94t-30.5 -73.5t-54 -47.5t-79 -17q-60 0 -98 25.5t-46 81.5h95zM191 42q35 0 52 21t17 53
t-18 52t-50 20q-29 0 -48 -18t-19 -53q0 -31 15.5 -53t50.5 -22z" />
    <glyph glyph-name="uni208A" unicode="&#x208a;" horiz-adv-x="400" 
d="M243 26h116v-77h-116v-118h-86v118h-116v77h116v117h86v-117z" />
    <glyph glyph-name="uni208B" unicode="&#x208b;" horiz-adv-x="270" 
d="M39 38h192v-84h-192v84z" />
    <glyph glyph-name="uni208C" unicode="&#x208c;" horiz-adv-x="400" 
d="M359 14h-318v77h318v-77zM359 -119h-318v77h318v-77z" />
    <glyph glyph-name="uni208D" unicode="&#x208d;" horiz-adv-x="225" 
d="M205 310q-35 -65 -49.5 -135t-14.5 -142q0 -150 64 -281h-83q-44 63 -64.5 132.5t-20.5 142.5q0 34 5 71.5t15.5 74t26.5 72t38 65.5h83z" />
    <glyph glyph-name="uni208E" unicode="&#x208e;" horiz-adv-x="225" 
d="M20 -248q35 65 49.5 135t14.5 142q0 150 -64 281h83q44 -63 64.5 -132.5t20.5 -142.5q0 -35 -5 -72t-15.5 -73.5t-26.5 -72t-38 -65.5h-83z" />
    <glyph glyph-name="uni2105" unicode="&#x2105;" horiz-adv-x="834" 
d="M581 722h85l-412 -744h-87zM255 576q-5 36 -19 48t-33 12q-34 0 -47.5 -33.5t-13.5 -111.5q0 -77 16 -108.5t45 -31.5q22 0 37 16.5t18 53.5h98q-8 -69 -46.5 -108.5t-105.5 -39.5q-80 0 -122.5 52.5t-42.5 164.5q0 117 44 170.5t124 53.5q66 0 105 -34t43 -104h-100z
M638 -14q-36 0 -66.5 11.5t-52.5 37t-34.5 67.5t-12.5 103q0 62 13 104.5t35.5 68.5t52.5 37.5t65 11.5q36 0 66.5 -11t52.5 -36.5t34.5 -67.5t12.5 -103q0 -62 -13 -105t-35.5 -69t-52.5 -37.5t-65 -11.5zM638 350q-17 0 -29 -7t-20.5 -23.5t-12.5 -44.5t-4 -70
q0 -41 4 -68t12 -43.5t20.5 -23.5t29.5 -7q16 0 28.5 7t21 23.5t12.5 45t4 70.5q0 41 -4 68t-12 43.5t-20.5 23t-29.5 6.5z" />
    <glyph glyph-name="uni2117" unicode="&#x2117;" horiz-adv-x="800" 
d="M16 358q0 85 31.5 154t84.5 117.5t122.5 75t145.5 26.5t145.5 -26.5t122.5 -75t84.5 -117.5t31.5 -154q0 -86 -31.5 -155t-84.5 -118t-122.5 -75.5t-145.5 -26.5t-145.5 26.5t-122.5 75.5t-84.5 118t-31.5 155zM118 358q0 -64 22 -118t60 -93.5t89.5 -61.5t110.5 -22
q58 0 109.5 22t89.5 61.5t60.5 93.5t22.5 118t-22.5 117.5t-60.5 92.5t-89.5 61t-109.5 22q-59 0 -110.5 -22t-89.5 -61t-60 -92.5t-22 -117.5zM260 568h162q160 0 160 -130q0 -62 -39.5 -96t-105.5 -34h-92v-159h-85v419zM345 373h82q34 0 53 17t19 48q0 30 -19 47.5
t-54 17.5h-81v-130z" />
    <glyph glyph-name="uni0374" unicode="&#x374;" horiz-adv-x="278" 
d="M155 561h-102l43 171h153z" />
    <glyph glyph-name="uni0375" unicode="&#x375;" horiz-adv-x="278" 
d="M115 -32h102l-38 -171h-153z" />
    <glyph glyph-name="uni037E" unicode="&#x37e;" horiz-adv-x="278" 
d="M218 354h-157v154h157v-154zM61 154h157v-154q0 -35 -12.5 -63t-33.5 -49.5t-49.5 -35t-60.5 -18.5v72q31 6 52 33t19 61h-72v154z" />
    <glyph glyph-name="uni0384" unicode="&#x384;" horiz-adv-x="241" 
d="M93 731h162l-74 -142h-118z" />
    <glyph glyph-name="uniE01B" horiz-adv-x="241" 
d="M93 714h162l-74 -142h-118z" />
    <glyph glyph-name="uni0385" unicode="&#x385;" horiz-adv-x="512" 
d="M201 731h152l-67 -142h-111zM359 715h125v-117h-125v117zM28 715h125v-117h-125v117z" />
    <glyph glyph-name="uni0386" unicode="&#x386;" horiz-adv-x="722" 
d="M301 714h161l267 -714h-163l-54 159h-267l-56 -159h-159zM471 276l-90 262h-2l-93 -262h185zM44 714h162l-74 -142h-118z" />
    <glyph glyph-name="uni0387" unicode="&#x387;" horiz-adv-x="278" 
d="M218 354h-157v154h157v-154z" />
    <glyph glyph-name="uni0388" unicode="&#x388;" horiz-adv-x="844" 
d="M44 714h162l-74 -142h-118zM265 714h534v-132h-377v-153h346v-122h-346v-175h385v-132h-542v714z" />
    <glyph glyph-name="uni0389" unicode="&#x389;" horiz-adv-x="937" 
d="M44 714h162l-74 -142h-118zM265 714h157v-274h289v274h157v-714h-157v308h-289v-308h-157v714z" />
    <glyph glyph-name="uni038A" unicode="&#x38a;" horiz-adv-x="491" 
d="M44 714h162l-74 -142h-118zM265 714h157v-714h-157v714z" />
    <glyph glyph-name="uni038C" unicode="&#x38c;" horiz-adv-x="928" 
d="M188 354q0 79 24 148t69 120t110 80t148 29q82 0 147.5 -29t110.5 -80t69 -120t24 -148q0 -77 -24 -145t-69 -118t-110.5 -79t-147.5 -29q-83 0 -148 29t-110 79t-69 118t-24 145zM345 354q0 -45 10.5 -87.5t33.5 -76.5t60 -54.5t90 -20.5t90 20.5t60 54.5t33.5 76.5
t10.5 87.5q0 47 -10.5 91t-33.5 78.5t-60 55t-90 20.5t-90 -20.5t-60 -55t-33.5 -78.5t-10.5 -91zM44 714h162l-74 -142h-118z" />
    <glyph glyph-name="uni038E" unicode="&#x38e;" horiz-adv-x="924" 
d="M511 278l-263 436h177l167 -282l166 282h175l-265 -440v-274h-157v278zM44 714h162l-74 -142h-118z" />
    </font>
</defs>
</svg>
