<?xml version="1.0" standalone="no"?>
<!DOCTYPE svg PUBLIC "-//W3C//DTD SVG 1.1//EN" "http://www.w3.org/Graphics/SVG/1.1/DTD/svg11.dtd" >
<svg xmlns="http://www.w3.org/2000/svg" xmlns:xlink="http://www.w3.org/1999/xlink" version="1.1">
<metadata>
Created by FontForge 20201107 at Thu Jan 16 15:03:07 2014
 By Jimmy Wärting
Stabilized, developed and produced by Malou Verlomme &#38; Yoan De Roeck
</metadata>
<defs>
<font id="BritoTri-Du" horiz-adv-x="687" >
  <font-face 
    font-family="Brito Tri"
    font-weight="700"
    font-stretch="normal"
    units-per-em="1000"
    panose-1="2 0 9 0 0 0 0 0 0 0"
    ascent="800"
    descent="-200"
    x-height="510"
    cap-height="685"
    bbox="-61 -294 1381 956"
    underline-thickness="120"
    underline-position="-100"
    stemh="128"
    stemv="146"
    unicode-range="U+0020-FB04"
  />
<missing-glyph horiz-adv-x="0" 
 />
    <glyph glyph-name="fi" unicode="fi" horiz-adv-x="666" 
d="M356 726v-117c-18 3 -36 3 -51 3c-34 0 -70 -16 -84 -30v-72h120v-113h-120v-397h-146v397h-56l56 99v128c42 61 121 106 212 106c22 0 45 0 69 -4zM591 510v-510h-146v430l-45 80h191zM418 647c0 47 38 85 86 85c51 0 90 -38 90 -85c0 -45 -39 -83 -90 -83
c-48 0 -86 38 -86 83z" />
    <glyph glyph-name="f_f_i" unicode="ffi" horiz-adv-x="1029" 
d="M949 510v-510h-146v430l-45 80h191zM781 647c0 47 38 85 86 85c51 0 90 -38 90 -85c0 -45 -39 -83 -90 -83c-48 0 -86 38 -86 83zM356 717v-117c-18 3 -36 3 -51 3c-34 0 -70 -16 -84 -30v-63h120v-113h-120v-397h-146v397h-56l56 99v119c42 61 121 106 212 106
c22 0 45 0 69 -4zM714 726v-117c-18 3 -36 3 -51 3c-34 0 -70 -16 -84 -30v-72h120v-113h-120v-397h-146v624c42 61 121 106 212 106c22 0 45 0 69 -4z" />
    <glyph glyph-name="fl" unicode="fl" horiz-adv-x="663" 
d="M356 726v-117c-18 3 -36 3 -51 3c-34 0 -70 -16 -84 -30v-72h120v-113h-120v-397h-146v397h-56l56 99v128c42 61 121 106 212 106c22 0 45 0 69 -4zM588 -9c-124 0 -158 64 -158 158v570h146v-566c0 -28 12 -41 45 -41c8 0 17 1 27 2v-117c-12 -2 -43 -6 -60 -6z" />
    <glyph glyph-name="f_f_l" unicode="ffl" horiz-adv-x="1021" 
d="M356 717v-117c-18 3 -36 3 -51 3c-34 0 -70 -16 -84 -30v-63h120v-113h-120v-397h-146v397h-56l56 99v119c42 61 121 106 212 106c22 0 45 0 69 -4zM714 726v-117c-18 3 -36 3 -51 3c-34 0 -70 -16 -84 -30v-72h120v-113h-120v-397h-146v624c42 61 121 106 212 106
c22 0 45 0 69 -4zM946 -9c-124 0 -158 64 -158 158v570h146v-566c0 -28 12 -41 45 -41c8 0 17 1 27 2v-117c-12 -2 -43 -6 -60 -6z" />
    <glyph glyph-name="ff" unicode="ff" horiz-adv-x="721" 
d="M356 717v-117c-18 3 -36 3 -51 3c-34 0 -70 -16 -84 -30v-63h120v-113h-120v-397h-146v397h-56l56 99v119c42 61 121 106 212 106c22 0 45 0 69 -4zM714 726v-117c-18 3 -36 3 -51 3c-34 0 -70 -16 -84 -30v-72h120v-113h-120v-397h-146v624c42 61 121 106 212 106
c22 0 45 0 69 -4z" />
    <glyph glyph-name=".notdef" horiz-adv-x="0" 
 />
    <glyph glyph-name="A" unicode="A" 
d="M335 116c-41 0 -81 6 -122 18l-51 -134h-152l238 606l-33 79h164l298 -685h-165l-57 135c-41 -13 -80 -19 -120 -19zM335 242c23 0 47 3 74 11l-81 187l-73 -186c29 -8 55 -12 80 -12z" />
    <glyph glyph-name="B" unicode="B" horiz-adv-x="606" 
d="M76 0v606l-45 79h249c157 0 236 -77 236 -177c0 -54 -32 -103 -71 -135c62 -30 111 -86 111 -168c0 -142 -85 -205 -266 -205h-214zM288 288h-59v-166h61c65 0 114 24 114 84c0 56 -40 82 -116 82zM282 565h-53v-160l82 1c32 25 50 55 50 92s-25 67 -79 67z" />
    <glyph glyph-name="C" unicode="C" horiz-adv-x="574" 
d="M517 512l-80 54c-11 1 -24 1 -28 1c-128 0 -208 -98 -208 -218c0 -126 75 -232 196 -232c48 0 73 3 132 24v-127c-45 -17 -99 -25 -138 -25c-213 0 -349 155 -345 353c0 195 151 354 358 354c33 0 71 -6 113 -19v-165z" />
    <glyph glyph-name="D" unicode="D" horiz-adv-x="653" 
d="M75 0v607l-44 78h233c230 0 339 -129 339 -321c0 -142 -76 -273 -180 -364h-348zM264 561h-36v-437h122c58 57 97 144 97 240c0 118 -64 197 -183 197z" />
    <glyph glyph-name="E" unicode="E" horiz-adv-x="551" 
d="M496 128v-128h-420v606l-45 79h456v-127h-258v-146h214v-128h-214v-156h267z" />
    <glyph glyph-name="F" unicode="F" horiz-adv-x="521" 
d="M439 393v-127h-210v-266h-153v605l-45 80h458v-128h-260v-164h210z" />
    <glyph glyph-name="G" unicode="G" horiz-adv-x="635" 
d="M396 133h29v134h-116v129h261v-396h-174c-225 0 -361 149 -356 342c0 195 160 354 371 354c34 0 72 -3 114 -16v-168l-80 54c-12 1 -23 1 -28 1c-147 0 -222 -98 -222 -218c0 -121 69 -216 201 -216z" />
    <glyph glyph-name="H" unicode="H" horiz-adv-x="667" 
d="M228 685v-277h211v277h153v-685h-153v280h-211v-280h-153v607l-44 78h197z" />
    <glyph glyph-name="I" unicode="I" horiz-adv-x="314" 
d="M234 685v-685h-153v605l-45 80h198z" />
    <glyph glyph-name="J" unicode="J" horiz-adv-x="359" 
d="M10 7l1 131c22 -12 49 -19 71 -19c31 0 54 14 54 58v426l-44 82h197v-514c0 -121 -58 -182 -187 -182c-30 0 -62 7 -92 18z" />
    <glyph glyph-name="K" unicode="K" horiz-adv-x="631" 
d="M229 685v-257l203 257h184l-245 -291c121 -86 194 -224 207 -394h-160c-15 120 -56 217 -139 285l-50 -60v-225h-154v607l-44 78h198z" />
    <glyph glyph-name="L" unicode="L" horiz-adv-x="493" 
d="M229 685v-557h244v-128h-398v607l-44 78h198z" />
    <glyph glyph-name="M" unicode="M" horiz-adv-x="771" 
d="M386 136l-164 258v-394h-146v603l-45 82h176l182 -305l175 305h132v-685h-150v395z" />
    <glyph glyph-name="N" unicode="N" horiz-adv-x="706" 
d="M631 34l-125 -52l-284 423v-405h-146v605l-45 80h173l280 -417v417h147v-651z" />
    <glyph glyph-name="O" unicode="O" horiz-adv-x="780" 
d="M389 117c108 0 190 99 190 219c0 122 -81 231 -192 231c-105 0 -186 -98 -186 -218c0 -122 81 -232 188 -232zM389 -11c-196 0 -347 159 -343 353c0 195 154 354 343 354c192 0 346 -159 346 -354c0 -194 -157 -353 -346 -353z" />
    <glyph glyph-name="P" unicode="P" horiz-adv-x="590" 
d="M75 607l-44 78h237c197 0 277 -102 277 -235c0 -182 -134 -242 -274 -242c-14 0 -28 0 -42 1v-209h-154v607zM267 563h-38v-227c16 -2 30 -2 40 -2c84 0 121 36 121 115c0 91 -61 114 -123 114z" />
    <glyph glyph-name="Q" unicode="Q" horiz-adv-x="780" 
d="M389 -11c-196 0 -347 159 -343 353c0 195 154 354 343 354c192 0 346 -159 346 -354c0 -95 -38 -182 -99 -246l21 -26l99 -34l-152 -119l-79 101c-42 -18 -88 -29 -136 -29zM389 117c18 0 35 3 52 8l-80 102l108 87l78 -101c20 35 32 77 32 123c0 122 -81 231 -192 231
c-105 0 -186 -98 -186 -218c0 -122 81 -232 188 -232z" />
    <glyph glyph-name="R" unicode="R" horiz-adv-x="617" 
d="M75 607l-44 78h237c197 0 277 -95 277 -216c0 -72 -36 -133 -92 -175l154 -294h-170l-118 242h-91v-242h-153v607zM267 563h-39v-197h92c37 14 70 53 70 102c0 76 -61 95 -123 95z" />
    <glyph glyph-name="S" unicode="S" horiz-adv-x="551" 
d="M25 81l83 104c55 -44 112 -63 155 -63c35 0 69 18 85 47l-309 306c18 120 119 221 269 221c81 0 138 -18 208 -71l-67 -155l-38 74c-25 17 -52 26 -88 26c-57 0 -97 -23 -113 -55l316 -312c-21 -104 -104 -214 -265 -214c-94 0 -174 35 -236 92z" />
    <glyph glyph-name="T" unicode="T" horiz-adv-x="560" 
d="M99 557l-79 -47v175h500v-128h-177v-409c16 -17 44 -30 81 -30c31 0 57 7 92 21v-126c-31 -14 -73 -24 -110 -24c-115 0 -177 45 -216 96v472h-91z" />
    <glyph glyph-name="U" unicode="U" horiz-adv-x="650" 
d="M386 0c-241 0 -323 102 -323 343c0 40 2 85 6 134l12 131l-42 77h201l-18 -212c-4 -43 -6 -83 -6 -130c0 -156 49 -215 170 -215h36v557h153v-685h-189z" />
    <glyph glyph-name="V" unicode="V" horiz-adv-x="640" 
d="M630 685l-227 -685h-141l-252 685h164l160 -460l116 388l-29 72h209z" />
    <glyph glyph-name="W" unicode="W" horiz-adv-x="918" 
d="M908 685l-212 -685h-134l-81 267l-86 -267h-130l-255 685h159l169 -472l80 261l-64 211h147l129 -453l104 375l-29 78h203z" />
    <glyph glyph-name="X" unicode="X" horiz-adv-x="667" 
d="M23 685h181l136 -217l99 157l-26 60h234l-223 -333l233 -352h-180l-146 231l-152 -231h-169l239 347z" />
    <glyph glyph-name="Y" unicode="Y" horiz-adv-x="639" 
d="M629 685l-222 -419v-266h-153v261l-244 424h170l151 -284l111 224l-24 60h211z" />
    <glyph glyph-name="Z" unicode="Z" horiz-adv-x="550" 
d="M35 0v113l291 444h-209l-78 -47v175h472v-111l-294 -446h298v-128h-480z" />
    <glyph glyph-name="AE" unicode="&#xc6;" horiz-adv-x="835" 
d="M800 0h-373l2 5v126h-180l-76 -131h-166l370 613l-30 72h443v-128h-211v-140h187v-174l-79 47h-108v-162h221v-128zM322 256h107v184z" />
    <glyph glyph-name="OE" unicode="&#x152;" horiz-adv-x="961" 
d="M906 128v-128h-390v34c-42 -29 -88 -45 -136 -45c-191 0 -337 159 -334 353c0 195 151 354 334 354c48 0 94 -15 136 -41v30h381v-127h-228v-146h184v-128h-184v-156h237zM380 117c49 0 94 10 136 48v350c-41 39 -85 52 -134 52c-100 0 -181 -98 -181 -218
c0 -122 76 -232 179 -232z" />
    <glyph glyph-name="Lslash" unicode="&#x141;" horiz-adv-x="503" 
d="M239 704v-281l169 55v-128l-169 -56v-147h244v-128h-398v224l-68 -22v129l68 22v254l-44 78h198z" />
    <glyph glyph-name="Oslash" unicode="&#xd8;" horiz-adv-x="780" 
d="M389 8c-60 0 -115 14 -163 40l-52 -67l-105 73l58 74c-53 62 -83 144 -81 233c0 195 154 354 343 354c58 0 113 -15 161 -41l54 69l106 -72l-60 -78c53 -62 85 -143 85 -232c0 -194 -157 -353 -346 -353zM389 136c108 0 190 99 190 219c0 41 -9 80 -26 114l-242 -312
c23 -14 50 -21 78 -21zM201 368c0 -40 9 -79 24 -113l241 310c-24 13 -50 21 -79 21c-105 0 -186 -98 -186 -218z" />
    <glyph glyph-name="Aacute" unicode="&#xc1;" 
d="M335 116c-41 0 -81 6 -122 18l-51 -134h-152l238 606l-33 79h164l298 -685h-165l-57 135c-41 -13 -80 -19 -120 -19zM335 242c23 0 47 3 74 11l-81 187l-73 -186c29 -8 55 -12 80 -12zM221 726l102 181h157l-132 -181h-127z" />
    <glyph glyph-name="Acircumflex" unicode="&#xc2;" 
d="M120 731l114 182h128l114 -182h-129l-49 65l-48 -65h-130zM335 116c-41 0 -81 6 -122 18l-51 -134h-152l238 606l-33 79h164l298 -685h-165l-57 135c-41 -13 -80 -19 -120 -19zM335 242c23 0 47 3 74 11l-81 187l-73 -186c29 -8 55 -12 80 -12z" />
    <glyph glyph-name="Adieresis" unicode="&#xc4;" 
d="M131 808c0 40 32 73 72 73s73 -33 73 -73s-33 -72 -73 -72s-72 32 -72 72zM324 808c0 40 32 73 72 73s73 -33 73 -73s-33 -72 -73 -72s-72 32 -72 72zM335 116c-41 0 -81 6 -122 18l-51 -134h-152l238 606l-33 79h164l298 -685h-165l-57 135c-41 -13 -80 -19 -120 -19z
M335 242c23 0 47 3 74 11l-81 187l-73 -186c29 -8 55 -12 80 -12z" />
    <glyph glyph-name="Agrave" unicode="&#xc0;" 
d="M335 116c-41 0 -81 6 -122 18l-51 -134h-152l238 606l-33 79h164l298 -685h-165l-57 135c-41 -13 -80 -19 -120 -19zM335 242c23 0 47 3 74 11l-81 187l-73 -186c29 -8 55 -12 80 -12zM311 907l102 -181h-127l-132 181h157z" />
    <glyph glyph-name="Amacron" unicode="&#x100;" 
d="M335 116c-41 0 -81 6 -122 18l-51 -134h-152l238 606l-33 79h164l298 -685h-165l-57 135c-41 -13 -80 -19 -120 -19zM335 242c23 0 47 3 74 11l-81 187l-73 -186c29 -8 55 -12 80 -12zM149 739v116h299v-116h-299z" />
    <glyph glyph-name="Aogonek" unicode="&#x104;" 
d="M335 116c-41 0 -81 6 -122 18l-51 -134h-152l238 606l-33 79h164l298 -685h-60c-65 -39 -83 -76 -90 -109c6 -4 23 -8 33 -8c16 0 29 0 55 10v-101c-23 -10 -52 -16 -76 -16c-92 0 -127 47 -144 88c5 45 26 109 102 170l-42 101c-41 -13 -80 -19 -120 -19zM335 242
c23 0 47 3 74 11l-81 187l-73 -186c29 -8 55 -12 80 -12z" />
    <glyph glyph-name="Aring" unicode="&#xc5;" 
d="M335 116c-41 0 -81 6 -122 18l-51 -134h-152l238 606l-33 79h164l298 -685h-165l-57 135c-41 -13 -80 -19 -120 -19zM335 242c23 0 47 3 74 11l-81 187l-73 -186c29 -8 55 -12 80 -12zM297 716c-79 0 -131 52 -131 120c0 67 54 120 134 120c79 0 132 -53 132 -120
c0 -68 -55 -120 -135 -120zM297 800c22 0 33 15 33 36s-10 36 -32 36c-21 0 -32 -15 -32 -36s9 -36 31 -36z" />
    <glyph glyph-name="Atilde" unicode="&#xc3;" 
d="M335 116c-41 0 -81 6 -122 18l-51 -134h-152l238 606l-33 79h164l298 -685h-165l-57 135c-41 -13 -80 -19 -120 -19zM335 242c23 0 47 3 74 11l-81 187l-73 -186c29 -8 55 -12 80 -12zM350 729l-103 63c-10 -8 -25 -26 -31 -62h-99c7 126 84 179 150 184l103 -63
c10 8 25 26 31 62h99c-7 -126 -84 -179 -150 -184z" />
    <glyph glyph-name="Bdotaccent" unicode="&#x1e02;" horiz-adv-x="614" 
d="M76 0v606l-45 79h249c157 0 236 -77 236 -177c0 -54 -32 -103 -71 -135c62 -30 111 -86 111 -168c0 -142 -85 -205 -266 -205h-214zM288 288h-59v-166h61c65 0 114 24 114 84c0 56 -40 82 -116 82zM282 565h-53v-160l82 1c32 25 50 55 50 92s-25 67 -79 67zM184 804
c0 40 32 73 72 73s73 -33 73 -73s-33 -72 -73 -72s-72 32 -72 72z" />
    <glyph glyph-name="Ccedilla" unicode="&#xc7;" horiz-adv-x="574" 
d="M247 -294v89c72 19 95 41 95 62c0 15 -12 24 -37 24h-50l13 127c-141 48 -225 177 -222 334c0 195 151 354 358 354c33 0 71 -6 113 -19v-165l-80 54c-11 1 -24 1 -28 1c-128 0 -208 -98 -208 -218c0 -126 75 -232 196 -232c48 0 73 3 132 24v-127
c-45 -17 -99 -25 -138 -25c-6 0 -11 1 -16 1v-31c80 -7 102 -48 102 -88c0 -67 -68 -126 -230 -165z" />
    <glyph glyph-name="Cdotaccent" unicode="&#x10a;" horiz-adv-x="574" 
d="M517 512l-80 54c-11 1 -24 1 -28 1c-128 0 -208 -98 -208 -218c0 -126 75 -232 196 -232c48 0 73 3 132 24v-127c-45 -17 -99 -25 -138 -25c-213 0 -349 155 -345 353c0 195 151 354 358 354c33 0 71 -6 113 -19v-165zM293 809c0 40 32 73 72 73s73 -33 73 -73
s-33 -72 -73 -72s-72 32 -72 72z" />
    <glyph glyph-name="Ddotaccent" unicode="&#x1e0a;" horiz-adv-x="653" 
d="M75 0v607l-44 78h233c230 0 339 -129 339 -321c0 -142 -76 -273 -180 -364h-348zM264 561h-36v-437h122c58 57 97 144 97 240c0 118 -64 197 -183 197zM204 804c0 40 32 73 72 73s73 -33 73 -73s-33 -72 -73 -72s-72 32 -72 72z" />
    <glyph glyph-name="Eacute" unicode="&#xc9;" horiz-adv-x="551" 
d="M162 726l102 181h157l-132 -181h-127zM496 128v-128h-420v606l-45 79h456v-127h-258v-146h214v-128h-214v-156h267z" />
    <glyph glyph-name="Ecircumflex" unicode="&#xca;" horiz-adv-x="551" 
d="M101 731l114 182h128l114 -182h-129l-49 65l-48 -65h-130zM496 128v-128h-420v606l-45 79h456v-127h-258v-146h214v-128h-214v-156h267z" />
    <glyph glyph-name="Edieresis" unicode="&#xcb;" horiz-adv-x="551" 
d="M112 808c0 40 32 73 72 73s73 -33 73 -73s-33 -72 -73 -72s-72 32 -72 72zM305 808c0 40 32 73 72 73s73 -33 73 -73s-33 -72 -73 -72s-72 32 -72 72zM496 128v-128h-420v606l-45 79h456v-127h-258v-146h214v-128h-214v-156h267z" />
    <glyph glyph-name="Egrave" unicode="&#xc8;" horiz-adv-x="551" 
d="M496 128v-128h-420v606l-45 79h456v-127h-258v-146h214v-128h-214v-156h267zM272 907l102 -181h-127l-132 181h157z" />
    <glyph glyph-name="Emacron" unicode="&#x112;" horiz-adv-x="551" 
d="M496 128v-128h-420v606l-45 79h456v-127h-258v-146h214v-128h-214v-156h267zM133 734v116h299v-116h-299z" />
    <glyph glyph-name="Eogonek" unicode="&#x118;" horiz-adv-x="551" 
d="M496 128v-128h-4c-65 -39 -83 -76 -90 -109c6 -4 23 -8 33 -8c16 0 29 0 55 10v-101c-23 -10 -52 -16 -76 -16c-92 0 -127 47 -144 88c4 37 19 86 66 136h-260v606l-45 79h456v-127h-258v-146h214v-128h-214v-156h267z" />
    <glyph glyph-name="Fdotaccent" unicode="&#x1e1e;" horiz-adv-x="521" 
d="M214 804c0 40 32 73 72 73s73 -33 73 -73s-33 -72 -73 -72s-72 32 -72 72zM439 393v-127h-210v-266h-153v605l-45 80h458v-128h-260v-164h210z" />
    <glyph glyph-name="Gdotaccent" unicode="&#x120;" horiz-adv-x="635" 
d="M396 133h29v134h-116v129h261v-396h-174c-225 0 -361 149 -356 342c0 195 160 354 371 354c34 0 72 -3 114 -16v-168l-80 54c-12 1 -23 1 -28 1c-147 0 -222 -98 -222 -218c0 -121 69 -216 201 -216zM318 809c0 40 32 73 72 73s73 -33 73 -73s-33 -72 -73 -72
s-72 32 -72 72z" />
    <glyph glyph-name="Iacute" unicode="&#xcd;" horiz-adv-x="314" 
d="M234 685v-685h-153v605l-45 80h198zM51 721l102 181h157l-132 -181h-127z" />
    <glyph glyph-name="Icircumflex" unicode="&#xce;" horiz-adv-x="314" 
d="M234 685v-685h-153v605l-45 80h198zM-33 726l114 182h128l114 -182h-129l-49 65l-48 -65h-130z" />
    <glyph glyph-name="Idieresis" unicode="&#xcf;" horiz-adv-x="314" 
d="M234 685v-685h-153v605l-45 80h198zM-29 803c0 40 32 73 72 73s73 -33 73 -73s-33 -72 -73 -72s-72 32 -72 72zM164 803c0 40 32 73 72 73s73 -33 73 -73s-33 -72 -73 -72s-72 32 -72 72z" />
    <glyph glyph-name="Igrave" unicode="&#xcc;" horiz-adv-x="314" 
d="M234 685v-685h-153v605l-45 80h198zM111 902l102 -181h-127l-132 181h157z" />
    <glyph glyph-name="Imacron" unicode="&#x12a;" horiz-adv-x="314" 
d="M234 685v-685h-153v605l-45 80h198zM-11 734v116h299v-116h-299z" />
    <glyph glyph-name="Iogonek" unicode="&#x12e;" horiz-adv-x="314" 
d="M234 685v-685c-65 -39 -83 -76 -90 -109c6 -4 23 -8 33 -8c16 0 29 0 55 10v-101c-23 -10 -52 -16 -76 -16c-92 0 -127 47 -144 88c5 38 19 88 69 139v602l-45 80h198z" />
    <glyph glyph-name="uniA742" unicode="&#xa742;" horiz-adv-x="661" 
d="M229 685v-254l213 254h184l-250 -280c26 -17 49 -37 71 -59l69 69l82 -89l-77 -77c42 -72 68 -157 75 -249h-161c-6 46 -17 90 -34 130l-50 -50l-81 89l68 68c-18 21 -38 41 -60 58l-49 -55v-240h-154v607l-44 78h198z" />
    <glyph glyph-name="Mdotaccent" unicode="&#x1e40;" horiz-adv-x="771" 
d="M386 136l-164 258v-394h-146v603l-45 82h176l182 -305l175 305h132v-685h-150v395zM318 809c0 40 32 73 72 73s73 -33 73 -73s-33 -72 -73 -72s-72 32 -72 72z" />
    <glyph glyph-name="Ntilde" unicode="&#xd1;" horiz-adv-x="706" 
d="M631 34l-125 -52l-284 423v-405h-146v605l-45 80h173l280 -417v417h147v-651zM408 719l-103 63c-10 -8 -25 -26 -31 -62h-99c7 126 84 179 150 184l103 -63c10 8 25 26 31 62h99c-7 -126 -84 -179 -150 -184z" />
    <glyph glyph-name="Oacute" unicode="&#xd3;" horiz-adv-x="780" 
d="M300 716l102 181h157l-132 -181h-127zM389 117c108 0 190 99 190 219c0 122 -81 231 -192 231c-105 0 -186 -98 -186 -218c0 -122 81 -232 188 -232zM389 -11c-196 0 -347 159 -343 353c0 195 154 354 343 354c192 0 346 -159 346 -354c0 -194 -157 -353 -346 -353z" />
    <glyph glyph-name="Ocircumflex" unicode="&#xd4;" horiz-adv-x="780" 
d="M212 721l114 182h128l114 -182h-129l-49 65l-48 -65h-130zM389 117c108 0 190 99 190 219c0 122 -81 231 -192 231c-105 0 -186 -98 -186 -218c0 -122 81 -232 188 -232zM389 -11c-196 0 -347 159 -343 353c0 195 154 354 343 354c192 0 346 -159 346 -354
c0 -194 -157 -353 -346 -353z" />
    <glyph glyph-name="Odieresis" unicode="&#xd6;" horiz-adv-x="780" 
d="M221 798c0 40 32 73 72 73s73 -33 73 -73s-33 -72 -73 -72s-72 32 -72 72zM414 798c0 40 32 73 72 73s73 -33 73 -73s-33 -72 -73 -72s-72 32 -72 72zM389 117c108 0 190 99 190 219c0 122 -81 231 -192 231c-105 0 -186 -98 -186 -218c0 -122 81 -232 188 -232zM389 -11
c-196 0 -347 159 -343 353c0 195 154 354 343 354c192 0 346 -159 346 -354c0 -194 -157 -353 -346 -353z" />
    <glyph glyph-name="Ograve" unicode="&#xd2;" horiz-adv-x="780" 
d="M389 117c108 0 190 99 190 219c0 122 -81 231 -192 231c-105 0 -186 -98 -186 -218c0 -122 81 -232 188 -232zM389 -11c-196 0 -347 159 -343 353c0 195 154 354 343 354c192 0 346 -159 346 -354c0 -194 -157 -353 -346 -353zM377 897l102 -181h-127l-132 181h157z" />
    <glyph glyph-name="Omacron" unicode="&#x14c;" horiz-adv-x="780" 
d="M240 729v116h299v-116h-299zM389 117c108 0 190 99 190 219c0 122 -81 231 -192 231c-105 0 -186 -98 -186 -218c0 -122 81 -232 188 -232zM389 -11c-196 0 -347 159 -343 353c0 195 154 354 343 354c192 0 346 -159 346 -354c0 -194 -157 -353 -346 -353z" />
    <glyph glyph-name="Otilde" unicode="&#xd5;" horiz-adv-x="780" 
d="M389 117c108 0 190 99 190 219c0 122 -81 231 -192 231c-105 0 -186 -98 -186 -218c0 -122 81 -232 188 -232zM389 -11c-196 0 -347 159 -343 353c0 195 154 354 343 354c192 0 346 -159 346 -354c0 -194 -157 -353 -346 -353zM431 719l-103 63c-10 -8 -25 -26 -31 -62
h-99c7 126 84 179 150 184l103 -63c10 8 25 26 31 62h99c-7 -126 -84 -179 -150 -184z" />
    <glyph glyph-name="Pdotaccent" unicode="&#x1e56;" horiz-adv-x="590" 
d="M75 607l-44 78h237c197 0 277 -102 277 -235c0 -182 -134 -242 -274 -242c-14 0 -28 0 -42 1v-209h-154v607zM267 563h-38v-227c16 -2 30 -2 40 -2c84 0 121 36 121 115c0 91 -61 114 -123 114zM174 804c0 40 32 73 72 73s73 -33 73 -73s-33 -72 -73 -72s-72 32 -72 72z
" />
    <glyph glyph-name="Sdotaccent" unicode="&#x1e60;" horiz-adv-x="551" 
d="M25 81l83 104c55 -44 112 -63 155 -63c35 0 69 18 85 47l-309 306c18 120 119 221 269 221c81 0 138 -18 208 -71l-67 -155l-38 74c-25 17 -52 26 -88 26c-57 0 -97 -23 -113 -55l316 -312c-21 -104 -104 -214 -265 -214c-94 0 -174 35 -236 92zM221 809
c0 40 32 73 72 73s73 -33 73 -73s-33 -72 -73 -72s-72 32 -72 72z" />
    <glyph glyph-name="Tdotaccent" unicode="&#x1e6a;" horiz-adv-x="560" 
d="M99 557l-79 -47v175h500v-128h-177v-409c16 -17 44 -30 81 -30c31 0 57 7 92 21v-126c-31 -14 -73 -24 -110 -24c-115 0 -177 45 -216 96v472h-91zM191 804c0 40 32 73 72 73s73 -33 73 -73s-33 -72 -73 -72s-72 32 -72 72z" />
    <glyph glyph-name="Uacute" unicode="&#xda;" horiz-adv-x="650" 
d="M262 716l102 181h157l-132 -181h-127zM386 0c-241 0 -323 102 -323 343c0 40 2 85 6 134l12 131l-42 77h201l-18 -212c-4 -43 -6 -83 -6 -130c0 -156 49 -215 170 -215h36v557h153v-685h-189z" />
    <glyph glyph-name="Ucircumflex" unicode="&#xdb;" horiz-adv-x="650" 
d="M161 721l114 182h128l114 -182h-129l-49 65l-48 -65h-130zM386 0c-241 0 -323 102 -323 343c0 40 2 85 6 134l12 131l-42 77h201l-18 -212c-4 -43 -6 -83 -6 -130c0 -156 49 -215 170 -215h36v557h153v-685h-189z" />
    <glyph glyph-name="Udieresis" unicode="&#xdc;" horiz-adv-x="650" 
d="M162 798c0 40 32 73 72 73s73 -33 73 -73s-33 -72 -73 -72s-72 32 -72 72zM355 798c0 40 32 73 72 73s73 -33 73 -73s-33 -72 -73 -72s-72 32 -72 72zM386 0c-241 0 -323 102 -323 343c0 40 2 85 6 134l12 131l-42 77h201l-18 -212c-4 -43 -6 -83 -6 -130
c0 -156 49 -215 170 -215h36v557h153v-685h-189z" />
    <glyph glyph-name="Ugrave" unicode="&#xd9;" horiz-adv-x="650" 
d="M386 0c-241 0 -323 102 -323 343c0 40 2 85 6 134l12 131l-42 77h201l-18 -212c-4 -43 -6 -83 -6 -130c0 -156 49 -215 170 -215h36v557h153v-685h-189zM292 897l102 -181h-127l-132 181h157z" />
    <glyph glyph-name="Umacron" unicode="&#x16a;" horiz-adv-x="650" 
d="M386 0c-241 0 -323 102 -323 343c0 40 2 85 6 134l12 131l-42 77h201l-18 -212c-4 -43 -6 -83 -6 -130c0 -156 49 -215 170 -215h36v557h153v-685h-189zM178 729v116h299v-116h-299z" />
    <glyph glyph-name="Uogonek" unicode="&#x172;" horiz-adv-x="650" 
d="M386 0c-241 0 -323 102 -323 343c0 40 2 85 6 134l12 131l-42 77h201l-18 -212c-4 -43 -6 -83 -6 -130c0 -156 49 -215 170 -215h36v557h153v-685c-65 -39 -83 -76 -90 -109c6 -4 23 -8 33 -8c16 0 29 0 55 10v-101c-23 -10 -52 -16 -76 -16c-92 0 -127 47 -144 88
c4 37 19 86 66 136h-33z" />
    <glyph glyph-name="Wacute" unicode="&#x1e82;" horiz-adv-x="918" 
d="M365 716l102 181h157l-132 -181h-127zM908 685l-212 -685h-134l-81 267l-86 -267h-130l-255 685h159l169 -472l80 261l-64 211h147l129 -453l104 375l-29 78h203z" />
    <glyph glyph-name="Wcircumflex" unicode="&#x174;" horiz-adv-x="918" 
d="M264 721l114 182h128l114 -182h-129l-49 65l-48 -65h-130zM908 685l-212 -685h-134l-81 267l-86 -267h-130l-255 685h159l169 -472l80 261l-64 211h147l129 -453l104 375l-29 78h203z" />
    <glyph glyph-name="Wdieresis" unicode="&#x1e84;" horiz-adv-x="918" 
d="M275 798c0 40 32 73 72 73s73 -33 73 -73s-33 -72 -73 -72s-72 32 -72 72zM468 798c0 40 32 73 72 73s73 -33 73 -73s-33 -72 -73 -72s-72 32 -72 72zM908 685l-212 -685h-134l-81 267l-86 -267h-130l-255 685h159l169 -472l80 261l-64 211h147l129 -453l104 375l-29 78
h203z" />
    <glyph glyph-name="Wgrave" unicode="&#x1e80;" horiz-adv-x="918" 
d="M908 685l-212 -685h-134l-81 267l-86 -267h-130l-255 685h159l169 -472l80 261l-64 211h147l129 -453l104 375l-29 78h203zM435 897l102 -181h-127l-132 181h157z" />
    <glyph glyph-name="Yacute" unicode="&#xdd;" horiz-adv-x="639" 
d="M629 685l-222 -419v-266h-153v261l-244 424h170l151 -284l111 224l-24 60h211zM250 716l102 181h157l-132 -181h-127z" />
    <glyph glyph-name="Ycircumflex" unicode="&#x176;" horiz-adv-x="639" 
d="M629 685l-222 -419v-266h-153v261l-244 424h170l151 -284l111 224l-24 60h211zM141 721l114 182h128l114 -182h-129l-49 65l-48 -65h-130z" />
    <glyph glyph-name="Ydieresis" unicode="&#x178;" horiz-adv-x="639" 
d="M629 685l-222 -419v-266h-153v261l-244 424h170l151 -284l111 224l-24 60h211zM140 813c0 40 32 73 72 73s73 -33 73 -73s-33 -72 -73 -72s-72 32 -72 72zM333 813c0 40 32 73 72 73s73 -33 73 -73s-33 -72 -73 -72s-72 32 -72 72z" />
    <glyph glyph-name="Ygrave" unicode="&#x1ef2;" horiz-adv-x="639" 
d="M629 685l-222 -419v-266h-153v261l-244 424h170l151 -284l111 224l-24 60h211zM284 897l102 -181h-127l-132 181h157z" />
    <glyph glyph-name="Cacute" unicode="&#x106;" horiz-adv-x="574" 
d="M257 716l102 181h157l-132 -181h-127zM517 512l-80 54c-11 1 -24 1 -28 1c-128 0 -208 -98 -208 -218c0 -126 75 -232 196 -232c48 0 73 3 132 24v-127c-45 -17 -99 -25 -138 -25c-213 0 -349 155 -345 353c0 195 151 354 358 354c33 0 71 -6 113 -19v-165z" />
    <glyph glyph-name="Nacute" unicode="&#x143;" horiz-adv-x="706" 
d="M293 716l102 181h157l-132 -181h-127zM631 34l-125 -52l-284 423v-405h-146v605l-45 80h173l280 -417v417h147v-651z" />
    <glyph glyph-name="Sacute" unicode="&#x15a;" horiz-adv-x="551" 
d="M216 716l102 181h157l-132 -181h-127zM25 81l83 104c55 -44 112 -63 155 -63c35 0 69 18 85 47l-309 306c18 120 119 221 269 221c81 0 138 -18 208 -71l-67 -155l-38 74c-25 17 -52 26 -88 26c-57 0 -97 -23 -113 -55l316 -312c-21 -104 -104 -214 -265 -214
c-94 0 -174 35 -236 92z" />
    <glyph glyph-name="Zdot" unicode="&#x17b;" horiz-adv-x="550" 
d="M35 113v-113h480v128h-298l294 446v111h-472v-175l78 47h209zM210 809c0 40 32 73 72 73s73 -33 73 -73s-33 -72 -73 -72s-72 32 -72 72z" />
    <glyph glyph-name="Zacute" unicode="&#x179;" horiz-adv-x="550" 
d="M196 716l102 181h157l-132 -181h-127zM35 113v-113h480v128h-298l294 446v111h-472v-175l78 47h209z" />
    <glyph glyph-name="a" unicode="a" horiz-adv-x="545" 
d="M75 338v159c38 11 98 25 162 25c155 0 246 -66 246 -189v-333h-139v50l-206 -65c-53 45 -96 110 -96 181c0 100 58 166 218 166h77c-4 54 -40 74 -110 74c-24 0 -58 -6 -70 -10zM179 169c0 -14 7 -31 16 -41l143 39v61h-81c-59 0 -78 -27 -78 -59z" />
    <glyph glyph-name="b" unicode="b" horiz-adv-x="567" 
d="M216 719v-209h33c179 0 275 -112 275 -257c0 -151 -113 -264 -262 -264c-74 0 -153 27 -192 47v603l-45 80h191zM216 388v-278c13 -3 28 -5 46 -5c68 0 115 57 115 148c0 78 -47 135 -128 135h-33z" />
    <glyph glyph-name="c" unicode="c" horiz-adv-x="489" 
d="M438 501v-174l-102 79h-9c-83 0 -137 -66 -137 -151c0 -89 47 -144 143 -144c44 0 65 4 113 23v-122c-39 -14 -84 -23 -121 -23c-168 0 -282 105 -282 265c0 148 126 267 279 267c35 0 75 -6 116 -20z" />
    <glyph glyph-name="d" unicode="d" horiz-adv-x="567" 
d="M497 719v-679c-41 -23 -121 -51 -189 -51c-165 0 -265 96 -265 264c0 145 106 257 269 257h39v129l-45 80h191zM351 112v276h-39c-75 0 -122 -49 -122 -135c0 -92 51 -145 118 -145c16 0 29 0 43 4z" />
    <glyph glyph-name="e" unicode="e" horiz-adv-x="573" 
d="M529 214h-335c13 -74 67 -105 134 -105c49 0 80 8 134 34v-120c-45 -25 -92 -34 -146 -34c-171 0 -273 109 -273 265c0 139 108 268 250 268c158 0 245 -129 236 -308zM297 404c-36 0 -81 -27 -99 -89h188c-9 61 -48 89 -89 89z" />
    <glyph glyph-name="f" unicode="f" horiz-adv-x="395" 
d="M75 496v128c42 61 121 106 212 106c32 0 63 0 101 -13v-117c-29 11 -60 12 -83 12c-34 0 -70 -16 -84 -30v-72h140v-113h-140v-397h-146v397h-56z" />
    <glyph glyph-name="g" unicode="g" horiz-adv-x="614" 
d="M403 510h181l-45 -80v-534c-52 -57 -146 -107 -271 -107c-54 0 -100 13 -143 28v127c48 -22 99 -32 143 -32c47 0 93 10 125 35v76c-32 -20 -72 -32 -121 -32c-129 0 -229 111 -229 255c0 159 110 272 246 272c41 0 79 -12 114 -38v30zM298 107c30 0 65 10 95 42v202
c-25 39 -59 50 -91 50c-63 0 -112 -61 -112 -149c0 -100 53 -145 108 -145z" />
    <glyph glyph-name="h" unicode="h" horiz-adv-x="592" 
d="M25 719h191v-261l71 58c152 -1 245 -83 245 -222v-294h-146v282c0 65 -29 94 -72 102l-98 -73v-311h-146v639z" />
    <glyph glyph-name="i" unicode="i" horiz-adv-x="301" 
d="M226 510v-510h-146v430l-45 80h191zM53 647c0 47 38 85 86 85c51 0 90 -38 90 -85c0 -45 -39 -83 -90 -83c-48 0 -86 38 -86 83z" />
    <glyph glyph-name="j" unicode="j" horiz-adv-x="301" 
d="M35 510h191v-540c0 -115 -69 -185 -227 -175v117c56 -1 81 15 81 67v451zM53 647c0 47 38 85 86 85c51 0 90 -38 90 -85c0 -45 -39 -83 -90 -83c-48 0 -86 38 -86 83z" />
    <glyph glyph-name="k" unicode="k" horiz-adv-x="547" 
d="M216 0h-146v639l-45 80h191v-361l135 152h176l-185 -193c95 -67 153 -174 158 -317h-144c-8 98 -46 173 -105 222l-35 -37v-185z" />
    <glyph glyph-name="l" unicode="l" horiz-adv-x="298" 
d="M223 -9c-124 0 -158 64 -158 158v490l-45 80h191v-566c0 -28 12 -41 45 -41c8 0 17 1 27 2v-117c-12 -2 -43 -6 -60 -6z" />
    <glyph glyph-name="m" unicode="m" horiz-adv-x="863" 
d="M211 510v-58l71 64c86 -1 153 -32 192 -88l99 88c141 -1 230 -83 230 -222v-294h-146v282c0 65 -25 94 -57 102l-89 -71c1 -6 1 -13 1 -19v-294h-146v282c0 65 -25 94 -57 102l-88 -70v-314h-146v430l-45 80h181z" />
    <glyph glyph-name="n" unicode="n" horiz-adv-x="597" 
d="M211 510v-61l81 67c152 -1 245 -83 245 -222v-294h-146v282c0 65 -29 94 -72 102l-98 -73v-311h-146v430l-45 80h181z" />
    <glyph glyph-name="o" unicode="o" horiz-adv-x="620" 
d="M310 402c-69 0 -120 -66 -120 -147s51 -147 120 -147s120 66 120 147s-51 147 -120 147zM307 -11c-151 0 -264 119 -264 265c0 148 123 267 270 267c151 0 264 -119 264 -265c0 -148 -123 -267 -270 -267z" />
    <glyph glyph-name="p" unicode="p" horiz-adv-x="614" 
d="M75 -201v631l-45 80h181v-38c33 26 75 44 131 44c129 0 229 -111 229 -255c0 -159 -120 -272 -267 -272c-28 0 -56 6 -83 17v-207h-146zM316 400c-31 0 -66 -13 -95 -52v-213c22 -19 48 -29 74 -29c69 0 129 61 129 149c0 100 -53 145 -108 145z" />
    <glyph glyph-name="q" unicode="q" horiz-adv-x="614" 
d="M539 430v-631h-146v224c-32 -20 -72 -32 -121 -32c-129 0 -229 111 -229 255c0 159 110 272 246 272c41 0 79 -12 114 -38v30h181zM298 107c30 0 65 10 95 42v202c-25 39 -59 50 -91 50c-63 0 -112 -61 -112 -149c0 -100 53 -145 108 -145z" />
    <glyph glyph-name="r" unicode="r" horiz-adv-x="460" 
d="M31 510h180v-74l69 74c75 -9 123 -31 165 -80l-74 -105c-29 36 -58 42 -71 49l-79 -73v-301h-146v430z" />
    <glyph glyph-name="s" unicode="s" horiz-adv-x="487" 
d="M396 320l-44 69c-18 12 -43 20 -67 20c-37 0 -67 -15 -80 -40l252 -178c-15 -108 -92 -202 -228 -202c-82 0 -144 27 -199 83l70 90c47 -42 83 -55 125 -55c39 0 58 11 72 36l-252 178c16 110 98 200 235 200c52 0 112 -14 174 -57z" />
    <glyph glyph-name="t" unicode="t" horiz-adv-x="365" 
d="M70 656h146v-146h109v-112h-109v-216c0 -51 21 -69 66 -69c14 0 26 1 40 3v-118c-38 -4 -54 -4 -68 -4c-140 0 -184 66 -184 183v221h-67l67 97v161z" />
    <glyph glyph-name="u" unicode="u" horiz-adv-x="597" 
d="M21 510h190v-282c0 -65 29 -94 72 -102l98 73v311h146v-510h-136v60l-81 -66c-152 1 -245 83 -245 222v214z" />
    <glyph glyph-name="v" unicode="v" horiz-adv-x="541" 
d="M216 0l-209 510h159l118 -309l79 237l-32 72h203l-185 -510h-133z" />
    <glyph glyph-name="w" unicode="w" horiz-adv-x="783" 
d="M776 510l-175 -510h-128l-62 183l-67 -183h-122l-215 510h158l128 -328l54 160l-64 168h153l105 -314l69 229l-36 85h202z" />
    <glyph glyph-name="x" unicode="x" horiz-adv-x="545" 
d="M533 0h-169l-100 155l-96 -155h-156l175 259l-168 251h169l88 -141l48 79l-24 62h217l-164 -246z" />
    <glyph glyph-name="y" unicode="y" horiz-adv-x="537" 
d="M530 510l-218 -700h-149l67 209c-145 120 -197 298 -210 491h154c10 -151 39 -251 108 -331l77 258l-34 73h205z" />
    <glyph glyph-name="z" unicode="z" horiz-adv-x="485" 
d="M42 344v166h401v-96l-219 -296h221v-118h-405v96l220 298h-125z" />
    <glyph glyph-name="dotlessi" unicode="&#x131;" horiz-adv-x="292" 
d="M225 510v-510h-145v430l-45 80h190z" />
    <glyph glyph-name="ae" unicode="&#xe6;" horiz-adv-x="856" 
d="M709 128v-118c-31 -14 -67 -21 -113 -21c-95 0 -159 32 -201 73l-318 -79c-20 47 -32 106 -32 135c0 126 81 213 243 213h27c-17 52 -71 71 -126 71c-27 0 -70 -5 -118 -17l1 117c49 12 85 17 120 17c74 0 158 -8 202 -78c43 48 102 80 170 80c167 0 259 -141 248 -310
h-343c16 -77 81 -101 148 -101c19 0 55 4 92 18zM568 405c-39 0 -76 -29 -93 -83h180c-13 60 -48 83 -87 83zM197 148c0 -5 0 -10 1 -15l133 31c-7 22 -11 41 -11 56h-12c-71 0 -111 -21 -111 -72z" />
    <glyph glyph-name="oe" unicode="&#x153;" horiz-adv-x="864" 
d="M820 204h-344c19 -72 81 -94 145 -94c19 0 57 4 94 18v-118c-31 -14 -69 -21 -115 -21c-61 0 -113 13 -155 37c-41 -24 -88 -37 -138 -37c-151 0 -264 119 -264 265c0 148 123 267 270 267c51 0 96 -13 136 -36c35 22 75 36 119 36c171 0 263 -141 252 -317zM325 254
c0 46 13 93 36 135c-15 8 -33 13 -51 13c-69 0 -120 -66 -120 -147s51 -147 120 -147c16 0 32 4 46 11c-21 38 -31 84 -31 135zM572 405c-39 0 -78 -32 -94 -90h186c-12 65 -50 90 -92 90z" />
    <glyph glyph-name="germandbls" unicode="&#xdf;" horiz-adv-x="594" 
d="M264 15l36 104c19 -8 37 -12 60 -12c36 0 59 18 68 44l-162 229c64 66 86 111 86 149c0 56 -42 82 -89 82c-16 0 -28 -2 -48 -7v-604h-145v674c65 37 135 53 198 53c123 0 231 -61 231 -194c0 -54 -33 -106 -74 -151l149 -204c-11 -95 -78 -189 -203 -189
c-43 0 -77 9 -107 26z" />
    <glyph glyph-name="lslash" unicode="&#x142;" horiz-adv-x="328" 
d="M15 238v125l70 28v267l-45 80h191v-287l77 31v-124l-77 -32v-154c0 -28 12 -41 45 -41c8 0 17 1 27 2v-117c-12 -2 -43 -6 -60 -6c-124 0 -158 64 -158 158v98z" />
    <glyph glyph-name="oslash" unicode="&#xf8;" horiz-adv-x="620" 
d="M307 8c-43 0 -82 9 -117 26l-40 -52l-89 60l45 57c-40 47 -63 108 -63 174c0 148 123 267 270 267c42 0 80 -9 115 -26l40 52l89 -61l-44 -56c40 -47 64 -108 64 -174c0 -148 -123 -267 -270 -267zM310 127c69 0 120 66 120 147c0 20 -3 39 -9 56l-152 -195
c13 -5 26 -8 41 -8zM310 421c-69 0 -120 -66 -120 -147c0 -20 3 -39 8 -56l151 195c-12 5 -25 8 -39 8z" />
    <glyph glyph-name="aacute" unicode="&#xe1;" horiz-adv-x="545" 
d="M75 338v159c38 11 98 25 162 25c155 0 246 -66 246 -189v-333h-139v50l-206 -65c-53 45 -96 110 -96 181c0 100 58 166 218 166h77c-4 54 -40 74 -110 74c-24 0 -58 -6 -70 -10zM179 169c0 -14 7 -31 16 -41l143 39v61h-81c-59 0 -78 -27 -78 -59zM150 556l102 181h157
l-132 -181h-127z" />
    <glyph glyph-name="acircumflex" unicode="&#xe2;" horiz-adv-x="545" 
d="M75 338v159c38 11 98 25 162 25c155 0 246 -66 246 -189v-333h-139v50l-206 -65c-53 45 -96 110 -96 181c0 100 58 166 218 166h77c-4 54 -40 74 -110 74c-24 0 -58 -6 -70 -10zM179 169c0 -14 7 -31 16 -41l143 39v61h-81c-59 0 -78 -27 -78 -59zM78 561l114 182h128
l114 -182h-129l-49 65l-48 -65h-130z" />
    <glyph glyph-name="adieresis" unicode="&#xe4;" horiz-adv-x="545" 
d="M75 338v159c38 11 98 25 162 25c155 0 246 -66 246 -189v-333h-139v50l-206 -65c-53 45 -96 110 -96 181c0 100 58 166 218 166h77c-4 54 -40 74 -110 74c-24 0 -58 -6 -70 -10zM179 169c0 -14 7 -31 16 -41l143 39v61h-81c-59 0 -78 -27 -78 -59zM79 638
c0 40 32 73 72 73s73 -33 73 -73s-33 -72 -73 -72s-72 32 -72 72zM272 638c0 40 32 73 72 73s73 -33 73 -73s-33 -72 -73 -72s-72 32 -72 72z" />
    <glyph glyph-name="agrave" unicode="&#xe0;" horiz-adv-x="545" 
d="M75 338v159c38 11 98 25 162 25c155 0 246 -66 246 -189v-333h-139v50l-206 -65c-53 45 -96 110 -96 181c0 100 58 166 218 166h77c-4 54 -40 74 -110 74c-24 0 -58 -6 -70 -10zM179 169c0 -14 7 -31 16 -41l143 39v61h-81c-59 0 -78 -27 -78 -59zM221 737l102 -181h-127
l-132 181h157z" />
    <glyph glyph-name="amacron" unicode="&#x101;" horiz-adv-x="545" 
d="M75 338v159c38 11 98 25 162 25c155 0 246 -66 246 -189v-333h-139v50l-206 -65c-53 45 -96 110 -96 181c0 100 58 166 218 166h77c-4 54 -40 74 -110 74c-24 0 -58 -6 -70 -10zM179 169c0 -14 7 -31 16 -41l143 39v61h-81c-59 0 -78 -27 -78 -59zM107 569v116h299v-116
h-299z" />
    <glyph glyph-name="aogonek" unicode="&#x105;" horiz-adv-x="545" 
d="M75 338v159c38 11 98 25 162 25c155 0 246 -66 246 -189v-333c-65 -39 -83 -76 -90 -109c6 -4 23 -8 33 -8c16 0 29 0 55 10v-101c-23 -10 -52 -16 -76 -16c-92 0 -127 47 -144 88c5 41 23 97 83 152v34l-206 -65c-53 45 -96 110 -96 181c0 100 58 166 218 166h77
c-4 54 -40 74 -110 74c-24 0 -58 -6 -70 -10zM179 169c0 -14 7 -31 16 -41l143 39v61h-81c-59 0 -78 -27 -78 -59z" />
    <glyph glyph-name="aring" unicode="&#xe5;" horiz-adv-x="545" 
d="M75 338v159c38 11 98 25 162 25c155 0 246 -66 246 -189v-333h-139v50l-206 -65c-53 45 -96 110 -96 181c0 100 58 166 218 166h77c-4 54 -40 74 -110 74c-24 0 -58 -6 -70 -10zM179 169c0 -14 7 -31 16 -41l143 39v61h-81c-59 0 -78 -27 -78 -59zM245 546
c-79 0 -131 52 -131 120c0 67 54 120 134 120c79 0 132 -53 132 -120c0 -68 -55 -120 -135 -120zM245 630c22 0 33 15 33 36s-10 36 -32 36c-21 0 -32 -15 -32 -36s9 -36 31 -36z" />
    <glyph glyph-name="atilde" unicode="&#xe3;" horiz-adv-x="545" 
d="M75 338v159c38 11 98 25 162 25c155 0 246 -66 246 -189v-333h-139v50l-206 -65c-53 45 -96 110 -96 181c0 100 58 166 218 166h77c-4 54 -40 74 -110 74c-24 0 -58 -6 -70 -10zM179 169c0 -14 7 -31 16 -41l143 39v61h-81c-59 0 -78 -27 -78 -59zM308 559l-103 63
c-10 -8 -25 -26 -31 -62h-99c7 126 84 179 150 184l103 -63c10 8 25 26 31 62h99c-7 -126 -84 -179 -150 -184z" />
    <glyph glyph-name="bdotaccent" unicode="&#x1e03;" horiz-adv-x="567" 
d="M216 719v-209h33c179 0 275 -112 275 -257c0 -151 -113 -264 -262 -264c-74 0 -153 27 -192 47v603l-45 80h191zM216 388v-278c13 -3 28 -5 46 -5c68 0 115 57 115 148c0 78 -47 135 -128 135h-33zM278 639c0 40 32 73 72 73s73 -33 73 -73s-33 -72 -73 -72
s-72 32 -72 72z" />
    <glyph glyph-name="ccedilla" unicode="&#xe7;" horiz-adv-x="489" 
d="M211 -294v89c72 19 95 41 95 62c0 15 -12 24 -37 24h-50l12 120c-115 32 -188 125 -188 253c0 148 126 267 279 267c35 0 75 -6 116 -20v-174l-102 79h-9c-83 0 -137 -66 -137 -151c0 -89 47 -144 143 -144c44 0 65 4 113 23v-122c-34 -12 -73 -20 -107 -22v-31
c80 -7 102 -48 102 -88c0 -67 -68 -126 -230 -165z" />
    <glyph glyph-name="cdotaccent" unicode="&#x10b;" horiz-adv-x="489" 
d="M438 501v-174l-102 79h-9c-83 0 -137 -66 -137 -151c0 -89 47 -144 143 -144c44 0 65 4 113 23v-122c-39 -14 -84 -23 -121 -23c-168 0 -282 105 -282 265c0 148 126 267 279 267c35 0 75 -6 116 -20zM223 639c0 40 32 73 72 73s73 -33 73 -73s-33 -72 -73 -72
s-72 32 -72 72z" />
    <glyph glyph-name="ddotaccent" unicode="&#x1e0b;" horiz-adv-x="567" 
d="M497 719v-679c-41 -23 -121 -51 -189 -51c-165 0 -265 96 -265 264c0 145 106 257 269 257h39v129l-45 80h191zM351 112v276h-39c-75 0 -122 -49 -122 -135c0 -92 51 -145 118 -145c16 0 29 0 43 4zM116 639c0 40 32 73 72 73s73 -33 73 -73s-33 -72 -73 -72
s-72 32 -72 72z" />
    <glyph glyph-name="eacute" unicode="&#xe9;" horiz-adv-x="573" 
d="M224 556l102 181h157l-132 -181h-127zM529 214h-335c13 -74 67 -105 134 -105c49 0 80 8 134 34v-120c-45 -25 -92 -34 -146 -34c-171 0 -273 109 -273 265c0 139 108 268 250 268c158 0 245 -129 236 -308zM297 404c-36 0 -81 -27 -99 -89h188c-9 61 -48 89 -89 89z" />
    <glyph glyph-name="ecircumflex" unicode="&#xea;" horiz-adv-x="573" 
d="M119 561l114 182h128l114 -182h-129l-49 65l-48 -65h-130zM529 214h-335c13 -74 67 -105 134 -105c49 0 80 8 134 34v-120c-45 -25 -92 -34 -146 -34c-171 0 -273 109 -273 265c0 139 108 268 250 268c158 0 245 -129 236 -308zM297 404c-36 0 -81 -27 -99 -89h188
c-9 61 -48 89 -89 89z" />
    <glyph glyph-name="edieresis" unicode="&#xeb;" horiz-adv-x="573" 
d="M134 638c0 40 32 73 72 73s73 -33 73 -73s-33 -72 -73 -72s-72 32 -72 72zM327 638c0 40 32 73 72 73s73 -33 73 -73s-33 -72 -73 -72s-72 32 -72 72zM529 214h-335c13 -74 67 -105 134 -105c49 0 80 8 134 34v-120c-45 -25 -92 -34 -146 -34c-171 0 -273 109 -273 265
c0 139 108 268 250 268c158 0 245 -129 236 -308zM297 404c-36 0 -81 -27 -99 -89h188c-9 61 -48 89 -89 89z" />
    <glyph glyph-name="egrave" unicode="&#xe8;" horiz-adv-x="573" 
d="M529 214h-335c13 -74 67 -105 134 -105c49 0 80 8 134 34v-120c-45 -25 -92 -34 -146 -34c-171 0 -273 109 -273 265c0 139 108 268 250 268c158 0 245 -129 236 -308zM297 404c-36 0 -81 -27 -99 -89h188c-9 61 -48 89 -89 89zM283 737l102 -181h-127l-132 181h157z" />
    <glyph glyph-name="emacron" unicode="&#x113;" horiz-adv-x="573" 
d="M529 214h-335c13 -74 67 -105 134 -105c49 0 80 8 134 34v-120c-45 -25 -92 -34 -146 -34c-171 0 -273 109 -273 265c0 139 108 268 250 268c158 0 245 -129 236 -308zM297 404c-36 0 -81 -27 -99 -89h188c-9 61 -48 89 -89 89zM148 569v116h299v-116h-299z" />
    <glyph glyph-name="eogonek" unicode="&#x119;" horiz-adv-x="573" 
d="M529 214h-335c13 -74 67 -105 134 -105c49 0 80 8 134 34v-120c-20 -11 -41 -19 -62 -24c-63 -39 -80 -75 -87 -108c6 -4 23 -8 33 -8c16 0 29 0 55 10v-101c-23 -10 -52 -16 -76 -16c-92 0 -127 47 -144 88c4 36 18 83 62 132c-127 27 -200 125 -200 258
c0 139 108 268 250 268c158 0 245 -129 236 -308zM297 404c-36 0 -81 -27 -99 -89h188c-9 61 -48 89 -89 89z" />
    <glyph glyph-name="fdotaccent" unicode="&#x1e1f;" horiz-adv-x="395" 
d="M197 842c0 40 32 73 72 73s73 -33 73 -73s-33 -72 -73 -72s-72 32 -72 72zM75 496v128c42 61 121 106 212 106c32 0 63 0 101 -13v-117c-29 11 -60 12 -83 12c-34 0 -70 -16 -84 -30v-72h140v-113h-140v-397h-146v397h-56z" />
    <glyph glyph-name="gdotaccent" unicode="&#x121;" horiz-adv-x="614" 
d="M403 510h181l-45 -80v-534c-52 -57 -146 -107 -271 -107c-54 0 -100 13 -143 28v127c48 -22 99 -32 143 -32c47 0 93 10 125 35v76c-32 -20 -72 -32 -121 -32c-129 0 -229 111 -229 255c0 159 110 272 246 272c41 0 79 -12 114 -38v30zM298 107c30 0 65 10 95 42v202
c-25 39 -59 50 -91 50c-63 0 -112 -61 -112 -149c0 -100 53 -145 108 -145zM204 639c0 40 32 73 72 73s73 -33 73 -73s-33 -72 -73 -72s-72 32 -72 72z" />
    <glyph glyph-name="iacute" unicode="&#xed;" horiz-adv-x="292" 
d="M43 556l102 181h157l-132 -181h-127zM225 510v-510h-145v430l-45 80h190z" />
    <glyph glyph-name="icircumflex" unicode="&#xee;" horiz-adv-x="292" 
d="M-35 561l114 182h128l114 -182h-129l-49 65l-48 -65h-130zM225 510v-510h-145v430l-45 80h190z" />
    <glyph glyph-name="idieresis" unicode="&#xef;" horiz-adv-x="292" 
d="M-31 638c0 40 32 73 72 73s73 -33 73 -73s-33 -72 -73 -72s-72 32 -72 72zM162 638c0 40 32 73 72 73s73 -33 73 -73s-33 -72 -73 -72s-72 32 -72 72zM225 510v-510h-145v430l-45 80h190z" />
    <glyph glyph-name="igrave" unicode="&#xec;" horiz-adv-x="292" 
d="M225 510v-510h-145v430l-45 80h190zM112 737l102 -181h-127l-132 181h157z" />
    <glyph glyph-name="imacron" unicode="&#x12b;" horiz-adv-x="292" 
d="M225 510v-510h-145v430l-45 80h190zM-17 569v116h299v-116h-299z" />
    <glyph glyph-name="iogonek" unicode="&#x12f;" horiz-adv-x="292" 
d="M225 510v-510c-65 -39 -83 -76 -90 -109c6 -4 23 -8 33 -8c16 0 29 0 55 10v-101c-23 -10 -52 -16 -76 -16c-92 0 -127 47 -144 88c5 40 21 93 77 147v419l-45 80h190z" />
    <glyph glyph-name="uniA743" unicode="&#xa743;" horiz-adv-x="553" 
d="M211 0h-145v641l-45 78h190v-357l159 148h186l-232 -209c22 -13 42 -27 61 -44l81 70l68 -93l-74 -64c29 -46 51 -102 67 -170h-143c-8 29 -18 55 -30 79l-42 -37l-69 94l42 36c-18 16 -37 30 -58 42l-16 -15v-199z" />
    <glyph glyph-name="mdotaccent" unicode="&#x1e41;" horiz-adv-x="863" 
d="M211 510v-58l71 64c86 -1 153 -32 192 -88l99 88c141 -1 230 -83 230 -222v-294h-146v282c0 65 -25 94 -57 102l-89 -71c1 -6 1 -13 1 -19v-294h-146v282c0 65 -25 94 -57 102l-88 -70v-314h-146v430l-45 80h181zM359 639c0 40 32 73 72 73s73 -33 73 -73
s-33 -72 -73 -72s-72 32 -72 72z" />
    <glyph glyph-name="ntilde" unicode="&#xf1;" horiz-adv-x="597" 
d="M211 510v-61l81 67c152 -1 245 -83 245 -222v-294h-146v282c0 65 -29 94 -72 102l-98 -73v-311h-146v430l-45 80h181zM327 559l-103 63c-10 -8 -25 -26 -31 -62h-99c7 126 84 179 150 184l103 -63c10 8 25 26 31 62h99c-7 -126 -84 -179 -150 -184z" />
    <glyph glyph-name="oacute" unicode="&#xf3;" horiz-adv-x="620" 
d="M200 556l102 181h157l-132 -181h-127zM310 402c69 0 120 -66 120 -147s-51 -147 -120 -147s-120 66 -120 147s51 147 120 147zM307 -11c147 0 270 119 270 267c0 146 -113 265 -264 265c-147 0 -270 -119 -270 -267c0 -146 113 -265 264 -265z" />
    <glyph glyph-name="ocircumflex" unicode="&#xf4;" horiz-adv-x="620" 
d="M132 561l114 182h128l114 -182h-129l-49 65l-48 -65h-130zM310 402c69 0 120 -66 120 -147s-51 -147 -120 -147s-120 66 -120 147s51 147 120 147zM307 -11c147 0 270 119 270 267c0 146 -113 265 -264 265c-147 0 -270 -119 -270 -267c0 -146 113 -265 264 -265z" />
    <glyph glyph-name="odieresis" unicode="&#xf6;" horiz-adv-x="620" 
d="M141 638c0 40 32 73 72 73s73 -33 73 -73s-33 -72 -73 -72s-72 32 -72 72zM334 638c0 40 32 73 72 73s73 -33 73 -73s-33 -72 -73 -72s-72 32 -72 72zM310 402c69 0 120 -66 120 -147s-51 -147 -120 -147s-120 66 -120 147s51 147 120 147zM307 -11
c147 0 270 119 270 267c0 146 -113 265 -264 265c-147 0 -270 -119 -270 -267c0 -146 113 -265 264 -265z" />
    <glyph glyph-name="ograve" unicode="&#xf2;" horiz-adv-x="620" 
d="M310 402c69 0 120 -66 120 -147s-51 -147 -120 -147s-120 66 -120 147s51 147 120 147zM307 -11c147 0 270 119 270 267c0 146 -113 265 -264 265c-147 0 -270 -119 -270 -267c0 -146 113 -265 264 -265zM317 737l102 -181h-127l-132 181h157z" />
    <glyph glyph-name="omacron" unicode="&#x14d;" horiz-adv-x="620" 
d="M161 569v116h299v-116h-299zM310 402c69 0 120 -66 120 -147s-51 -147 -120 -147s-120 66 -120 147s51 147 120 147zM307 -11c147 0 270 119 270 267c0 146 -113 265 -264 265c-147 0 -270 -119 -270 -267c0 -146 113 -265 264 -265z" />
    <glyph glyph-name="otilde" unicode="&#xf5;" horiz-adv-x="620" 
d="M310 402c69 0 120 -66 120 -147s-51 -147 -120 -147s-120 66 -120 147s51 147 120 147zM307 -11c147 0 270 119 270 267c0 146 -113 265 -264 265c-147 0 -270 -119 -270 -267c0 -146 113 -265 264 -265zM351 559l-103 63c-10 -8 -25 -26 -31 -62h-99
c7 126 84 179 150 184l103 -63c10 8 25 26 31 62h99c-7 -126 -84 -179 -150 -184z" />
    <glyph glyph-name="pdotaccent" unicode="&#x1e57;" horiz-adv-x="614" 
d="M75 -201v631l-45 80h181v-38c33 26 75 44 131 44c129 0 229 -111 229 -255c0 -159 -120 -272 -267 -272c-28 0 -56 6 -83 17v-207h-146zM316 400c-31 0 -66 -13 -95 -52v-213c22 -19 48 -29 74 -29c69 0 129 61 129 149c0 100 -53 145 -108 145zM233 639
c0 40 32 73 72 73s73 -33 73 -73s-33 -72 -73 -72s-72 32 -72 72z" />
    <glyph glyph-name="uni027C" unicode="&#x27c;" horiz-adv-x="460" 
d="M31 510h180v-74l69 74c75 -9 123 -31 165 -80l-74 -105c-29 36 -58 42 -71 49l-79 -73v-502h-146v631z" />
    <glyph glyph-name="longs" unicode="&#x17f;" horiz-adv-x="321" 
d="M75 344v280c42 61 121 106 212 106c32 0 63 0 101 -13v-117c-29 11 -60 12 -83 12c-34 0 -70 -16 -84 -30v-582h-146v245h-56z" />
    <glyph glyph-name="uni1E9B" unicode="&#x1e9b;" horiz-adv-x="321" 
d="M75 344v280c42 61 121 106 212 106c32 0 63 0 101 -13v-117c-29 11 -60 12 -83 12c-34 0 -70 -16 -84 -30v-582h-146v245h-56zM193 832c0 40 32 73 72 73s73 -33 73 -73s-33 -72 -73 -72s-72 32 -72 72z" />
    <glyph glyph-name="sdotaccent" unicode="&#x1e61;" horiz-adv-x="487" 
d="M396 320l-44 69c-18 12 -43 20 -67 20c-37 0 -67 -15 -80 -40l252 -178c-15 -108 -92 -202 -228 -202c-82 0 -144 27 -199 83l70 90c47 -42 83 -55 125 -55c39 0 58 11 72 36l-252 178c16 110 98 200 235 200c52 0 112 -14 174 -57zM180 639c0 40 32 73 72 73
s73 -33 73 -73s-33 -72 -73 -72s-72 32 -72 72z" />
    <glyph glyph-name="tdotaccent" unicode="&#x1e6b;" horiz-adv-x="365" 
d="M70 656h146v-146h109v-112h-109v-216c0 -51 21 -69 66 -69c14 0 26 1 40 3v-118c-38 -4 -54 -4 -68 -4c-140 0 -184 66 -184 183v221h-67l67 97v161zM72 755c0 40 32 73 72 73s73 -33 73 -73s-33 -72 -73 -72s-72 32 -72 72z" />
    <glyph glyph-name="uacute" unicode="&#xfa;" horiz-adv-x="601" 
d="M219 556l102 181h157l-132 -181h-127zM42 510h190v-282c0 -65 29 -94 72 -102l98 73v311h146v-510h-136v60l-81 -66c-152 1 -245 83 -245 222v214z" />
    <glyph glyph-name="ucircumflex" unicode="&#xfb;" horiz-adv-x="601" 
d="M137 561l114 182h128l114 -182h-129l-49 65l-48 -65h-130zM42 510h190v-282c0 -65 29 -94 72 -102l98 73v311h146v-510h-136v60l-81 -66c-152 1 -245 83 -245 222v214z" />
    <glyph glyph-name="udieresis" unicode="&#xfc;" horiz-adv-x="601" 
d="M139 638c0 40 32 73 72 73s73 -33 73 -73s-33 -72 -73 -72s-72 32 -72 72zM332 638c0 40 32 73 72 73s73 -33 73 -73s-33 -72 -73 -72s-72 32 -72 72zM42 510h190v-282c0 -65 29 -94 72 -102l98 73v311h146v-510h-136v60l-81 -66c-152 1 -245 83 -245 222v214z" />
    <glyph glyph-name="ugrave" unicode="&#xf9;" horiz-adv-x="601" 
d="M42 510h190v-282c0 -65 29 -94 72 -102l98 73v311h146v-510h-136v60l-81 -66c-152 1 -245 83 -245 222v214zM287 737l102 -181h-127l-132 181h157z" />
    <glyph glyph-name="umacron" unicode="&#x16b;" horiz-adv-x="601" 
d="M42 510h190v-282c0 -65 29 -94 72 -102l98 73v311h146v-510h-136v60l-81 -66c-152 1 -245 83 -245 222v214zM166 569v116h299v-116h-299z" />
    <glyph glyph-name="uogonek" unicode="&#x173;" horiz-adv-x="601" 
d="M42 510h190v-282c0 -65 29 -94 72 -102l98 73v311h146v-510c-65 -39 -83 -76 -90 -109c6 -4 23 -8 33 -8c16 0 29 0 55 10v-101c-23 -10 -52 -16 -76 -16c-92 0 -127 47 -144 88c5 42 23 99 86 155v41l-81 -66c-152 1 -245 83 -245 222v214z" />
    <glyph glyph-name="wacute" unicode="&#x1e83;" horiz-adv-x="783" 
d="M296 556l102 181h157l-132 -181h-127zM776 510l-175 -510h-128l-62 183l-67 -183h-122l-215 510h158l128 -328l54 160l-64 168h153l105 -314l69 229l-36 85h202z" />
    <glyph glyph-name="wcircumflex" unicode="&#x175;" horiz-adv-x="783" 
d="M194 561l114 182h128l114 -182h-129l-49 65l-48 -65h-130zM776 510l-175 -510h-128l-62 183l-67 -183h-122l-215 510h158l128 -328l54 160l-64 168h153l105 -314l69 229l-36 85h202z" />
    <glyph glyph-name="wdieresis" unicode="&#x1e85;" horiz-adv-x="783" 
d="M205 638c0 40 32 73 72 73s73 -33 73 -73s-33 -72 -73 -72s-72 32 -72 72zM398 638c0 40 32 73 72 73s73 -33 73 -73s-33 -72 -73 -72s-72 32 -72 72zM776 510l-175 -510h-128l-62 183l-67 -183h-122l-215 510h158l128 -328l54 160l-64 168h153l105 -314l69 229l-36 85
h202z" />
    <glyph glyph-name="wgrave" unicode="&#x1e81;" horiz-adv-x="783" 
d="M776 510l-175 -510h-128l-62 183l-67 -183h-122l-215 510h158l128 -328l54 160l-64 168h153l105 -314l69 229l-36 85h202zM384 737l102 -181h-127l-132 181h157z" />
    <glyph glyph-name="yacute" unicode="&#xfd;" horiz-adv-x="537" 
d="M530 510l-218 -700h-149l67 209c-145 120 -197 298 -210 491h154c10 -151 39 -251 108 -331l77 258l-34 73h205zM164 556l102 181h157l-132 -181h-127z" />
    <glyph glyph-name="ycircumflex" unicode="&#x177;" horiz-adv-x="537" 
d="M530 510l-218 -700h-149l67 209c-145 120 -197 298 -210 491h154c10 -151 39 -251 108 -331l77 258l-34 73h205zM73 561l114 182h128l114 -182h-129l-49 65l-48 -65h-130z" />
    <glyph glyph-name="ydieresis" unicode="&#xff;" horiz-adv-x="537" 
d="M530 510l-218 -700h-149l67 209c-145 120 -197 298 -210 491h154c10 -151 39 -251 108 -331l77 258l-34 73h205zM74 638c0 40 32 73 72 73s73 -33 73 -73s-33 -72 -73 -72s-72 32 -72 72zM267 638c0 40 32 73 72 73s73 -33 73 -73s-33 -72 -73 -72s-72 32 -72 72z" />
    <glyph glyph-name="ygrave" unicode="&#x1ef3;" horiz-adv-x="537" 
d="M530 510l-218 -700h-149l67 209c-145 120 -197 298 -210 491h154c10 -151 39 -251 108 -331l77 258l-34 73h205zM253 737l102 -181h-127l-132 181h157z" />
    <glyph glyph-name="ymacron" unicode="&#x233;" horiz-adv-x="537" 
d="M530 510l-218 -700h-149l67 209c-145 120 -197 298 -210 491h154c10 -151 39 -251 108 -331l77 258l-34 73h205zM92 569v116h299v-116h-299z" />
    <glyph glyph-name="cacute" unicode="&#x107;" horiz-adv-x="489" 
d="M216 556l102 181h157l-132 -181h-127zM438 501v-174l-102 79h-9c-83 0 -137 -66 -137 -151c0 -89 47 -144 143 -144c44 0 65 4 113 23v-122c-39 -14 -84 -23 -121 -23c-168 0 -282 105 -282 265c0 148 126 267 279 267c35 0 75 -6 116 -20z" />
    <glyph glyph-name="nacute" unicode="&#x144;" horiz-adv-x="597" 
d="M196 556l102 181h157l-132 -181h-127zM211 510v-61l81 67c152 -1 245 -83 245 -222v-294h-146v282c0 65 -29 94 -72 102l-98 -73v-311h-146v430l-45 80h181z" />
    <glyph glyph-name="sacute" unicode="&#x15b;" horiz-adv-x="487" 
d="M184 556l102 181h157l-132 -181h-127zM396 320l-44 69c-18 12 -43 20 -67 20c-37 0 -67 -15 -80 -40l252 -178c-15 -108 -92 -202 -228 -202c-82 0 -144 27 -199 83l70 90c47 -42 83 -55 125 -55c39 0 58 11 72 36l-252 178c16 110 98 200 235 200c52 0 112 -14 174 -57z
" />
    <glyph glyph-name="zdot" unicode="&#x17c;" horiz-adv-x="485" 
d="M42 344v166h401v-96l-219 -296h221v-118h-405v96l220 298h-125zM170 639c0 40 32 73 72 73s73 -33 73 -73s-33 -72 -73 -72s-72 32 -72 72z" />
    <glyph glyph-name="zacute" unicode="&#x17a;" horiz-adv-x="485" 
d="M157 556l102 181h157l-132 -181h-127zM42 344v166h401v-96l-219 -296h221v-118h-405v96l220 298h-125z" />
    <glyph glyph-name="C_H" horiz-adv-x="1201" 
d="M1126 685v-685h-153v280h-211v-280h-341c-245 0 -379 144 -375 342c0 195 147 354 345 354c33 0 71 -6 113 -19v-165l-80 54c-11 1 -24 1 -28 1c-119 0 -195 -98 -195 -218c0 -129 73 -226 226 -226h182v562h153v-277h211v277h153z" />
    <glyph glyph-name="C_h" horiz-adv-x="1131" 
d="M609 123v596h146v-261l71 58c152 -1 245 -83 245 -222v-294h-146v282c0 65 -29 94 -72 102l-98 -73v-311h-334c-245 0 -379 144 -375 342c0 195 147 354 345 354c33 0 71 -6 113 -19v-165l-80 54c-11 1 -24 1 -28 1c-119 0 -195 -98 -195 -218c0 -129 73 -226 226 -226
h182z" />
    <glyph glyph-name="c_h" horiz-adv-x="1051" 
d="M484 719h191v-261l71 58c152 -1 245 -83 245 -222v-294h-146v282c0 65 -29 94 -72 102l-98 -73v-311h-340c-174 0 -292 94 -292 254c0 148 121 267 264 267c35 0 76 -6 116 -20v-174l-102 79h-9c-72 0 -122 -66 -122 -151c0 -90 50 -136 153 -136h186v520z" />
    <glyph glyph-name="C_quoteright_H" horiz-adv-x="1438" 
d="M999 685v-277h211v277h153v-685h-153v280h-211v-280h-153v685h153zM434 685v-127h-30c-123 0 -203 -98 -203 -209c0 -126 75 -232 196 -232c48 0 73 3 132 24v-127c-45 -17 -99 -25 -138 -25c-213 0 -349 155 -345 353c0 186 151 343 358 343h30zM542 364l-63 78
c52 40 98 96 107 138l-45 105h185v-35c0 -116 -72 -204 -184 -286z" />
    <glyph glyph-name="C_quoteright_h" horiz-adv-x="1363" 
d="M987 0h-146v719h146v-261l71 58c152 -1 245 -83 245 -222v-294h-146v282c0 65 -29 94 -72 102l-98 -73v-311zM434 685v-127h-30c-123 0 -203 -98 -203 -209c0 -126 75 -232 196 -232c48 0 73 3 132 24v-127c-45 -17 -99 -25 -138 -25c-213 0 -349 155 -345 353
c0 186 151 343 358 343h30zM542 364l-63 78c52 40 98 96 107 138l-45 105h185v-35c0 -116 -72 -204 -184 -286z" />
    <glyph glyph-name="c_quoteright_h" horiz-adv-x="1338" 
d="M962 0h-146v719h146v-261l71 58c152 -1 245 -83 245 -222v-294h-146v282c0 65 -29 94 -72 102l-98 -73v-311zM363 521v-120h-26c-104 0 -147 -64 -147 -146c0 -89 47 -144 143 -144c44 0 65 4 113 23v-122c-39 -14 -84 -23 -121 -23c-168 0 -282 105 -282 265
c0 148 118 267 289 267h31zM517 364l-63 78c52 40 98 96 107 138l-45 105h185v-35c0 -116 -72 -204 -184 -286z" />
    <glyph glyph-name="F_F" horiz-adv-x="1012" 
d="M980 685v-128h-250v-164h200v-127h-200v-266h-153v685h403zM419 393v-127h-190v-266h-153v605l-45 80h428v-128h-230v-164h190z" />
    <glyph glyph-name="F_f" horiz-adv-x="886" 
d="M419 393v-127h-190v-266h-153v605l-45 80h428v-128h-230v-164h190zM566 496v128c42 61 121 106 212 106c32 0 63 0 101 -13v-117c-29 11 -60 12 -83 12c-34 0 -70 -16 -84 -30v-72h140v-113h-140v-397h-146v397h-56z" />
    <glyph glyph-name="G_h" horiz-adv-x="1227" 
d="M660 719h191v-261l71 58c152 -1 245 -83 245 -222v-294h-146v282c0 65 -29 94 -72 102l-98 -73v-311h-146v639zM396 133h29v134h-116v129h261v-396h-174c-225 0 -361 149 -356 342c0 195 160 354 371 354c34 0 72 -3 114 -16v-168l-80 54c-12 1 -23 1 -28 1
c-147 0 -222 -98 -222 -218c0 -121 69 -216 201 -216z" />
    <glyph glyph-name="g_h" horiz-adv-x="1100" 
d="M533 719h191v-261l71 58c152 -1 245 -83 245 -222v-294h-146v282c0 65 -29 94 -72 102l-98 -73v-311h-146v397h-193c-108 -67 -170 -176 -175 -274h257v-91c0 -212 -127 -253 -244 -253c-54 0 -110 7 -171 22v129c57 -15 124 -25 178 -25c56 0 92 27 88 95h-252
c-13 164 36 314 140 397h-82l-80 -45v158h534v129z" />
    <glyph glyph-name="G_w" horiz-adv-x="1388" 
d="M1381 510l-175 -510h-134l-54 160l-59 -160h-132l-125 292h-132v-292h-174c-225 0 -361 149 -356 342c0 195 160 354 371 354c34 0 72 -3 114 -16v-168l-80 54c-12 1 -23 1 -28 1c-147 0 -222 -98 -222 -218c0 -121 69 -216 201 -216h29v159h-116v124h498l88 -226l52 156
l-62 164h156l101 -302l69 228l-32 74h202z" />
    <glyph glyph-name="g_w" horiz-adv-x="1256" 
d="M1079 436l-32 74h202l-175 -510h-134l-54 160l-59 -160h-129l-168 398h-143c-109 -66 -172 -177 -177 -275h257v-91c0 -212 -127 -253 -244 -253c-54 0 -110 7 -171 22v129c57 -15 124 -25 178 -25c56 0 92 27 88 95h-252c-14 165 36 315 141 398h-83l-80 -45v157h594
l125 -320l52 156l-62 164h156l101 -302z" />
    <glyph glyph-name="L_L" horiz-adv-x="926" 
d="M229 685v-557h204v-128h-358v607l-44 78h198zM682 685v-557h224v-128h-378v607l-44 78h198z" />
    <glyph glyph-name="L_l" horiz-adv-x="751" 
d="M229 685v-557h204v-128h-358v607l-44 78h198zM676 -9c-124 0 -158 64 -158 158v490l-45 80h191v-566c0 -28 12 -41 45 -41c8 0 17 1 27 2v-117c-12 -2 -43 -6 -60 -6z" />
    <glyph glyph-name="l_l" horiz-adv-x="585" 
d="M223 -9c-124 0 -158 64 -158 158v490l-45 80h191v-566c0 -28 10 -41 39 -41c7 0 14 1 23 2v-117c-10 -2 -36 -6 -50 -6zM510 -9c-124 0 -158 64 -158 158v490l-45 80h191v-566c0 -28 11 -41 45 -41c8 0 17 1 27 2v-117c-12 -2 -43 -6 -60 -6z" />
    <glyph glyph-name="T_H" horiz-adv-x="1192" 
d="M1117 685v-685h-153v280h-211v-280h-153v560h-257v-412c16 -17 44 -30 81 -30c23 0 42 4 65 11l1 -126c-26 -9 -56 -14 -84 -14c-115 0 -177 45 -216 96v475h-91l-79 -47v172h733v-277h211v277h153z" />
    <glyph glyph-name="T_h" horiz-adv-x="1122" 
d="M99 560l-79 -47v172h580l146 34v-261l71 58c152 -1 245 -83 245 -222v-294h-146v282c0 65 -29 94 -72 102l-98 -73v-311h-146v560h-257v-412c16 -17 44 -30 81 -30c23 0 42 4 65 11l1 -126c-26 -9 -56 -14 -84 -14c-115 0 -177 45 -216 96v475h-91z" />
    <glyph glyph-name="t_h" horiz-adv-x="947" 
d="M380 719h191v-261l71 58c152 -1 245 -83 245 -222v-294h-146v282c0 65 -29 94 -72 102l-98 -73v-311h-239c-216 0 -262 87 -262 237v161h-67l67 97v161h146v-146h99v-112h-99v-156c0 -91 26 -126 116 -126h93v523z" />
    <glyph glyph-name="Z_H" horiz-adv-x="1217" 
d="M1142 685v-685h-153v280h-211v-280h-743v113l282 444h-200l-78 -47v175h455v-111l-285 -446h416v557h153v-277h211v277h153z" />
    <glyph glyph-name="z_h" horiz-adv-x="1068" 
d="M501 719h191v-261l71 58c152 -1 245 -83 245 -222v-294h-146v282c0 65 -29 94 -72 102l-98 -73v-311h-652v96l211 298h-116l-93 -50v166h381v-96l-211 -296h334v521z" />
    <glyph glyph-name="acute" unicode="&#xb4;" horiz-adv-x="560" 
d="M150 556l102 181h157l-132 -181h-127z" />
    <glyph glyph-name="grave" unicode="`" horiz-adv-x="560" 
d="M307 737l102 -181h-127l-132 181h157z" />
    <glyph glyph-name="circumflex" unicode="&#x2c6;" horiz-adv-x="560" 
d="M102 561l114 182h128l114 -182h-129l-49 65l-48 -65h-130z" />
    <glyph glyph-name="dieresis" unicode="&#xa8;" horiz-adv-x="560" 
d="M111 638c0 40 32 73 72 73s73 -33 73 -73s-33 -72 -73 -72s-72 32 -72 72zM304 638c0 40 32 73 72 73s73 -33 73 -73s-33 -72 -73 -72s-72 32 -72 72z" />
    <glyph glyph-name="dotaccent" unicode="&#x2d9;" horiz-adv-x="560" 
d="M207 639c0 40 32 73 72 73s73 -33 73 -73s-33 -72 -73 -72s-72 32 -72 72z" />
    <glyph glyph-name="tilde" unicode="&#x2dc;" horiz-adv-x="560" 
d="M321 559l-103 63c-10 -8 -25 -26 -31 -62h-99c7 126 84 179 150 184l103 -63c10 8 25 26 31 62h99c-7 -126 -84 -179 -150 -184z" />
    <glyph glyph-name="ring" unicode="&#x2da;" horiz-adv-x="560" 
d="M278 546c-79 0 -131 52 -131 120c0 67 54 120 134 120c79 0 132 -53 132 -120c0 -68 -55 -120 -135 -120zM278 630c22 0 33 15 33 36s-10 36 -32 36c-21 0 -32 -15 -32 -36s9 -36 31 -36z" />
    <glyph glyph-name="cedilla" unicode="&#xb8;" horiz-adv-x="560" 
d="M165 -294v89c72 19 95 41 95 62c0 15 -12 24 -37 24h-50l15 145h105v-67c80 -7 102 -48 102 -88c0 -67 -68 -126 -230 -165z" />
    <glyph glyph-name="macron" unicode="&#xaf;" horiz-adv-x="560" 
d="M130 569v116h299v-116h-299z" />
    <glyph glyph-name="ogonek" unicode="&#x2db;" horiz-adv-x="560" 
d="M391 105v-105c-65 -39 -83 -76 -90 -109c6 -4 23 -8 33 -8c16 0 29 0 55 10v-101c-23 -10 -52 -16 -76 -16c-92 0 -127 47 -144 88c8 63 45 161 222 241z" />
    <glyph glyph-name="zero" unicode="0" horiz-adv-x="704" 
d="M352 117c90 0 147 99 147 219c0 122 -57 231 -149 231c-88 0 -144 -98 -144 -218c0 -122 56 -232 146 -232zM352 -11c-180 0 -305 159 -301 353c0 195 127 354 301 354c176 0 302 -159 302 -354c0 -194 -127 -353 -302 -353z" />
    <glyph glyph-name="one" unicode="1" horiz-adv-x="313" 
d="M238 685v-685h-153v533h-76l84 152h145z" />
    <glyph glyph-name="two" unicode="2" horiz-adv-x="571" 
d="M64 113l288 425c-18 16 -54 30 -89 30s-73 -13 -101 -36l-39 -80l-93 141c68 63 148 103 238 103c138 0 228 -64 263 -152l-289 -416h284v-128h-462v113z" />
    <glyph glyph-name="three" unicode="3" horiz-adv-x="549" 
d="M148 294v105l141 158h-150l-79 -47v175h422v-113l-158 -168c143 -18 175 -115 175 -193c0 -137 -110 -222 -263 -222c-54 0 -115 11 -174 38v128c78 -32 127 -42 174 -42c62 0 108 31 108 94c0 47 -19 111 -196 87z" />
    <glyph glyph-name="four" unicode="4" horiz-adv-x="620" 
d="M494 405v-134h86v-128h-86v-143h-153v143h-301v111l199 431h169l-200 -414h133v72l-24 62h177z" />
    <glyph glyph-name="five" unicode="5" horiz-adv-x="541" 
d="M71 326v359h390v-176l-79 48h-169v-110h7c214 0 271 -118 271 -227c0 -142 -111 -231 -257 -231c-65 0 -122 11 -184 34v131c76 -34 136 -41 179 -41c65 0 107 35 107 104c0 67 -31 109 -152 109h-113z" />
    <glyph glyph-name="six" unicode="6" horiz-adv-x="642" 
d="M412 573c-103 0 -163 -46 -186 -147c36 22 81 33 138 33c149 0 228 -110 228 -226c0 -141 -106 -244 -257 -244c-181 0 -275 124 -275 315c0 238 127 392 332 392c54 0 95 -7 134 -20v-163l-82 58c-10 1 -26 2 -32 2zM332 332c-45 0 -82 -14 -118 -41
c3 -119 47 -178 121 -178c59 0 102 46 102 117c0 58 -36 102 -105 102z" />
    <glyph glyph-name="seven" unicode="7" horiz-adv-x="553" 
d="M247 0h-171l268 557h-225l-79 -47v175h473v-110z" />
    <glyph glyph-name="eight" unicode="8" horiz-adv-x="625" 
d="M309 -11c-161 0 -259 86 -259 211c0 61 37 127 124 168c-67 35 -96 89 -96 132c0 104 88 196 238 196c152 0 230 -91 230 -196c0 -47 -27 -95 -90 -134c85 -40 119 -107 119 -166c0 -123 -106 -211 -266 -211zM311 116c68 0 110 43 110 97c0 53 -44 85 -108 85
c-62 0 -109 -29 -109 -87c0 -52 39 -95 107 -95zM313 418c50 0 87 26 87 73c0 41 -28 82 -86 82c-59 0 -89 -41 -89 -82c0 -44 37 -73 88 -73z" />
    <glyph glyph-name="nine" unicode="9" horiz-adv-x="642" 
d="M230 111c103 0 163 46 186 147c-36 -22 -81 -33 -138 -33c-149 0 -228 110 -228 226c0 141 106 244 257 244c181 0 275 -124 275 -315c0 -238 -127 -392 -332 -392c-54 0 -95 7 -134 20v163l82 -58c10 -1 26 -2 32 -2zM310 352c45 0 82 14 118 41
c-3 119 -47 178 -121 178c-59 0 -102 -46 -102 -117c0 -58 36 -102 105 -102z" />
    <glyph glyph-name="Euro" unicode="&#x20ac;" horiz-adv-x="614" 
d="M20 322h56v20v15h-56v104h76c47 137 175 235 338 235c33 0 71 -6 113 -19v-165l-80 54c-11 1 -24 1 -28 1c-85 0 -148 -43 -182 -106h218v-104h-244v-8c0 -9 0 -18 1 -27h243v-104h-213c33 -61 90 -101 165 -101c48 0 73 3 132 24v-127c-45 -17 -99 -25 -138 -25
c-166 0 -285 94 -328 229h-73v104z" />
    <glyph glyph-name="dollar" unicode="$" horiz-adv-x="571" 
d="M35 81l83 104c55 -44 112 -63 155 -63c35 0 69 18 85 47l-309 306c13 89 72 168 164 202v123h135v-105c65 -5 117 -24 178 -70l-67 -155l-38 74c-25 17 -52 26 -88 26c-57 0 -97 -23 -113 -55l316 -312c-18 -86 -77 -176 -188 -204v-114h-135v109c-69 10 -129 42 -178 87
z" />
    <glyph glyph-name="cent" unicode="&#xa2;" horiz-adv-x="513" 
d="M227 501v126h135v-107c27 -3 57 -9 88 -19v-174l-102 79h-9c-83 0 -137 -66 -137 -151c0 -89 47 -144 143 -144c44 0 65 4 113 23v-122c-31 -11 -65 -19 -96 -22v-105h-135v121c-106 36 -172 126 -172 248c0 112 72 207 173 247h-1z" />
    <glyph glyph-name="sterling" unicode="&#xa3;" horiz-adv-x="558" 
d="M55 439h47v125c31 63 112 132 232 132c72 0 141 -27 189 -68l-80 -134l-43 66c-16 6 -33 10 -62 10c-41 0 -72 -15 -88 -41v-90h190v-104h-190v-33h190v-104h-190v-70h248v-128h-440v128h44v70h-47v104h47v33h-47v104z" />
    <glyph glyph-name="yen" unicode="&#xa5;" horiz-adv-x="659" 
d="M115 183h149v33h-149v104h115l-210 365h170l151 -284l111 224l-24 60h211l-194 -365h124v-104h-152v-33h152v-104h-152v-79h-153v79h-149v104z" />
    <glyph glyph-name="ampersand" unicode="&#x26;" horiz-adv-x="674" 
d="M490 0l-45 58c-64 -56 -127 -69 -184 -69c-135 0 -201 77 -201 179c0 72 32 155 118 240l-75 98c29 87 100 190 252 190c71 0 120 -19 188 -65l-74 -152l-52 80c-15 5 -37 11 -59 11c-38 0 -69 -24 -82 -47l398 -523h-184zM273 122c26 0 56 7 92 41l-104 136
c-40 -45 -46 -85 -46 -119s19 -58 58 -58z" />
    <glyph glyph-name="at" unicode="@" horiz-adv-x="860" 
d="M566 13l30 -89c-54 -23 -111 -35 -178 -35c-217 0 -353 144 -353 368c0 217 151 398 388 398c209 0 342 -138 342 -314c0 -118 -49 -238 -213 -296l-37 85c-82 -19 -178 -44 -259 -63c-19 46 -28 92 -28 137c0 111 56 209 156 253l-27 68h141l124 -310
c24 29 38 61 38 126c0 115 -78 220 -234 220c-169 0 -287 -129 -287 -302c0 -156 93 -272 253 -272c48 0 95 7 144 26zM458 352c-55 -26 -75 -73 -75 -133v-9l121 30z" />
    <glyph glyph-name="asterisk" unicode="*" horiz-adv-x="555" 
d="M189 348l-95 68l91 129l-150 50l35 106l148 -51l-1 155h121v-153l150 47l32 -105l-150 -49l92 -128l-94 -65l-90 122z" />
    <glyph glyph-name="parenleft" unicode="(" horiz-adv-x="402" 
d="M50 309c0 242 103 473 352 535v-130c-138 -56 -196 -216 -196 -394v-22c0 -178 58 -338 196 -394v-130c-249 62 -352 293 -352 535z" />
    <glyph glyph-name="parenright" unicode=")" horiz-adv-x="402" 
d="M352 309c0 -242 -103 -473 -352 -535v130c138 56 196 216 196 394v22c0 178 -58 338 -196 394v130c249 -62 352 -293 352 -535z" />
    <glyph glyph-name="braceleft" unicode="{" horiz-adv-x="385" 
d="M210 312c59 -16 84 -61 84 -107c0 -79 -50 -150 -87 -265c29 -33 101 -34 158 -23v-106c-110 -19 -245 -7 -306 107c40 145 91 204 91 287c0 28 -24 46 -60 46h-70v123h70c36 0 60 18 60 46c0 83 -51 142 -91 287c61 114 196 126 306 107v-106c-57 11 -129 10 -158 -23
c37 -115 87 -186 87 -265c0 -46 -25 -91 -84 -108z" />
    <glyph glyph-name="braceright" unicode="}" horiz-adv-x="385" 
d="M175 312c-59 17 -84 62 -84 108c0 79 50 150 87 265c-29 33 -101 34 -158 23v106c110 19 245 7 306 -107c-40 -145 -91 -204 -91 -287c0 -28 24 -46 60 -46h70v-123h-70c-36 0 -60 -18 -60 -46c0 -83 51 -142 91 -287c-61 -114 -196 -126 -306 -107v106
c57 -11 129 -10 158 23c-37 115 -87 186 -87 265c0 46 25 91 84 107z" />
    <glyph glyph-name="bracketleft" unicode="[" horiz-adv-x="382" 
d="M75 -215v1047h282v-122h-129v-802h129v-123h-282z" />
    <glyph glyph-name="bracketright" unicode="]" horiz-adv-x="382" 
d="M307 832v-1047h-282v122h129v802h-129v123h282z" />
    <glyph glyph-name="bar" unicode="|" horiz-adv-x="303" 
d="M75 -206v1094h153v-1094h-153z" />
    <glyph glyph-name="slash" unicode="/" horiz-adv-x="414" 
d="M-61 -132l357 918h154l-356 -918h-155z" />
    <glyph glyph-name="backslash" unicode="\" horiz-adv-x="415" 
d="M108 786l356 -918h-155l-355 918h154z" />
    <glyph glyph-name="colon" unicode=":" horiz-adv-x="277" 
d="M45 77c0 47 42 92 96 92c55 0 91 -45 91 -91c0 -47 -42 -92 -96 -92c-55 0 -91 45 -91 91zM45 434c0 47 42 92 96 92c55 0 91 -45 91 -91c0 -47 -42 -92 -96 -92c-55 0 -91 45 -91 91z" />
    <glyph glyph-name="period" unicode="." horiz-adv-x="277" 
d="M45 77c0 47 42 92 96 92c55 0 91 -45 91 -91c0 -47 -42 -92 -96 -92c-55 0 -91 45 -91 91z" />
    <glyph glyph-name="periodcentered" unicode="&#xb7;" horiz-adv-x="277" 
d="M45 320c0 47 42 92 96 92c55 0 91 -45 91 -91c0 -47 -42 -92 -96 -92c-55 0 -91 45 -91 91z" />
    <glyph glyph-name="semicolon" unicode=";" horiz-adv-x="267" 
d="M38 -208l-63 78c52 40 98 96 107 138l-45 105h185v-35c0 -116 -72 -204 -184 -286zM32 434c0 47 42 92 96 92c55 0 91 -45 91 -91c0 -47 -42 -92 -96 -92c-55 0 -91 45 -91 91z" />
    <glyph glyph-name="comma" unicode="," horiz-adv-x="267" 
d="M38 -208l-63 78c52 40 98 96 107 138l-45 105h185v-35c0 -116 -72 -204 -184 -286z" />
    <glyph glyph-name="ellipsis" unicode="&#x2026;" horiz-adv-x="791" 
d="M45 77c0 47 42 92 96 92c55 0 91 -45 91 -91c0 -47 -42 -92 -96 -92c-55 0 -91 45 -91 91zM302 77c0 47 42 92 96 92c55 0 91 -45 91 -91c0 -47 -42 -92 -96 -92c-55 0 -91 45 -91 91zM559 77c0 47 42 92 96 92c55 0 91 -45 91 -91c0 -47 -42 -92 -96 -92
c-55 0 -91 45 -91 91z" />
    <glyph glyph-name="bullet" unicode="&#x2022;" horiz-adv-x="367" 
d="M179 169c-76 0 -129 61 -129 137c0 75 60 137 138 137c76 0 129 -61 129 -137c0 -75 -60 -137 -138 -137z" />
    <glyph glyph-name="hyphen" unicode="-" horiz-adv-x="376" 
d="M30 245v126h316v-126h-316z" />
    <glyph glyph-name="endash" unicode="&#x2013;" horiz-adv-x="368" 
d="M10 245v126h348v-126h-348z" />
    <glyph glyph-name="emdash" unicode="&#x2014;" horiz-adv-x="686" 
d="M10 245v126h666v-126h-666z" />
    <glyph glyph-name="underscore" unicode="_" horiz-adv-x="513" 
d="M10 -145v125h493v-125h-493z" />
    <glyph glyph-name="exclam" unicode="!" horiz-adv-x="269" 
d="M195 198h-120l-19 427v61h158v-61zM50 69c0 43 38 83 87 83s82 -40 82 -82s-38 -83 -87 -83s-82 41 -82 82z" />
    <glyph glyph-name="exclamdown" unicode="&#xa1;" horiz-adv-x="269" 
d="M198 313l16 -428v-60h-158v60c4 126 8 209 16 428h126zM50 439c0 43 38 83 87 83s82 -40 82 -82s-38 -83 -87 -83s-82 41 -82 82z" />
    <glyph glyph-name="question" unicode="?" horiz-adv-x="530" 
d="M310 259v-76h-146v104l175 247c-18 20 -46 34 -93 34c-44 0 -75 -14 -101 -31l-35 -83l-90 143c59 58 139 99 226 99c144 0 227 -67 264 -161zM152 69c0 43 38 83 87 83s82 -40 82 -82s-38 -83 -87 -83s-82 41 -82 82z" />
    <glyph glyph-name="questiondown" unicode="&#xbf;" horiz-adv-x="530" 
d="M220 250v76h146v-104l-175 -247c18 -20 46 -34 93 -34c44 0 75 14 101 31l35 83l90 -143c-59 -58 -139 -99 -226 -99c-144 0 -227 67 -264 161zM378 440c0 -43 -38 -83 -87 -83s-82 40 -82 82s38 83 87 83s82 -41 82 -82z" />
    <glyph glyph-name="guillemotleft" unicode="&#xab;" horiz-adv-x="480" 
d="M227 281l104 191h129l-83 -191l83 -193h-129zM10 281l114 191h130l-95 -191l95 -193h-130z" />
    <glyph glyph-name="guillemotright" unicode="&#xbb;" horiz-adv-x="480" 
d="M253 279l-104 -191h-129l83 191l-83 193h129zM470 279l-114 -191h-130l95 191l-95 193h130z" />
    <glyph glyph-name="guilsinglleft" unicode="&#x2039;" horiz-adv-x="274" 
d="M10 281l114 191h130l-95 -191l95 -193h-130z" />
    <glyph glyph-name="guilsinglright" unicode="&#x203a;" horiz-adv-x="263" 
d="M253 279l-104 -191h-129l83 191l-83 193h129z" />
    <glyph glyph-name="quotesingle" unicode="'" horiz-adv-x="223" 
d="M50 390l-10 295h143l-10 -295h-123z" />
    <glyph glyph-name="quotedbl" unicode="&#x22;" horiz-adv-x="420" 
d="M60 390l-20 295h143v-295h-123zM380 685l-20 -295h-123v295h143z" />
    <glyph glyph-name="quotedblleft" unicode="&#x201c;" horiz-adv-x="535" 
d="M229 695l63 -78c-52 -40 -98 -96 -107 -138l45 -105h-185v35c0 116 72 204 184 286zM447 695l63 -78c-52 -40 -98 -96 -107 -138l45 -105h-185v35c0 116 72 204 184 286z" />
    <glyph glyph-name="quotedblright" unicode="&#x201d;" horiz-adv-x="535" 
d="M88 364l-63 78c52 40 98 96 107 138l-45 105h185v-35c0 -116 -72 -204 -184 -286zM306 364l-63 78c52 40 98 96 107 138l-45 105h185v-35c0 -116 -72 -204 -184 -286z" />
    <glyph glyph-name="quoteleft" unicode="&#x2018;" horiz-adv-x="317" 
d="M229 695l63 -78c-52 -40 -98 -96 -107 -138l45 -105h-185v35c0 116 72 204 184 286z" />
    <glyph glyph-name="quoteright" unicode="&#x2019;" horiz-adv-x="317" 
d="M88 364l-63 78c52 40 98 96 107 138l-45 105h185v-35c0 -116 -72 -204 -184 -286z" />
    <glyph glyph-name="quotedblbase" unicode="&#x201e;" horiz-adv-x="485" 
d="M38 -208l-63 78c52 40 98 96 107 138l-45 105h185v-35c0 -116 -72 -204 -184 -286zM256 -208l-63 78c52 40 98 96 107 138l-45 105h185v-35c0 -116 -72 -204 -184 -286z" />
    <glyph glyph-name="quotesinglbase" unicode="&#x201a;" horiz-adv-x="267" 
d="M38 -208l-63 78c52 40 98 96 107 138l-45 105h185v-35c0 -116 -72 -204 -184 -286z" />
    <glyph glyph-name="copyright" unicode="&#xa9;" horiz-adv-x="788" 
d="M390 -23c-210 0 -345 151 -345 341s144 342 353 342c210 0 345 -152 345 -342s-144 -341 -353 -341zM390 68c147 0 247 110 247 250s-93 251 -239 251s-246 -111 -246 -251s93 -250 238 -250zM495 499v-121l-76 48h-7c-46 0 -81 -48 -81 -100c0 -76 44 -102 90 -102
c38 0 59 9 92 32v-93c-27 -18 -59 -32 -105 -32c-100 0 -185 75 -185 194c0 103 92 189 185 189c31 0 62 -5 87 -15z" />
    <glyph glyph-name="registered" unicode="&#xae;" horiz-adv-x="533" 
d="M262 296c-147 0 -242 109 -242 248s100 248 248 248c147 0 245 -109 245 -248s-102 -248 -251 -248zM262 362c109 0 180 76 180 182s-65 183 -174 183c-106 0 -180 -77 -180 -183s70 -182 174 -182zM246 675c81 0 114 -39 114 -88c0 -25 -14 -49 -34 -67l63 -109h-88
l-49 95h-13v-95h-77v223l-20 41h104zM283 587c0 21 -12 31 -40 31h-4v-57h28c7 4 16 16 16 26z" />
    <glyph glyph-name="paragraph" unicode="&#xb6;" horiz-adv-x="759" 
d="M326 685h177v-685h-108v224c-21 -2 -47 -3 -72 -3c-134 0 -263 58 -263 236c0 129 77 228 266 228zM561 0v685h151l-43 -71v-614h-108z" />
    <glyph glyph-name="section" unicode="&#xa7;" horiz-adv-x="519" 
d="M117 418l342 -231c-14 -104 -89 -198 -220 -198c-86 0 -148 35 -204 93l73 94c57 -54 94 -69 133 -69c25 0 51 11 62 36l-258 169zM277 696c55 0 117 -16 184 -63l-71 -131l-48 67c-16 9 -34 14 -58 14c-34 0 -57 -15 -68 -35l268 -181l-69 -107l-358 243
c16 103 95 193 220 193z" />
    <glyph glyph-name="numbersign" unicode="#" horiz-adv-x="669" 
d="M50 337l19 114h99c4 35 12 80 16 113h142l-16 -113h87c4 35 12 80 16 113h142l-17 -113h111l-18 -114h-108l-15 -99h112l-19 -113h-108l-17 -125h-143l18 125h-87l-18 -125h-142l18 125h-102l19 113h98l16 99h-103zM294 337l-15 -99h87c5 34 10 60 15 99h-87z" />
    <glyph glyph-name="degree" unicode="&#xb0;" horiz-adv-x="330" 
d="M165 413c-87 0 -145 61 -145 138c0 78 60 139 147 139s143 -61 143 -139c0 -77 -59 -138 -145 -138zM165 511c19 0 32 17 32 40c0 24 -13 42 -30 42c-21 0 -35 -18 -35 -42c0 -23 13 -40 33 -40z" />
    <glyph glyph-name="plus" unicode="+" horiz-adv-x="507" 
d="M21 239l-1 136h157v150h151v-150h158l1 -136h-158l-1 -148h-151l1 148h-157z" />
    <glyph glyph-name="minus" unicode="&#x2212;" horiz-adv-x="466" 
d="M20 240v136h426v-136h-426z" />
    <glyph glyph-name="plusminus" unicode="&#xb1;" horiz-adv-x="545" 
d="M40 356v136h157v145h151v-145h157v-136h-157v-144h-151v144h-157zM40 40v135h465v-135h-465z" />
    <glyph glyph-name="divide" unicode="&#xf7;" horiz-adv-x="506" 
d="M20 245v126h466v-126h-466zM159 104c0 47 42 92 96 92c55 0 91 -45 91 -91c0 -47 -42 -92 -96 -92c-55 0 -91 45 -91 91zM159 512c0 47 42 92 96 92c55 0 91 -45 91 -91c0 -47 -42 -92 -96 -92c-55 0 -91 45 -91 91z" />
    <glyph glyph-name="equal" unicode="=" horiz-adv-x="525" 
d="M30 336v125h465v-125h-465zM30 155v126h465v-126h-465z" />
    <glyph glyph-name="multiply" unicode="&#xd7;" horiz-adv-x="521" 
d="M31 442l93 93l137 -136l138 138l92 -94l-135 -136l135 -136l-94 -94l-136 136l-136 -136l-95 95l135 135z" />
    <glyph glyph-name="less" unicode="&#x3c;" horiz-adv-x="421" 
d="M391 36l-371 216v112l371 216v-154l-207 -117c68 -38 141 -79 207 -115v-158z" />
    <glyph glyph-name="greater" unicode="&#x3e;" horiz-adv-x="421" 
d="M30 580l371 -217v-111l-371 -216v154l207 116c-68 38 -141 80 -207 116v158z" />
    <glyph glyph-name="percent" unicode="%" horiz-adv-x="1036" 
d="M247 375c35 0 56 44 56 103c0 58 -21 108 -58 108c-33 0 -55 -43 -55 -103c0 -58 22 -108 57 -108zM247 266c-115 0 -193 98 -191 214c0 118 80 216 191 216c110 0 191 -98 191 -216c0 -116 -81 -214 -191 -214zM250 0l381 686h154l-380 -686h-155zM788 310
c-35 0 -56 -43 -56 -102s21 -109 58 -109c33 0 55 44 55 103s-22 108 -57 108zM788 420c115 0 193 -98 192 -215c0 -117 -81 -215 -192 -215c-110 0 -191 98 -191 215s81 215 191 215z" />
    <glyph glyph-name="space" unicode=" " horiz-adv-x="300" 
 />
    <glyph glyph-name="A.alt" 
d="M512 0l-55 129l-125 -138l-123 132l-47 -123h-152l238 606l-33 79h164l298 -685h-165zM328 440l-69 -176l76 -82l71 79z" />
    <glyph glyph-name="B.alt" horiz-adv-x="614" 
d="M516 522c0 -49 -19 -87 -43 -115h73v-407h-471v607l-44 78h279c137 0 206 -76 206 -163zM395 285h-166v-163h166v163zM229 565v-158h87c29 24 45 53 45 90c0 38 -25 68 -79 68h-53z" />
    <glyph glyph-name="E.alt" horiz-adv-x="579" 
d="M501 238l-79 47h-214c22 -96 94 -168 204 -168c38 0 78 6 122 22v-126c-46 -18 -93 -24 -132 -24c-215 0 -360 155 -356 353c0 195 156 354 359 354c36 0 74 -5 117 -17v-135c-35 14 -69 23 -115 23c-102 0 -176 -63 -199 -155h293v-174z" />
    <glyph glyph-name="a.alt" horiz-adv-x="568" 
d="M558 22l-132 -50l-36 90l-326 -78c-10 48 -19 104 -19 138c0 144 72 249 197 309l-31 79h153zM187 143v-6l162 38l-59 146c-65 -36 -100 -93 -103 -178z" />
    <glyph glyph-name="e.alt" horiz-adv-x="595" 
d="M551 204h-357c19 -72 82 -94 153 -94c19 0 62 4 99 18v-118c-31 -14 -74 -21 -120 -21c-181 0 -283 108 -283 265c0 132 105 267 251 267c176 0 268 -141 257 -317zM298 405c-40 0 -83 -32 -101 -90h198c-12 65 -51 90 -97 90z" />
    <glyph glyph-name="f.alt" horiz-adv-x="395" 
d="M75 344v280c42 61 121 106 212 106c32 0 63 0 101 -13v-117c-29 11 -60 12 -83 12c-34 0 -70 -16 -84 -30v-224h140v-113h-140v-245h-146v245h-56z" />
    <glyph glyph-name="g.alt" horiz-adv-x="523" 
d="M44 510h434v-113h-93c-108 -67 -170 -176 -175 -274h257v-91c0 -212 -127 -253 -244 -253c-54 0 -110 7 -171 22v129c57 -15 124 -25 178 -25c56 0 92 27 88 95h-252c-13 164 36 314 140 397h-82l-80 -45v158z" />
    <glyph glyph-name="Aacute.alt" 
d="M221 726l102 181h157l-132 -181h-127zM512 0l-55 129l-125 -138l-123 132l-47 -123h-152l238 606l-33 79h164l298 -685h-165zM328 440l-69 -176l76 -82l71 79z" />
    <glyph glyph-name="Acircumflex.alt" 
d="M120 731l114 182h128l114 -182h-129l-49 65l-48 -65h-130zM512 0l-55 129l-125 -138l-123 132l-47 -123h-152l238 606l-33 79h164l298 -685h-165zM328 440l-69 -176l76 -82l71 79z" />
    <glyph glyph-name="Adieresis.alt" 
d="M131 808c0 40 32 73 72 73s73 -33 73 -73s-33 -72 -73 -72s-72 32 -72 72zM324 808c0 40 32 73 72 73s73 -33 73 -73s-33 -72 -73 -72s-72 32 -72 72zM512 0l-55 129l-125 -138l-123 132l-47 -123h-152l238 606l-33 79h164l298 -685h-165zM328 440l-69 -176l76 -82l71 79
z" />
    <glyph glyph-name="Agrave.alt" 
d="M512 0l-55 129l-125 -138l-123 132l-47 -123h-152l238 606l-33 79h164l298 -685h-165zM328 440l-69 -176l76 -82l71 79zM311 907l102 -181h-127l-132 181h157z" />
    <glyph glyph-name="Amacron.alt" 
d="M512 0l-55 129l-125 -138l-123 132l-47 -123h-152l238 606l-33 79h164l298 -685h-165zM328 440l-69 -176l76 -82l71 79zM149 739v116h299v-116h-299z" />
    <glyph glyph-name="Aogonek.alt" 
d="M677 0h-60c-65 -39 -83 -76 -90 -109c6 -4 23 -8 33 -8c16 0 29 0 55 10v-101c-23 -10 -52 -16 -76 -16c-92 0 -127 47 -144 88c5 45 26 108 102 169l-40 96l-125 -138l-123 132l-47 -123h-152l238 606l-33 79h164zM328 440l-69 -176l76 -82l71 79z" />
    <glyph glyph-name="Aring.alt" 
d="M297 716c-79 0 -131 52 -131 120c0 67 54 120 134 120c79 0 132 -53 132 -120c0 -68 -55 -120 -135 -120zM297 800c22 0 33 15 33 36s-10 36 -32 36c-21 0 -32 -15 -32 -36s9 -36 31 -36zM512 0l-55 129l-125 -138l-123 132l-47 -123h-152l238 606l-33 79h164l298 -685
h-165zM328 440l-69 -176l76 -82l71 79z" />
    <glyph glyph-name="Atilde.alt" 
d="M512 0l-55 129l-125 -138l-123 132l-47 -123h-152l238 606l-33 79h164l298 -685h-165zM328 440l-69 -176l76 -82l71 79zM350 729l-103 63c-10 -8 -25 -26 -31 -62h-99c7 126 84 179 150 184l103 -63c10 8 25 26 31 62h99c-7 -126 -84 -179 -150 -184z" />
    <glyph glyph-name="Bdotaccent.alt" horiz-adv-x="614" 
d="M516 522c0 -49 -19 -87 -43 -115h73v-407h-471v607l-44 78h279c137 0 206 -76 206 -163zM395 285h-166v-163h166v163zM229 565v-158h87c29 24 45 53 45 90c0 38 -25 68 -79 68h-53zM184 804c0 40 32 73 72 73s73 -33 73 -73s-33 -72 -73 -72s-72 32 -72 72z" />
    <glyph glyph-name="Eacute.alt" horiz-adv-x="579" 
d="M262 726l102 181h157l-132 -181h-127zM501 238l-79 47h-214c22 -96 94 -168 204 -168c38 0 78 6 122 22v-126c-46 -18 -93 -24 -132 -24c-215 0 -360 155 -356 353c0 195 156 354 359 354c36 0 74 -5 117 -17v-135c-35 14 -69 23 -115 23c-102 0 -176 -63 -199 -155h293
v-174z" />
    <glyph glyph-name="Ecircumflex.alt" horiz-adv-x="579" 
d="M191 731l114 182h128l114 -182h-129l-49 65l-48 -65h-130zM501 238l-79 47h-214c22 -96 94 -168 204 -168c38 0 78 6 122 22v-126c-46 -18 -93 -24 -132 -24c-215 0 -360 155 -356 353c0 195 156 354 359 354c36 0 74 -5 117 -17v-135c-35 14 -69 23 -115 23
c-102 0 -176 -63 -199 -155h293v-174z" />
    <glyph glyph-name="Edieresis.alt" horiz-adv-x="579" 
d="M202 808c0 40 32 73 72 73s73 -33 73 -73s-33 -72 -73 -72s-72 32 -72 72zM395 808c0 40 32 73 72 73s73 -33 73 -73s-33 -72 -73 -72s-72 32 -72 72zM501 238l-79 47h-214c22 -96 94 -168 204 -168c38 0 78 6 122 22v-126c-46 -18 -93 -24 -132 -24
c-215 0 -360 155 -356 353c0 195 156 354 359 354c36 0 74 -5 117 -17v-135c-35 14 -69 23 -115 23c-102 0 -176 -63 -199 -155h293v-174z" />
    <glyph glyph-name="Egrave.alt" horiz-adv-x="579" 
d="M352 907l102 -181h-127l-132 181h157zM501 238l-79 47h-214c22 -96 94 -168 204 -168c38 0 78 6 122 22v-126c-46 -18 -93 -24 -132 -24c-215 0 -360 155 -356 353c0 195 156 354 359 354c36 0 74 -5 117 -17v-135c-35 14 -69 23 -115 23c-102 0 -176 -63 -199 -155h293
v-174z" />
    <glyph glyph-name="Emacron.alt" horiz-adv-x="579" 
d="M223 734v116h299v-116h-299zM501 238l-79 47h-214c22 -96 94 -168 204 -168c38 0 78 6 122 22v-126c-46 -18 -93 -24 -132 -24c-215 0 -360 155 -356 353c0 195 156 354 359 354c36 0 74 -5 117 -17v-135c-35 14 -69 23 -115 23c-102 0 -176 -63 -199 -155h293v-174z" />
    <glyph glyph-name="Eogonek.alt" horiz-adv-x="579" 
d="M501 238l-79 47h-214c22 -96 94 -168 204 -168c38 0 78 6 122 22v-126c-15 -6 -29 -10 -43 -13c-64 -39 -82 -76 -89 -109c6 -4 23 -8 33 -8c16 0 29 0 55 10v-101c-23 -10 -52 -16 -76 -16c-92 0 -127 47 -144 88c4 36 18 83 61 131c-175 30 -289 171 -285 347
c0 195 156 354 359 354c36 0 74 -5 117 -17v-135c-35 14 -69 23 -115 23c-102 0 -176 -63 -199 -155h293v-174z" />
    <glyph glyph-name="OE.alt" horiz-adv-x="947" 
d="M869 238l-79 47h-195c21 -96 88 -168 185 -168c32 0 68 1 122 22v-126c-43 -18 -86 -24 -122 -24c-83 0 -154 24 -211 65c-55 -41 -120 -65 -189 -65c-191 0 -337 159 -334 353c0 195 151 354 334 354c71 0 138 -26 194 -69c58 43 130 69 209 69c33 0 68 -5 107 -17v-135
c-32 14 -63 23 -105 23c-97 0 -167 -63 -189 -155h273v-174zM380 117c36 0 71 8 104 30c-34 56 -52 122 -50 195c0 69 19 133 52 187c-34 27 -70 38 -108 38c-100 0 -177 -98 -177 -218c0 -122 76 -232 179 -232z" />
    <glyph glyph-name="aacute.alt" horiz-adv-x="568" 
d="M558 22l-132 -50l-36 90l-326 -78c-10 48 -19 104 -19 138c0 144 72 249 197 309l-31 79h153zM187 143v-6l162 38l-59 146c-65 -36 -100 -93 -103 -178zM210 556l102 181h157l-132 -181h-127z" />
    <glyph glyph-name="acircumflex.alt" horiz-adv-x="568" 
d="M558 22l-132 -50l-36 90l-326 -78c-10 48 -19 104 -19 138c0 144 72 249 197 309l-31 79h153zM187 143v-6l162 38l-59 146c-65 -36 -100 -93 -103 -178zM108 561l114 182h128l114 -182h-129l-49 65l-48 -65h-130z" />
    <glyph glyph-name="adieresis.alt" horiz-adv-x="568" 
d="M558 22l-132 -50l-36 90l-326 -78c-10 48 -19 104 -19 138c0 144 72 249 197 309l-31 79h153zM187 143v-6l162 38l-59 146c-65 -36 -100 -93 -103 -178zM119 638c0 40 32 73 72 73s73 -33 73 -73s-33 -72 -73 -72s-72 32 -72 72zM312 638c0 40 32 73 72 73s73 -33 73 -73
s-33 -72 -73 -72s-72 32 -72 72z" />
    <glyph glyph-name="agrave.alt" horiz-adv-x="568" 
d="M558 22l-132 -50l-36 90l-326 -78c-10 48 -19 104 -19 138c0 144 72 249 197 309l-31 79h153zM187 143v-6l162 38l-59 146c-65 -36 -100 -93 -103 -178zM241 737l102 -181h-127l-132 181h157z" />
    <glyph glyph-name="amacron.alt" horiz-adv-x="568" 
d="M558 22l-132 -50l-36 90l-326 -78c-10 48 -19 104 -19 138c0 144 72 249 197 309l-31 79h153zM187 143v-6l162 38l-59 146c-65 -36 -100 -93 -103 -178zM117 569v116h299v-116h-299z" />
    <glyph glyph-name="aogonek.alt" horiz-adv-x="568" 
d="M558 22l-66 -25c-61 -38 -78 -74 -85 -106c6 -4 23 -8 33 -8c16 0 29 0 55 10v-101c-23 -10 -52 -16 -76 -16c-92 0 -127 47 -144 88c6 49 29 118 120 183l-5 15l-326 -78c-10 48 -19 104 -19 138c0 144 72 249 197 309l-31 79h153zM187 143v-6l162 38l-59 146
c-65 -36 -100 -93 -103 -178z" />
    <glyph glyph-name="aring.alt" horiz-adv-x="568" 
d="M558 22l-132 -50l-36 90l-326 -78c-10 48 -19 104 -19 138c0 144 72 249 197 309l-31 79h153zM187 143v-6l162 38l-59 146c-65 -36 -100 -93 -103 -178zM265 546c-79 0 -131 52 -131 120c0 67 54 120 134 120c79 0 132 -53 132 -120c0 -68 -55 -120 -135 -120zM265 630
c22 0 33 15 33 36s-10 36 -32 36c-21 0 -32 -15 -32 -36s9 -36 31 -36z" />
    <glyph glyph-name="atilde.alt" horiz-adv-x="568" 
d="M558 22l-132 -50l-36 90l-326 -78c-10 48 -19 104 -19 138c0 144 72 249 197 309l-31 79h153zM187 143v-6l162 38l-59 146c-65 -36 -100 -93 -103 -178zM318 559l-103 63c-10 -8 -25 -26 -31 -62h-99c7 126 84 179 150 184l103 -63c10 8 25 26 31 62h99
c-7 -126 -84 -179 -150 -184z" />
    <glyph glyph-name="eacute.alt" horiz-adv-x="595" 
d="M551 204h-357c19 -72 82 -94 153 -94c19 0 62 4 99 18v-118c-31 -14 -74 -21 -120 -21c-181 0 -283 108 -283 265c0 132 105 267 251 267c176 0 268 -141 257 -317zM298 405c-40 0 -83 -32 -101 -90h198c-12 65 -51 90 -97 90zM214 556l102 181h157l-132 -181h-127z" />
    <glyph glyph-name="ecircumflex.alt" horiz-adv-x="595" 
d="M551 204h-357c19 -72 82 -94 153 -94c19 0 62 4 99 18v-118c-31 -14 -74 -21 -120 -21c-181 0 -283 108 -283 265c0 132 105 267 251 267c176 0 268 -141 257 -317zM298 405c-40 0 -83 -32 -101 -90h198c-12 65 -51 90 -97 90zM116 561l114 182h128l114 -182h-129l-49 65
l-48 -65h-130z" />
    <glyph glyph-name="edieresis.alt" horiz-adv-x="595" 
d="M551 204h-357c19 -72 82 -94 153 -94c19 0 62 4 99 18v-118c-31 -14 -74 -21 -120 -21c-181 0 -283 108 -283 265c0 132 105 267 251 267c176 0 268 -141 257 -317zM298 405c-40 0 -83 -32 -101 -90h198c-12 65 -51 90 -97 90zM134 638c0 40 32 73 72 73s73 -33 73 -73
s-33 -72 -73 -72s-72 32 -72 72zM327 638c0 40 32 73 72 73s73 -33 73 -73s-33 -72 -73 -72s-72 32 -72 72z" />
    <glyph glyph-name="egrave.alt" horiz-adv-x="595" 
d="M551 204h-357c19 -72 82 -94 153 -94c19 0 62 4 99 18v-118c-31 -14 -74 -21 -120 -21c-181 0 -283 108 -283 265c0 132 105 267 251 267c176 0 268 -141 257 -317zM298 405c-40 0 -83 -32 -101 -90h198c-12 65 -51 90 -97 90zM293 737l102 -181h-127l-132 181h157z" />
    <glyph glyph-name="emacron.alt" horiz-adv-x="595" 
d="M551 204h-357c19 -72 82 -94 153 -94c19 0 62 4 99 18v-118c-31 -14 -74 -21 -120 -21c-181 0 -283 108 -283 265c0 132 105 267 251 267c176 0 268 -141 257 -317zM298 405c-40 0 -83 -32 -101 -90h198c-12 65 -51 90 -97 90zM162 569v116h299v-116h-299z" />
    <glyph glyph-name="eogonek.alt" horiz-adv-x="595" 
d="M551 204h-357c19 -72 82 -94 153 -94c19 0 62 4 99 18v-118c-10 -5 -20 -8 -32 -11c-64 -38 -81 -75 -88 -108c6 -4 23 -8 33 -8c16 0 29 0 55 10v-101c-23 -10 -52 -16 -76 -16c-92 0 -127 47 -144 88c4 36 18 83 61 131c-136 25 -212 123 -212 259
c0 132 105 267 251 267c176 0 268 -141 257 -317zM298 405c-40 0 -83 -32 -101 -90h198c-12 65 -51 90 -97 90z" />
    <glyph glyph-name="fdotaccent.alt" horiz-adv-x="395" 
d="M75 344v280c42 61 121 106 212 106c32 0 63 0 101 -13v-117c-29 11 -60 12 -83 12c-34 0 -70 -16 -84 -30v-224h140v-113h-140v-245h-146v245h-56zM197 842c0 40 32 73 72 73s73 -33 73 -73s-33 -72 -73 -72s-72 32 -72 72z" />
    <glyph glyph-name="gdotaccent.alt" horiz-adv-x="523" 
d="M44 510h434v-113h-93c-108 -67 -170 -176 -175 -274h257v-91c0 -212 -127 -253 -244 -253c-54 0 -110 7 -171 22v129c57 -15 124 -25 178 -25c56 0 92 27 88 95h-252c-13 164 36 314 140 397h-82l-80 -45v158zM204 639c0 40 32 73 72 73s73 -33 73 -73s-33 -72 -73 -72
s-72 32 -72 72z" />
    <glyph glyph-name="fi.alt" horiz-adv-x="661" 
d="M349 727v-118c-17 2 -31 3 -44 3c-34 0 -70 -16 -84 -30v-224h120v-113h-120v-245h-146v245h-56l56 99v280c42 61 121 106 212 106c20 0 40 0 62 -3zM581 510v-510h-146v430l-45 80h191zM413 647c0 47 38 85 86 85c51 0 90 -38 90 -85c0 -45 -39 -83 -90 -83
c-48 0 -86 38 -86 83z" />
    <glyph glyph-name="f_f_i.alt" horiz-adv-x="1016" 
d="M936 510v-510h-146v430l-45 80h191zM768 647c0 47 38 85 86 85c51 0 90 -38 90 -85c0 -45 -39 -83 -90 -83c-48 0 -86 38 -86 83zM349 717v-118c-17 2 -31 3 -44 3c-34 0 -70 -16 -84 -30v-214h120v-113h-120v-245h-146v245h-56l56 99v270c42 61 121 106 212 106
c20 0 40 0 62 -3zM704 727v-118c-17 2 -31 3 -44 3c-34 0 -70 -16 -84 -30v-224h120v-113h-120v-245h-146v624c42 61 121 106 212 106c20 0 40 0 62 -3z" />
    <glyph glyph-name="fl.alt" horiz-adv-x="663" 
d="M588 -9c-124 0 -158 64 -158 158v570h146v-566c0 -28 12 -41 45 -41c8 0 17 1 27 2v-117c-12 -2 -43 -6 -60 -6zM349 727v-118c-17 2 -31 3 -44 3c-34 0 -70 -16 -84 -30v-224h120v-113h-120v-245h-146v245h-56l56 99v280c42 61 121 106 212 106c20 0 40 0 62 -3z" />
    <glyph glyph-name="f_f_l.alt" horiz-adv-x="1018" 
d="M349 717v-118c-17 2 -31 3 -44 3c-34 0 -70 -16 -84 -30v-214h120v-113h-120v-245h-146v245h-56l56 99v270c42 61 121 106 212 106c20 0 40 0 62 -3zM704 727v-118c-17 2 -31 3 -44 3c-34 0 -70 -16 -84 -30v-224h120v-113h-120v-245h-146v624c42 61 121 106 212 106
c20 0 40 0 62 -3zM943 -9c-124 0 -158 64 -158 158v570h146v-566c0 -28 12 -41 45 -41c8 0 17 1 27 2v-117c-12 -2 -43 -6 -60 -6z" />
    <glyph glyph-name="F_f.alt" horiz-adv-x="886" 
d="M419 393v-127h-190v-266h-153v605l-45 80h428v-128h-230v-164h190zM566 0v266h-56l56 99v259c42 61 121 106 212 106c32 0 63 0 101 -13v-117c-29 11 -60 12 -83 12c-34 0 -70 -16 -84 -30v-203h140v-113h-140v-266h-146z" />
    <glyph glyph-name="f.alt_f.alt" horiz-adv-x="711" 
d="M349 717v-118c-17 2 -31 3 -44 3c-34 0 -70 -16 -84 -30v-214h120v-113h-120v-245h-146v245h-56l56 99v270c42 61 121 106 212 106c20 0 40 0 62 -3zM704 727v-118c-17 2 -31 3 -44 3c-34 0 -70 -16 -84 -30v-224h120v-113h-120v-245h-146v624c42 61 121 106 212 106
c20 0 40 0 62 -3z" />
    </font>
</defs>
</svg>
